This file was generated by Ched 2.7.0.0.
#TITLE ""
#ARTIST ""
#DESIGNER ""
#DIFFICULTY 0
#PLAYLEVEL
#SONGID ""
#WAVE ""
#WAVEOFFSET 0
#JACKET ""
#REQUEST "ticks_per_beat 480"
#00002: 4
#BPM01: 240
#00008: 01
#TIL00: ""
#HISPEED 00
#MEASUREHS 00
#0001a:14
#00114:14
#00218:14
#00312:14
#0041a:14
#00514:14
#00618:14
#00918:14
#01014:14
#0111a:14
#01212:14
#01318:14
#01414:14
#01714:14
#01818:14
#01912:14
#0201a:14
#02114:14
#02218:14
#02312:14
#0281a:14
#02914:14
#03212:14
#03318:14
#03618:14
#03610:41
#03712:14
#04014:14
#0411a:14
#08118:0016
#08112:26
#0811f:21
#08212:16
#08218:0016
#08210:0041
#08512:1616
#08618:1616
#08712:1616
#08713:00160016
#08812:16
#08813:00160000
#08912:0016
#08918:26
#09018:16
#09012:0016
#09318:1616
#09412:1616
#09518:16
#09512:0016
#09712:0016
#09818:16
#09812:0016
#10118:16
#10112:0016
#10218:16
#10212:0016
#10512:00160000
#10518:2616
#10510:41
#10612:1616
#10618:00160000
#10712:00160000
#10718:1616
#10812:1616
#10818:00160000
#10918:16161600
#11012:16161600
#11118:16161600
#11212:16161600
#0651f:11
#09618:0036363600363636
#00810:41
#02410:41
#04910:41
#08752:5656
#08753:00260026
#08852:56
#08853:00260000
#007320:14
#008320:24
#0153a0:14
#0163a0:24
#0243a0:14
#025380:24
#026320:14
#027340:24
#0303a0:14
#0313a0:24
#034320:14
#035320:24
#038380:14
#039380:24
#042340:14
#042320:00000034
#043340:0034
#044320:00340000
#045340:24
#045380:0014
#0463a0:00340000
#047380:34
#0473a0:00000034
#048380:0024
#049320:14
#049340:00000034
#050320:0034
#051340:00340000
#052320:24
#0523a0:0014
#053380:00340000
#0543a0:34
#054380:00000034
#0553a0:0024
#056340:14
#056320:00000034
#057340:0034
#058320:00340000
#059340:24
#059380:0014
#0603a0:00340000
#061380:34
#0613a0:00000034
#062380:0024
#065320:14
#066320:24
#067380:14
#068380:24
#069340:14
#070340:24
#0713a0:14
#0723a0:24
#073340:14
#074340:24
#0753a0:14
#0763a0:24
#077320:14
#078320:24
#079380:14
#080380:24
#083320:1626
#084380:1626
#087320:1636
#087330:00560056
#088320:3626
#088330:00560000
#091380:1626
#092320:1626
#096380:1636363600363636
#096360:0036
#097380:26
#099380:1626
#100320:1626
#103380:16
#103360:0026
#104320:16
#104340:0026
#113380:16
#114380:0026
#115320:15
#116320:0025
#1173a0:14
#1193a0:24
#120340:16565656
#120330:0056005600560056
#121340:56565656
#121330:0056005600560056
#122340:56565656
#122330:0056005600560056
#123340:56565656
#123330:0056005600560056
#124340:5626
