This file was generated by Ched 2.7.0.0.
#TITLE ""
#ARTIST ""
#DESIGNER ""
#DIFFICULTY 0
#PLAYLEVEL
#SONGID ""
#WAVE ""
#WAVEOFFSET 0
#JACKET ""
#REQUEST "ticks_per_beat 480"
#00002: 4
#BPM01: 240
#00008: 01
#TIL00: ""
#HISPEED 00
#MEASUREHS 00
#0001b:1300000000130000
#00012:13130000
#00015:0000001300000000
#00018:0000000013000013
#00118:0013000013000000
#00115:1300001300131300
#00112:0013000000000000
#0011b:0000000000131300
#0021b:1313
#00215:0000130000000013
#00218:0000001300130000
#00212:1313
#00315:0013000013000000
#00312:1300000000131300
#0031b:13
#00318:0000001300131300
#0041b:1300130000000013
#00418:0000001300000000
#00412:1300000000130000
#00415:0013
#0051b:0013001300130000
#00518:0000000013000013
#00515:00000013
#00512:0000001300130000
#00516:13130000
#0061b:1300001300000000
#00618:0013
#00615:0000000000130000
#00612:00000013
#00712:1313
#00715:0013000000000013
#00718:0000130000130000
#0071b:0000001300000000
#00717:0013
#00719:00000013
#0071a:0000000000000013
#00713:0000000000130000
#00714:00000013
#00812:23131313
#00818:00131300
#0081b:2300000000130000
#00817:0000000000000013
#00810:41
#00912:13131313
#00917:0013000000000000
#0091b:00001313
#00918:0000000000130000
#01412:13
#0141b:0000001300000000
#01417:13
#01416:0000001300000000
#01415:0000000000000013
#01618:13131313
#0161b:0013000000130000
#01612:13131313
#01718:0013000013001300
#01715:0000000000130000
#01712:13131313
#0171b:0000001300000013
#02418:0013000000001300
#02415:0000001300130000
#0241b:2300230000130013
#02412:23230000
#02410:41
#0251b:0013000000130000
#02518:00130013
#02515:0013001300000000
#02512:00000013
#04116:1414141414141414
#04212:1400001400001400
#0421a:1400001400001400
#04216:0014140000000014
#04412:0000140000140000
#0441a:0000140000140000
#04416:0000001414001414
#0451a:1400140014000014
#04512:1400140014000014
#04516:0014001400141400
#02812:1300000013000013
#02818:0000130000130000
#02815:0013000000000000
#0281b:1300000013000013
#02915:1300001600001600
#02912:0000130000130000
#0291b:0000130000130000
#03515:00000013
#03518:0000000000000013
#0351b:0000001300000000
#03512:0000000000130000
#03412:1300001400140014
#05612:1300001300001300
#05618:00001300000000001300000000000013
#05615:0000130000130013
#0561b:1300001300001300
#0551b:0013000013131313
#05512:0000000013131313
#05518:13
#05517:00130000
#05712:1300000000130000
#05714:0013000000001300
#05716:0000130000000013
#05718:0000001300000000
#0571a:0013
#05818:13
#05815:0013000000160000
#05817:00130000
#05819:0000001300000000
#0581b:0000000013001313
#05812:0000000013001313
#06319:0012001200000000
#06315:00120000
#06314:0000000000120000
#0631a:0000000000000012
#06413:0012000000000000
#0641b:0000001200000000
#06416:0000000000120000
#06418:00000012
#0811a:14
#08112:1400000013000013
#08115:0000000000130000
#08118:00000013
#0811b:0000001300000013
#0811f:21
#08218:0000000013130013
#08215:00000000000000000013000000000000
#0821b:0013000000001300
#08212:0000001300000013
#08216:0013000000000000
#08219:00130000
#08214:00130000
#08217:0000001300000000
#08210:0041
#08716:13
#08712:0000001300000000
#0871b:13
#08717:0000001300000000
#08812:1300000013130000
#08815:00001300000000000000000000130013
#08818:0000130000001313
#0881b:0000000013130000
#09515:0013000000130000
#09518:00130013
#0951b:0000001300000013
#09512:1313
#09618:1313000013130000
#09612:1313
#0961b:00130013
#09615:0000131300001313
#10012:13131313
#10018:00000000000000000013000000130000
#10015:0000001400130013
#1001b:13000000130000000000001300000013
#10312:1313001300000000
#1031b:1313001300000000
#10315:00000000000000000000001300000000
#10318:0000000000131300
#1091b:1313130013001300
#10912:1300130013131300
#10917:0000000000130000
#10916:0013000000000000
#1101b:1313000013001300
#11012:1300130013130000
#11016:0013000000001300
#11017:0000130000130000
#11316:0014001400001400
#1131a:2400000000140014
#11312:0000240000000014
#11412:0014001400001400
#11416:0000140000140000
#1141a:0000001400001400
#11517:0013000000000000
#11516:0000001300000000
#1151b:2300000000130013
#11518:00000013
#11515:0000000000000013
#11512:00230000
#11618:0013001300000000
#11615:00130000
#11612:0000001300131300
#1161b:0000000000131300
#11717:0012001200000000
#1171c:2200000000120012
#11716:00000012
#11712:00220000
#11812:0012001200001200
#11818:00120000
#1181a:0000000000120000
#1181c:00000012
#11814:0000000000120000
#02212:1300130013000013
#02218:1300001300001300
#02215:0013000000130000
#0221b:0000130000000013
#0361b:1300000013130013
#03615:00160000
#03612:1300000013160013
#03618:0013000000000000
#03610:41
#03715:16000016
#03712:0000131600130000
#0371b:1300131300131300
#0651a:12
#06518:0000121200001200
#06514:1200000000120000
#06516:0000000000000012
#0651f:11
#0661a:0012000000120000
#06618:0000001200000000
#0661c:0000000000000012
#06616:0000120000000012
#06614:0000000000120000
#06714:000000120000000000000000000000001200000000000000
#0671c:0000001200000000
#06716:000000000000000000120000000000000000000012000000
#0671a:0012000000000000
#06818:121200
#06816:001200000012
#0681a:0012
#06814:000012
#0691a:1200000000000012
#06918:0000120000120000
#06914:0000001200000000
#0701c:0012000000000000
#0701a:0000001200000012
#07018:0000000000120000
#07014:12
#07012:0012
#07114:1212000000000000
#0711a:0000001200000000
#07115:0000000000121200
#0711b:0000000000121200
#0301b:0000001300130000
#03018:0000000000000013
#03012:0000001300130000
#0311b:0013000000130013
#03112:0013000000130013
#03115:1300001300000000
#03118:0013
#10615:0000001300000013
#10618:0013000000130000
#10612:13131313
#1061b:13131313
#10515:0000001300000013
#10518:0000000000130000
#10512:13131313
#1051b:00131313
#10510:41
#10715:0016001600160016
#10712:13131313
#1071b:13131313
#0491b:13000013
#04915:00130000
#04918:0013000000000013
#04912:1300001300000000
#04913:0013
#04910:41
#10815:0016001600160016
#1081b:13131313
#10812:13131313
#08918:1600000000130000
#0891b:0000000013000013
#08915:00000013
#08912:0000001300000013
#0101b:13131313
#01015:00131300
#01012:1300000000130000
#01016:0000000000000013
#0111b:13131313
#01116:0013000000000000
#01112:00001313
#01115:0000000000130000
#01212:13131313
#01218:00131300
#0121b:1300000000130000
#01217:0000000000000013
#01312:13131313
#01317:0013000000000000
#0131b:00001313
#01318:0000000000130000
#01518:1300001300000000
#0151b:0013000000130000
#01515:0013
#01512:0013000000130000
#01815:13131313
#01812:0013000000130000
#0181b:13131313
#01915:0013000013001300
#01918:0000000000130000
#0191b:13131313
#01912:0000001300000013
#02018:13131313
#0201b:0013000000130000
#02012:13131313
#02118:0013000013001300
#02115:0000000000130000
#02112:13131313
#0211b:0000001300000013
#02615:0013000000001300
#02618:0000001300130000
#02612:2300230000130013
#0261b:23230000
#02712:0013000000130000
#02715:00130013
#02718:0013001300000000
#0271b:00000013
#0321b:1300000013000013
#03215:0000130000130000
#03218:0013000000000000
#03212:1300000013000013
#03318:13
#03312:0000131900130000
#03315:00000019
#0331b:0000130000130000
#03812:0000001300130000
#03815:0000000000000013
#0381b:0000001300130000
#03912:0013000000130013
#0391b:0013000000130013
#03918:1300001300000000
#03915:0013
#04012:1300000013130000
#04015:0013160000000000
#04018:0000000000160000
#0401b:1313
#04316:1400000000141400
#04312:0014000014000014
#0431a:0014000014000014
#0481a:0014000014000000
#04812:0014000014000000
#04816:1400000000141414
#05015:13000013
#05012:0013000000000013
#0501b:0013
#05018:0000000000130000
#05014:00130000
#0511b:00130000
#05115:1313
#05118:0000001300000000
#05112:0000000000130000
#05116:00000013
#05212:00261300
#05218:26000013
#05215:0000000000130000
#0521b:0000000013000013
#05918:00000000000000000000000000130000
#05915:00000000000000000000000000130000
#07314:12
#07316:0000121200001200
#0731a:1200000000120000
#07318:0000000000000012
#07414:0012000000120000
#07416:0000001200000000
#07412:0000000000000012
#07418:0000120000000012
#0741a:0000000000120000
#0751a:000000120000000000000000000000001200000000000000
#07512:0000001200000000
#07518:000000000000000000120000000000000000000012000000
#07514:0012000000000000
#07616:121200
#07618:001200000012
#07614:0012
#0761a:000012
#07714:1200000000000012
#07716:0000120000120000
#0771a:0000001200000000
#07812:0012000000000000
#07814:0000001200000012
#07816:0000000000120000
#0781a:12
#0781c:0012
#0791a:1212000000000000
#07914:0000001200000000
#07919:0000000000121200
#07913:0000000000121200
#08312:1300000000001313
#08315:0013000000000000
#08318:00130000
#0831b:0000001313000013
#08314:0000000000130000
#08319:0000000000130000
#08316:0013
#08317:00000013
#08412:0013001300131300
#08416:00130000
#0841b:0013001300131300
#08512:1400001300000013
#0851b:0000000013000013
#08518:0000000000130000
#08515:00000013
#0851a:14
#08615:0000000013130013
#08618:00000000000000000013000000000000
#08612:0013000000001300
#0861b:0000001300000013
#08617:0013000000000000
#08614:00130000
#08619:00130000
#08616:0000001300000000
#09012:0013000013130013
#09017:00001300000000000013000000000000
#0901b:0000001300001300
#09018:0000000000000013
#09014:00130000
#09019:00130000
#09016:0000001300000000
#0911b:1300000000001313
#09118:0013000000000000
#09115:00130000
#09112:0000001313000013
#09119:0000000000130000
#09114:0000000000130000
#09117:0013
#09116:00000013
#0921b:0013001300000000
#09217:00130000
#09212:0000000000131300
#09312:1600000013000013
#09315:0000000000130000
#09318:00000013
#0931b:0000001300000013
#0941b:0013000013130013
#09416:00001300000000000013000000000000
#09412:0000001300001300
#09415:0000000000000013
#09419:00130000
#09414:00130000
#09417:0000001300000000
#0971b:13131313
#09712:13131313
#09717:0000001400000000
#09716:0000000000000014
#0981b:13131313
#09815:0000001400000000
#09816:0000000000000014
#09812:13131313
#0991b:13131313
#09912:13131313
#09917:0000001400000000
#09916:0000000000000014
#10112:13131313
#10115:0000001400000000
#10116:0000000000000014
#1011b:00131313
#10212:13131313
#10217:0000001400000000
#10216:0000000000000014
#1021b:13131313
#10413:0013
#10417:00000000000000000013000000000000
#10414:0000000000130000
#10418:00000000000000000000001300000000
#10415:00000013
#10419:00000000000000000000000000130000
#10416:0000000000000013
#1041a:00000000000000000000000000000013
#11116:1300000013130000
#11112:0000130000001313
#1111b:00000000000000000013001300000000
#11117:00000000000000000000000000130013
#1121b:0000130000001313
#11217:0000000013130000
#11212:00000000000000000013001300000000
#11216:00000000000000000000000000130013
#05312:00130000
#05318:0013
#05315:0000001300000000
#0531b:0000000000130000
#0531a:13
#05319:00000013
#05412:13000013
#05418:00131300
#05415:0013000000000013
#0541b:0000001300000000
#04612:0000140000140000
#0461a:0000140000140000
#04616:0000001414000000
#0471a:1400001400001400
#04712:1400001400001400
#04716:0014140000000014
#0231b:23
#02318:0023000026000000
#02315:00230000
#02312:0000002300000026
#02316:0000000000260000
#02314:00000026
#02858:0000130000130000
#02955:1300001600001600
#03452:0000003400340034
#03655:00160000
#03652:0000000000160000
#03755:16000016
#03752:0000001600000000
#01452:53
#0145b:0000005300000000
#01456:0000005300000000
#0425a:0000001400000000
#04452:00140000
#0445a:0000000000140000
#04552:1400000000000014
#0455a:00140000
#00857:0000000000000013
#00957:0013000000000000
#08756:63
#08752:0000006300000000
#0875b:63
#08757:0000006300000000
#1145a:00000014
#11452:00000014
#1165b:00000013
#11652:00000013
#1185c:00000012
#11852:00000012
#10552:1313
#1055b:00130013
#10652:1313
#1065b:00130013
#10752:1313
#1075b:00130013
#10852:1313
#1085b:00130013
#08858:00130000
#08958:16
#08152:14
#0815a:14
#01056:0000000000000013
#01156:0013000000000000
#01257:0000000000000013
#01357:0013000000000000
#03255:0000130000130000
#03358:13
#03352:0000001900000000
#03355:00000019
#0355b:0000005300000000
#04055:00160000
#04058:0000000000160000
#04352:0014000000000000
#0435a:0000000000000014
#04952:0000005300330000
#04953:0023
#05052:0053003300000053
#05054:00230000
#05152:0033000000530033
#05155:23
#05156:00000023
#0585b:0000000000000053
#05852:0000000000000053
#05958:00000000000000000000000000230000
#05955:00000000000000000000000000230000
#08552:14
#0855a:14
#09352:16
#0975b:13
#09752:0013
#0985b:13
#09852:0013
#0995b:13
#09952:0013
#1005b:13
#10152:13
#1015b:0013
#10252:13
#1025b:0013
#10352:0000005300000000
#10358:00000053
#0525b:0000000000000063
#0535b:0043000000630043
#0535a:23
#05359:00000023
#0545b:0000006300430000
#05458:0023
#0555b:0063004300000000
#05557:00230000
#0465a:0000000000140000
#04752:0000001400000000
#0485a:0014000000000000
#006350:0013002300000000
#014320:13000023
#014360:0000003300000000
#0143b1:0000001300000000
#014371:00000023
#0303b1:13230000
#030320:13230000
#0343b0:13000000000000000000000000000000000000000000000033000000000000000000000000000000330000000000000000000000000000003300000000000053
#034380:00000000005300000053000000530000
#035370:37373737370000000000230000000000
#0353b0:00530053005300530053005300530053005300000000000033000000000000000000000000000000000000000000000000000000000000000000000000000000
#038320:13230000
#0383b1:13230000
#049321:0000001300230000
#049331:0053
#0493b0:0000001300230000
#050320:0013002300000000
#050340:00530000
#0503b1:0013002300000000
#050321:0000000000000013
#051351:53
#051321:0023000000000000
#0503b0:0000000000000013
#0513b0:0023000000000000
#051320:0000000000130023
#051360:00000053
#0513b1:0000000000130023
#0523b1:0000000000000013
#0533a1:53
#0533b1:0023000000000000
#052320:0000000000000013
#053320:0023000000000000
#0533b0:0000000000130023
#053390:00000053
#053321:0000000000130023
#0543b1:0000001300230000
#054381:0053
#054320:0000001300230000
#0553b0:0013002300000000
#055370:00530000
#055321:0013002300000000
#058321:0000000000000013
#059351:00000000000000000000000000530000
#060321:00000023
#0583b0:0000000000000013
#059380:00000000000000000000000000530000
#0603b0:00000033
#0603a0:00000000000000000000000000330000
#060390:0000000000000033
#060380:00000000000000000000000000000033
#061370:23
#061321:13
#061331:00330000000000000000000000000000
#061341:0033000000000000
#061351:00000033000000000000000000000000
#061361:00230000
#0613b0:00130000
#0613a0:00000000003300000000000000000000
#061390:0000003300000000
#061380:00000000000000330000000000000000
#061370:0023
#061321:0013
#061331:00000000000000000033000000000033
#061341:0000000000330033
#061351:00000000000000000000003300330000
#061361:00000033
#062321:23
#0613b0:00000013
#0613a0:00000000000000000000000000330000
#061390:0000000000000033
#061380:00000000000000000000000000000033
#062370:33
#062380:00330000000000000000000000000000
#062390:0033000000000000
#0623a0:00000033000000000000000000000000
#0623b0:00230000
#062361:00130000
#062351:00000000003300000000000000000000
#062341:0000003300000000
#062331:00000000000000330000000000000000
#062321:0023
#062370:0013
#062380:00000000000000000033000000000000
#062390:0000000000330000
#0623a0:00000000000000000000003300000000
#0623b0:00000023
#062361:00000013
#062351:00000000000000000000000000330000
#062341:0000000000000033
#062331:00000000000000000000000000000033
#063321:23
#087361:13
#087321:00230000
#0873b0:13
#087370:00230000
#087320:0000001300000000
#087360:0000000000000023
#087371:0000001300000000
#0873b1:0000000000000023
#092321:0013002300000000
#0923b1:0000000000132300
#103321:0000001300000000
#103351:0000000000230000
#103381:00000013
#1043b1:23
#104320:13
#104330:00330000000000000000000000000000
#104340:0033000000000000
#104350:00000033000000000000000000000000
#104360:00230000
#1043b1:00130000
#1043a1:00000000003300000000000000000000
#104391:0000003300000000
#104381:00000000000000330000000000000000
#104371:0023
#1113b1:1323
#1113a1:00330000000000330000000000000000
#111391:0033003300000000
#111381:00000033003300000000000000000000
#111371:00330000
#112321:1323
#112331:00330000000000330000000000000000
#112341:0033003300000000
#112351:00000033003300000000000000000000
#112361:00330000
#119351:13
#120351:23
#1203b0:13535353535353535353535353535353
#120390:0055005500550055005500550055005500550055005500550055005500550055
#1213b0:53535353535353535353535353535353
#121370:0057005700570057005700570057005700570057005700570057005700570057
#1223b0:53535353535353535353535353535353
#122350:0059005900590059005900590059005900590059005900590059005900590059
#1233b0:53535353535353535353535353535353
#123330:005b005b005b005b005b005b005b005b00000000000000000000000000000000
#123320:00000000000000000000000000000000005c005c005c005c005c005c005c005c
#1243c0:5222
