This file was generated by Ched 2.7.0.0.
#TITLE ""
#ARTIST ""
#DESIGNER ""
#DIFFICULTY 0
#PLAYLEVEL
#SONGID ""
#WAVE ""
#WAVEOFFSET 0
#JACKET ""
#REQUEST "ticks_per_beat 480"
#00002: 4
#BPM01: 240
#00008: 01
#TIL00: ""
#HISPEED 00
#MEASUREHS 00
#0001b:1300000000130000
#00012:00130000
#00018:0000001300000000
#00015:0000000013000013
#00115:0013000013001300
#0011b:0000001300130000
#00118:13
#00218:1300001300000000
#00212:00130000
#00215:0000000013000013
#0021b:0000000000130000
#00315:0013000000000000
#0031b:13
#00312:00001313
#00318:0000001300130000
#0041b:1300000000130000
#00412:0000130000000013
#00418:0000001300000000
#00415:0013
#00514:0000001300000000
#0051a:0013
#00515:0000000000130000
#0051b:00000013
#00513:0013000000000000
#00518:13
#00519:00130000
#00612:13
#0061b:0000000033330000
#00712:1313
#00718:0013000000130000
#00715:00130013
#0071b:0000001300000013
#00815:0000130000130000
#00818:0013
#00819:0000000000000014
#00812:23
#0081b:23
#00810:41
#00913:0014000000000000
#00918:00001313
#00915:0000000000130000
#01618:1313
#0161b:00130013
#01612:1313
#01615:0000130000000013
#01718:0000000000130000
#0171b:13130000
#01712:00001313
#01715:0013000000000000
#02415:0013001300001300
#02418:0000000000130000
#0241b:2300230000000013
#02410:41
#0251b:0000000000130000
#02512:0000001300001300
#02515:0013000000000000
#02518:00130000
#0421a:14140000
#04216:0014001400000014
#04212:00000014
#04512:14001414
#0451a:00140000
#04516:0000000000140014
#0281b:00130000
#02815:0013000000000013
#02812:0013
#02818:1300000000130000
#0291b:13000013
#02918:0000001300000000
#02912:00130000
#02915:0000000000130000
#05515:0000000000130013
#0551b:13001313
#06318:0012000000000000
#06316:00120000
#0631a:0000001200000000
#06315:0000000000120000
#06319:0000000000000012
#06314:12
#06415:0012000000000000
#06419:0000001200000000
#06416:0000000000120000
#06418:00000012
#08112:1413
#08118:0000000000130000
#08115:00000013
#0811b:0000001300000013
#0811a:14
#0811f:21
#08812:13
#08818:0013000000000000
#0881b:0000001300130000
#08815:0013
#09515:0013001300130000
#09518:00130013
#0951b:0013
#09512:0000000000000013
#0961b:13130000
#09615:0013001300000000
#09618:00001313
#09612:0000000000130013
#10312:1313001300000000
#1031b:0013001300000000
#10315:00000013
#10318:0000000000130000
#10915:1300000000130000
#1091b:00130013
#10912:00130013
#10918:0013000013000000
#11314:0014001400000000
#1131a:2400240000140000
#11316:00000014
#11312:0000000000000014
#11412:0014000000001400
#11416:00140000
#1141a:0000001400140000
#11515:0013000000000013
#11512:0000001300000000
#1151b:2300000000130000
#11518:00230013
#11612:0013000000001300
#11615:00130000
#11618:0000001300130000
#11714:0012001200000000
#1171a:0000000000120012
#11716:00000012
#11719:22220000
#11814:0012001200000000
#11818:0000120000120000
#11816:00000012
#0221b:0013
#02218:13130013
#02215:0013001300130000
#02212:0000000000000013
#0651b:13
#06515:00130000
#06518:0000001300000013
#06512:1300000000130000
#0651f:11
#06615:0013000000130000
#0661b:0000001300000000
#06618:0000000000000013
#0681b:000000000013
#06812:333333330000
#06915:1300000000130000
#06918:0000130000000013
#06912:0000001300000000
#0701b:0013000000000000
#07018:0000001300000000
#07015:0000000000130000
#07012:0000000000000013
#03018:0000001300000013
#03015:0000000000130000
#0311b:0013000000000000
#03115:1300001300000000
#03112:0000000000130000
#03118:0000000013000013
#10615:1300001300000000
#10618:0000000013000013
#10612:00000013
#1061b:00130000
#10518:0000000013000013
#10512:00000013
#10515:0000001300000000
#1051b:00130000
#10510:41
#04915:00130013
#04918:0013000000000013
#04912:13
#04910:41
#0101b:13
#01012:13
#01018:0000130000130000
#01015:0013
#01013:0000000000000014
#01415:0000001300000013
#01412:13
#01418:13
#0141b:0000001300000000
#01518:1300001300000000
#01515:0013
#0151b:0000000000130000
#01512:0013000000000000
#04312:14
#04316:0014000000140014
#0431a:00001414
#04812:0014
#04818:0000000000140000
#04814:00000014
#0481a:1400000000000014
#04816:0014000000000000
#08212:0013000000000000
#08218:00130000
#08215:0000001300000000
#0821b:00000000000000000033000000000000
#08210:0041
#08315:0013000000130000
#08318:00130013
#08312:0000001300000013
#0831b:0013
#08418:00130013
#08415:0000001300130000
#0841b:0013000000000000
#0871b:0000001300000000
#08914:0000000000130000
#08919:00000013
#08916:0000000000000013
#08912:1400001300000000
#08917:0013
#0891a:14
#0901b:0013000000000000
#09015:00130000
#09018:0000001300000000
#09012:00000000000000000033000000000000
#09115:00130013
#09112:0013
#09118:0013000000130000
#0911b:0000001300000013
#09218:0013000000131300
#09215:00130000
#0921b:0000001300000000
#09212:0000000000131300
#0971b:13000013
#09716:0000001400000014
#09712:00131300
#0981b:13000013
#09816:0000001400000014
#09812:00131300
#0991b:13000013
#09916:0000001400000014
#09912:00131300
#10016:0000001400000000
#1001b:1300000000000013
#10012:00131300
#10015:0000000000130000
#10018:00000013
#10212:13000013
#10216:0000001400000014
#1021b:00131300
#01119:0014000000000000
#01115:00001313
#01118:0000000000130000
#01212:13
#0121b:13
#01215:0000130000130000
#01218:0013
#01219:0000000000000014
#01313:0014000000000000
#01318:00001313
#01315:0000000000130000
#01815:1313
#01812:00130013
#0181b:1313
#01818:0000130000000013
#01915:0000000000130000
#01912:13130000
#0191b:00001313
#01918:0013000000000000
#02018:1313
#0201b:00130013
#02012:1313
#02015:0000130000000013
#02118:0000000000130000
#0211b:13130000
#02112:00001313
#02115:0013000000000000
#02612:0013001300000000
#02618:2300230000130000
#02615:00000013
#0261b:0000000000000013
#0271b:0000000000130000
#02712:0000001300001300
#02715:0013000000000000
#02718:00130000
#03212:00130000
#03218:0013000000000013
#0321b:0013
#03215:1300000000130000
#03312:13000013
#03315:0000001300000000
#0331b:00130000
#03318:0000000000130000
#0361a:00140000
#03614:0014000000000014
#03612:0014
#03618:0000000000140000
#03610:41
#0371a:14000014
#03718:0000001400000000
#03712:00140000
#03714:0000000000140000
#03818:0000001300000013
#03815:0000000000130000
#0391b:0013000000000000
#03915:1300001300000000
#03912:0000000000130000
#03918:0013
#0391a:0000000000000014
#04012:00140000
#04018:0014000000000000
#0401a:0014
#04014:1400000000140000
#04118:14141414
#04114:0014001400140014
#04412:00141400
#04416:0000001400140000
#0461a:00141400
#04616:0000001400140000
#04712:14140000
#04716:0014001400000014
#0471a:00000014
#05012:1313
#05015:00000013
#05018:0000000000130000
#05115:00130000
#05118:0000001300000000
#05112:0013
#05218:00000013
#05215:0000000000130000
#0521b:0013
#05216:00240000
#05212:24
#05318:00130000
#05315:0000001300000000
#0531b:0013
#05418:00130013
#05415:0013000000000013
#0541b:13
#06712:000000130000000000000000000000000000000033000000
#06718:0000001300000000
#07118:1300001300000000
#07115:0013000000000000
#07113:0000000000131300
#0711a:0000000000131300
#07312:13
#07318:00130000
#07315:0000001300000013
#0731b:1300000000130000
#07418:0013000000130000
#07412:0000001300000000
#07415:0000000000000013
#07612:000000000013
#0761b:333333330000
#07718:1300000000130000
#07715:0000130000000013
#0771b:0000001300000000
#07812:0013000000000000
#07815:0000001300000000
#07818:0000000000130000
#0781b:0000000000000013
#0751b:000000130000000000000000000000000000000033000000
#07515:0000001300000000
#07915:1300001300000000
#07918:0013000000000000
#0791a:0000000000131300
#07913:0000000000131300
#0851b:0013
#08515:0000000000130000
#08518:00000013
#08512:1400001300000013
#0851a:14
#0861b:0013000000000000
#08615:00130000
#08618:0000001300000000
#08612:00000000000000000033000000000000
#09319:0000000000130000
#09314:00000013
#09317:0000000000000013
#0931b:0000001300000000
#09316:0013
#09312:14
#0931a:14
#09412:0013000000000000
#09418:00130000
#09415:0000001300000000
#0941b:00000000000000000033000000000000
#10112:13000013
#10116:0000001400000014
#1011b:00131300
#10712:13
#10718:0000130000000013
#10715:0000001300001300
#1071b:0013
#10812:13
#10815:0000001300001300
#1081b:0013
#10818:0000130000000013
#11015:1300000000130000
#1101b:00130013
#11012:00130013
#11018:0013000013000000
#0571b:0013
#05715:0000000000130000
#05718:00000013
#05712:0000000000000013
#05818:13000013
#05812:0013000000000013
#0581b:00131300
#05815:0000001300130000
#06112:13000013
#06118:0013000000000013
#06115:00131300
#0611b:0000001300130000
#06212:13
#06218:0013000000140014
#06215:00130000
#0621b:0000001300000000
#06214:00001414
#0231b:2323
#02315:0023000000002300
#02318:0000230000230000
#02312:0000002300000023
#0591a:24
#05916:00240000
#03518:00333333000000000000000000000000
#0351b:0000000000003333
#0285b:00130000
#02858:0000000000130000
#0295b:13000013
#02958:0000001300000000
#04256:0000001400000000
#04552:14
#0455a:00140000
#04556:0000000000000014
#00859:0000000000000014
#00953:0014000000000000
#11452:00000014
#11856:00000012
#10558:0013
#10556:13
#10655:13
#10658:0013
#04356:0014000000000014
#0875b:0000006300000000
#0975b:13
#09752:0013
#0985b:13
#09852:0013
#0995b:13
#09952:0013
#1005b:13
#01053:0000000000000014
#01159:0014000000000000
#01259:0000000000000014
#01353:0014000000000000
#01452:53
#01458:53
#0145b:0000005300000000
#01455:0000005300000000
#03252:00130000
#03255:0000000000130000
#03352:13000013
#03355:0000001300000000
#0365a:00140000
#03658:0000000000140000
#0375a:14000014
#03758:0000001400000000
#04052:00140000
#04054:0000000000140000
#04456:0000000000140000
#04656:0000000000140000
#04756:0000001400000000
#04856:0014000000000000
#0815a:14
#08152:14
#08552:14
#0855a:14
#0895a:14
#08952:14
#09352:14
#0935a:14
#10152:13
#1015b:0013
#10252:13
#1025b:0013
#10752:13
#1075b:0013
#10852:13
#1085b:0013
#11652:00000013
#006380:0013000000000000
#0063b0:0000003333330000
#006370:00000023
#014320:13000023
#014350:0000003300000000
#014381:13000023
#0143b1:0000003300000000
#030351:13230000
#0343b1:1300000000330000
#034381:0000003300000033
#035381:33333333000000000000000000000000
#0353b1:0000333300333333
#036381:23
#038351:13230000
#0493b1:0000001300000000
#049381:0000000000230000
#050381:0013000000000000
#0503b1:0000002300000000
#0503b1:0000000000000013
#051381:0023000000000000
#051381:0000000000130000
#0513b1:0000000000000023
#052321:0000000000000013
#053351:0023000000000000
#053351:0000000000130000
#053321:0000000000000023
#054321:0000001300000000
#054351:0000000000230000
#055351:0013000000000000
#055321:0000002300000000
#0563b1:13
#056381:00230000
#056351:0000001300000000
#056321:0000000000230000
#0563b1:00000013
#057381:23
#057351:0013000000000000
#057321:0000002300000000
#059321:0013
#059351:00000023
#059381:0000000000000013
#0603b1:0023000000000000
#060321:00130000
#060351:0023
#060381:0000000000130000
#0603b1:0000000000000023
#067321:000000001333
#068321:333333330000
#068361:000023
#0753b1:000000001333
#0763b1:333333330000
#076371:000023
#0823b1:00000000000000001333000000000000
#082381:0000000000333333
#083381:23
#086321:00000000000000001333000000000000
#086351:0000000000333333
#087351:23
#0873b1:0000001300000000
#087381:0000000000000023
#090321:00000000000000001333000000000000
#090351:0000000000333333
#091351:23
#0943b1:00000000000000001333000000000000
#094381:0000000000333333
#095381:23
#1043b1:13
#1043a1:00330000000000000000000000000000
#104391:0033000000000000
#104381:00000033000000000000000000000000
#104371:00230000
#104320:00130000
#104330:00000000003300000000000000000000
#104340:0000003300000000
#104350:00000000000000330000000000000000
#104360:0023
#1043b1:0013
#1043a1:00000000000000000033000000000000
#104391:0000000000330000
#104381:00000000000000000000003300000000
#104371:00000023
#104320:00000013
#104330:00000000000000000000000000330000
#104340:0000000000000033
#104350:00000000000000000000000000000033
#105360:23
#1113b0:1323
#1113a0:00330000000000330000000000000000
#111390:0033003300000000
#111380:00000033003300000000000000000000
#111370:00330000
#111321:0013
#111331:00000000000000000033000000000033
#111341:0000000000330033
#111351:00000000000000000000003300330000
#111361:00000033
#112321:23
#1123b0:1323
#1123a0:00330000000000330000000000000000
#112390:0033003300000000
#112380:00000033003300000000000000000000
#112370:00330000
#112321:0013
#112331:00000000000000000033000000000033
#112341:0000000000330033
#112351:00000000000000000000003300330000
#112361:00000033
#113321:23
#119361:14
#120361:54545454545454545454545454545454
#120341:0058005800580058005800580058005800580058005800580058005800580058
#121361:54545454545454545454545454545454
#121341:0058005800580058005800580058005800580058005800580058005800580058
#122361:54545454545454545454545454545454
#122321:005c005c005c005c005c005c005c005c005c005c005c005c005c005c005c005c
#123361:54545454545454545454545454545454
#123321:005c005c005c005c005c005c005c005c005c005c005c005c005c005c005c005c
#124371:5222
