This file was generated by Ched 2.7.0.0.
#TITLE ""
#ARTIST ""
#DESIGNER ""
#DIFFICULTY 0
#PLAYLEVEL
#SONGID ""
#WAVE ""
#WAVEOFFSET 0
#JACKET ""
#REQUEST "ticks_per_beat 480"
#00002: 4
#BPM01: 240
#00008: 01
#TIL00: ""
#HISPEED 00
#MEASUREHS 00
#00018:13000000130000000000130000000013
#0001b:0000001313000013
#00012:1313
#0011b:0013001300130000
#00117:00001313
#00115:13
#00118:00130000000000000000000000000000
#0021b:1313
#00218:0013001300130013
#00215:00130013
#00212:1313
#00315:0013000000000000
#00318:00130000
#00312:13001313
#0031b:1300001300000000
#00316:0000000000130013
#0041b:1300001300000000
#00418:0000130000130013
#00412:1313
#0051b:0000001300130000
#00518:1313130013001313
#00512:0000001300130000
#00515:00130013001300000000000000000000
#0061b:1313000000001300
#00618:0000001300000000
#00619:0013
#0061a:0000000000130000
#00612:13
#00613:0013
#00614:0000000000130000
#00615:00000013
#00715:1313
#00717:0013000000130000
#00719:00130013
#0071b:0000001300000013
#00712:1313131313131313
#00812:23131313
#0081b:2300130000130013
#00818:0013
#00815:0000000000000013
#00810:41
#00912:13131313
#0091b:0013001300130000
#00918:0000000013001313
#00915:0013001300130000
#01012:13131313
#0101b:0000130000130013
#01018:0013
#01015:0013001300000013
#01112:13131313
#0111b:00001300000013000000001300000000
#01118:00000000000000000013000013001300
#01115:0013001300130000
#01212:13131313
#0121b:0000130000130013
#01218:0013
#01215:0013001300000013
#01312:13131313
#0131b:0013000013130000
#01318:00000013
#01315:0013001300130000
#0141b:1300131300000000
#01412:1300000000001313
#01515:1313
#01517:0013000000130000
#01519:00130013
#0151b:0000001300000013
#01618:13131313
#0161b:0013000000130000
#01615:0000001300000013
#01612:13131313
#01718:0013000013001300
#01715:00000013000000000000130000000000
#01712:13131313
#0171b:00130000000013000000000000001300
#01818:13131313
#0181b:0013000000130000
#01815:0000001300000013
#01812:13131313
#01918:0013001300130013
#01915:00130013000000001300000000000000
#0191b:00130013
#01912:13131313
#02015:1313
#0201b:00130013
#02018:0013001300130013
#02012:13131313
#0211b:13131313
#02115:00001300000013000000130000130013
#02118:0000000000000013
#02112:13131313
#0221b:1313131313131313
#02212:13131300
#02216:00000013
#02214:0000000000130000
#02218:0000001300000013
#02215:0013000000000000
#0231b:1313131313131313
#02318:2323
#02316:0023000000230000
#02314:00230023
#02312:0000002300000023
#02417:0013000000000000
#02415:0000001300000013
#0241b:2300000000130000
#02418:00000013
#02419:00230000
#02410:41
#12018:1313131313131313
#12015:00130013001300130013001300130013
#12319:13001313
#12316:00130000000000000013000000130000
#12317:0013001300000013
#12314:00000013000000130000000000000013
#12315:00130000
#12312:00000000001300000000000000000000
#1231b:0000000000130000
#12318:00000000000000000000001300000000
#0251b:0013000000130000
#02518:00130000
#02515:0000001300000000
#02517:00000013
#02512:00000013
#04112:1414141414141414
#0411a:1414141414141414
#04212:1400001400001418
#0421a:1400141400001400
#04216:0018140000000000
#04316:1400000000181400
#0431a:0014000014001414
#04312:1414000014000014
#04412:0000141814140018
#0441a:0000140000140000
#04416:00001418
#04512:14001418141c1414
#0451a:1400140014000014
#04516:0018000000001400
#04612:0000141c00140000
#0461a:0000140014140000
#04616:0014
#04712:141c14140000141c
#0471a:1400001400001400
#04716:00140000
#0481a:1414000000000000
#04812:00140014000000000000000000000000
#04818:0000141400000000
#04814:00000000001400140000000000000000
#04815:00000000000000000014001400000000
#04817:0000000014140000
#04816:00000000000000000000000014141414
#02812:13001313
#02815:00001300160013000013000000001300
#02818:0000000000160000
#0281b:1300000013000013
#02915:1613001300131613
#02918:0000001600000000
#02912:00131300
#0291b:0013000000130000
#0351b:0000000000130000
#03519:00000013
#03517:0000000000000013
#03412:1300131600160016
#05612:1300001300131300
#05618:0013000000000013
#05615:00000000130000000000000000000013
#0561b:1300001300001300
#05619:0013
#05617:0000000000130000
#0551b:1300000013131313
#05512:1300000013131313
#05712:1300000000130000
#05714:0013000000001300
#05716:0000130000000013
#05718:0000001313000000
#0571b:0013
#05818:13000013000013000000130000000000
#05812:0013000000001300
#05815:00000000130000130000000000000000
#0581b:00000000001300001300000013001300
#05912:0000000013131313
#0591b:0000001313131313
#05918:13130000
#05915:0013000000000000
#06012:1313131313131300
#0601b:1313131313131300
#06018:00000000000000000000000000130000
#06015:0000000000000013
#06112:1313000000131300
#06115:00130000000000001300001300000000
#06118:00000013000013000000000000130000
#0611b:00000000001300130000000000000013
#06318:0012000000000000
#06315:00120000
#0631b:0000001200000000
#06316:0000000000120000
#06319:0000000000000012
#06312:12
#06413:0012000000000000
#0641b:0000001200000000
#06415:0000000000120000
#06419:00000012
#0811b:1300001300000000
#08112:1300001313000000
#08114:0000000000130000
#08116:00000013
#08118:0000000000000013
#0811f:21
#0821b:0013000000131300
#08218:0013130013001313
#08215:00000000130013000013000000001300
#08212:0000001300130000
#08210:0041
#08312:00130013000000000000000000000000
#08314:00000000001300130000000000000000
#08316:00000000000000000013001300000000
#08318:00000000000000000000000000130013
#08315:1313000000000000
#08317:0000131300000000
#08319:0000000013130000
#0831b:0000000000001313
#08512:1300001300000000
#08515:0013
#08517:0000000000130000
#08519:00000013
#0851b:1300001300000013
#08612:0013000000000000
#08615:0013130000000013
#08618:00000000130013000013000013001300
#0861b:0000001313131300
#08718:13
#08712:1300001300130013
#0871b:0000001300000000
#08815:13001300130013000000000000130013
#08812:00130013000000000000000000000000
#08818:0000000013131313
#0881b:00000000000013000013001300000000
#09518:0013001300130013
#09515:00130013
#09512:1300131313001313
#0951b:1313
#09618:13000000000000000013000000130013
#09612:13001313
#09619:0013000000000000
#09613:0013000000000000
#0961a:00130000
#09614:00130000
#0961b:00000000000013000000001300000000
#09615:0000001300130013
#09712:1313
#0971b:00130013
#09715:0000000000130000
#09718:0000001300000000
#1001b:00131313
#10012:13001313
#10018:00000000000000000013001300001300
#10015:00000000000000000000130000130013
#10315:13000013000000001300001300000000
#10312:00130000001300000013000000130000
#1031b:0013001300130013
#10318:00000000130000130000000013000000
#10319:00000000000000000000000000000013
#1091b:1300131313001313
#10912:1313130013131300
#10917:0013000000130000
#10916:0000001300000013
#1101b:1300001313131300
#11012:13001300130000000000130013000013
#11018:0013001300000013
#11015:00000000130000001300000000130000
#1111b:1300131300130013
#11115:0013000000000000
#11118:00130000000000000000000000000013
#11112:00000013000000130013000000000000
#11116:00000000001400001400000000000000
#11117:00000000000000000000001300130000
#11113:00000013
#11316:0014001400001400
#1131a:2400240000140014
#11416:0014001400000000
#1141a:0000140000141400
#11412:00000014
#11517:0013000000000000
#11515:0000001300000013
#1151b:2300000000130000
#11518:00000013
#11519:00230000
#1161b:0013000000131300
#11618:00130000
#11615:0000001300000000
#11612:00000013
#11717:0012000000000000
#11715:0000001200000000
#1171c:2200000000120000
#11716:00000012
#1171a:0000220000000012
#11816:0012000000000000
#1181c:0000120000121200
#11818:0000001200000000
#11812:00000012
#03212:13001313
#03215:00001300160013000013000000001300
#03218:0000000000160000
#0321b:13001313
#03315:1613001300131613
#03318:0000001600000000
#03312:00131313
#0331b:00131300
#0361b:13001313
#03615:00160000
#03612:1300000013160013
#03618:00001300000013000013000000001300
#03610:41
#03715:16000016
#03712:0013001600130000
#03718:0013001300130013
#0371b:00131300
#04012:13001c00131c1300
#04018:00001300000013000013000000001300
#0401b:13001313
#0651c:1200000000120000
#06518:0000121200000000
#06516:0000000000000012
#0651f:11
#0661c:0012000000000012
#06618:0000001200000000
#0661a:0000000000120000
#06717:0012000000000000
#0671c:0000001200000000
#06718:000000001212
#06818:121212121200
#0681a:000000000012
#0691c:12120000
#0691a:0000001200000012
#06918:0000000000120000
#0701c:0012000000000012
#0701a:0000001200000000
#07018:0000000000120000
#0711a:1212000000000000
#0711c:0000001200000000
#07118:0000000000121200
#12118:13131313
#12115:00130000001300000013000000130000
#1211b:0013001300130013
#12112:00000013000000130000001300000013
#12218:1313131313131313
#12215:00130013001300130013001300130013
#06212:1300000000130000
#06215:00131600130000161300001316001300
#06218:00000013000013000013000000130000
#0621b:00000000001300000000000000000013
#08412:00130013000000000000000000000000
#08414:00000000001300130000000000000000
#08416:00000000000000000013001300000000
#08418:00000000000000000000000000130013
#08415:1313000000000000
#08417:0000131300000000
#08419:0000000013130000
#0841b:0000000000001313
#09112:16131613000000000000000000000000
#09114:00000000161316130000000000000000
#09116:00000000000000001613161300000000
#09118:00000000000000000000000016131613
#0301b:0000001300000013
#03017:0000000000130000
#03012:0000001300130000
#03016:0000000000000013
#0311b:0013001313130013
#03112:1313001300130013
#03116:0013
#03117:13
#03812:0000001300000013
#03816:0000000000130000
#0381b:0000001300130000
#03817:0000000000000013
#03912:0013001313130013
#0391b:1313001300130013
#03917:0013
#03916:13
#10618:00001300001300000000000000001300
#10615:00130000000013000000160000001300
#10612:13131313
#1061b:13131313
#10518:00130000000013000000000000001300
#10515:00001300001300000000160000001300
#10512:13131313
#1051b:13131313
#10510:41
#10718:00001300001300130000130000001600
#10715:00130013000013000000000000001300
#10712:1300130013161300
#1071b:13131313
#0491b:13131313
#04912:13130013
#04917:0013001300000000
#04916:0000000000000013
#04910:41
#0501b:13001313
#05012:13131313
#05016:0013000000000000
#05017:0000000000130013
#0511b:13131300
#05112:00131313
#05116:0000001300130000
#0521b:23231313
#05212:23231313
#05217:0000000000130000
#0531b:00131300
#05312:00131300
#05316:0000001300000000
#0541b:13130013
#05412:13130013
#05417:0013000000000000
#05416:0000000000000013
#10815:00001300001300130000000000001300
#10818:00130013000013000000130000001600
#1081b:13131313
#10812:1300130013161300
#08912:1300001300000000
#0891b:1300001313000000
#08919:0000000000130000
#08917:00000013
#08915:0000000000000013
#09012:0013000000131300
#09015:0013130013001313
#09018:00000000130013000013000000001300
#0901b:0000001300130000
#0931b:1300001300000000
#09318:0013
#09316:0000000000130000
#09314:00000013
#09312:1300001300000013
#0941b:0013000000000000
#09418:0013130000000013
#09415:00000000130013000013000013001300
#09412:0000001313131300
#09812:1313
#0981b:00130013
#09815:0000001600160000
#09912:1313
#0991b:00130013
#09918:0000000000130000
#09915:0000001300000000
#1011b:1313
#10112:00130013
#10118:0000000000130000
#10115:0000001300000000
#1021b:1313
#10212:00130013
#10215:0000001600160000
#10417:13
#10415:00130013000000000000001300000013
#1041b:0013000000130013
#10418:0000131300001300
#10412:00000000001300000013000000130000
#10416:00000000000000130000000000000000
#10414:0013
#11212:00130000000000000013000000000000
#1121b:00001300001300000000000000130000
#11213:00000013000000000000001300000000
#11215:1300001300000013
#1121a:00000000000000130000000000000000
#11218:00000000000000000000130000000013
#11217:00130013
#11216:0013
#02616:0013000000000000
#02618:0000001300000013
#02612:2300000000130000
#02615:00000013
#02614:00230000
#02712:0013000000130000
#02715:00130000
#02718:0000001300000000
#02716:00000013
#0271b:00000013
#07312:1200000000120000
#07316:0000121200000000
#07318:0000000000000012
#07412:0012000000000012
#07416:0000001200000000
#07414:0000000000120000
#07517:0012000000000000
#07512:0000001200000000
#07516:000000001212
#07616:121212121200
#07614:000000000012
#07712:12120000
#07714:0000001200000012
#07716:0000000000120000
#07812:0012000000000012
#07814:0000001200000000
#07816:0000000000120000
#07914:1212000000000000
#07912:0000001200000000
#07916:0000000000121200
#09212:16131613000000000000000000000000
#09214:00000000161316130000000000000000
#09216:00000000000000001613161300000000
#09218:00000000000000000000000016131613
#02855:00160000
#02858:0000000000160000
#02955:16000016
#02958:0000001600000000
#03452:0000003600360036
#03255:00160000
#03258:0000000000160000
#03355:16000016
#03358:0000001600000000
#03655:00160000
#03652:0000000000160000
#03755:16000016
#03752:0000001600000000
#04052:00001c00001c0000
#01452:53
#0145b:0000005300000000
#0425a:1400001400000000
#04252:00000014
#04352:0014000000000000
#0435a:0000000014000014
#04452:0000140000140000
#0455a:1400000014000014
#04552:00140000
#04652:0000140000140000
#0475a:1400001400000000
#04752:00000014
#0085b:0000000000000013
#0095b:0013000000000000
#0105b:0000000000000013
#0115b:0013000000000000
#0125b:0000000000000013
#0135b:0013000000000000
#04957:0000005300000000
#0495b:0023
#04952:0000000000130000
#05056:0063000000000000
#05052:00230000
#05057:0000000000000053
#0505b:0000001300000000
#0515b:2300000000000013
#05156:0000000000630000
#05152:0013000000002300
#08758:53
#0875b:0000005300000000
#1145a:00000014
#11452:00000014
#1165b:00000013
#11652:00000013
#1185c:00000012
#11852:00000012
#10552:1313
#1055b:00130013
#10652:1313
#1065b:00130013
#10752:1313
#1075b:00130013
#10852:1313
#1085b:00130013
#05355:0013000000000000
#05358:0000000000000013
#05455:0000000000130000
#05558:0000001300000000
#08855:00130000
#0895b:13
#08952:13
#08152:13
#0815b:13
#0855b:13
#08552:13
#0935b:13
#09352:13
#10952:1313
#1095b:00130013
#11052:13130000
#1105b:00001313
#09752:1313
#0975b:00130013
#09852:1313
#0985b:00130013
#09952:1313
#0995b:00130013
#10052:13
#1005b:00130000
#1015b:1313
#10152:00130013
#1025b:1313
#10252:00130013
#001360:0000001300330000
#001320:00003323
#003370:00001333
#0033b0:0000000000330023
#006320:0013002300000000
#014320:13
#014360:0000002300000000
#0143b1:0000001300000000
#014371:0000000000000023
#015321:1300000000000023
#024321:13230000
#024321:0000001300230000
#024321:0000000000000013
#025321:0023000000000000
#025321:0000001300230000
#0263b1:13230000
#0263b1:0000001300230000
#0263b1:0000000000000013
#0273b1:0023000000000000
#0273b1:0000001300230000
#0303b1:13230000
#030320:13230000
#034380:130000000000000000000000000000000000000000000000000000000000000000000000000000000000000000000000000000000000000000000000000000000000000000000000000000000000000000000000000000000000000000000000000000000000000000000000000000000000000000000000000000000000000000000000000000000000000000000000000000000000000000000000000000000000000000560000000000000000000000000000360000000000000000000000000000565300000000000000000000000000000000000000000000000000000000000000000000000000000000000000000000000000000000000000000000000000000000000000000000000000000000000000000000000000000000560000000000000000000000000000360000000000000000000000000000565300000000000000000000000000000000000000000000000000000000000000000000000000000000000000000000000000000000000000000000000000000000000000000000000000000000000000000000000000000000560000000000000000000000000000360000000000000000000000000000565300000000000000000000000000000000000000000000000000000000000000000000000000000000000000
#0343b0:000000000000000000000000000000530000000000000000000000000000000000000000000000000000000000000000000000000000000000000000530000000000000000000000000000000000000000005300000000000000000000000000000000000000000000000000000000000000000000000000530000000000000000000000000000000000000000005300000000000000000000000000000000000000000000000000000000000000000000000000530000000000000000000000000000000000000000005300000000000000000000000000000000000000000000000000000000000000000000000000
#0353b0:23
#035321:130000000000000000000000000000000000000000000000000000000000000000000000000000000000000000000000000000000000000000000000000000000000000000000000000000000000000000000000000000000000530000000000000000000000000000000000000000000000000000000000370000000000000000000000000000000000000000000000000000000000530000000000000000000000000000000000000000000000000000000000000000000000000000000000000000000000000000000000000000000000530000000000000000000000000000000000000000000000000000000000370000000000000000000000000000000000000000000000000000000000530000000000000000000000000000000000000000000000000000000000000000000000000000000000000000000000000000000000000000000000530000000000000000000000000000000000000000000000000000000000370000000000000000000000000000000000000000000000000000000000530000000000000000000000000000000000000000000000000000000000000000000000000000000000000000000000000000000000000000000000530000000000000000000000000000000000000000000000000000000000370000000000000000000000000000000000000000000000000000000000530000000000000000000000000000000000000000000000000000000000000000000000000000000000000000000000000000000000000000000000000000000000000000000000000000000000000000000000000000000000000000000000000000000000000000000000000000000000000000000000000000000000000000000000000000000000000000000000000000000000000000000000000000000000000000000000000000000000000000000000530000000000000000000000000000000000000000000000000000000000370000000000000000000000000000000000000000000000000000000000530000000000000000000000000000000000000000000000000000000000000000000000000000000000000000000000000000000000000000000000000000000000000000000000000000000000000000000000000000000000000000000000000000000000000000000000000000000000000000000000000000000000000000000000000000000000000000000000000000000000000000000000000000000000000000000000000000000000000000000000000000000000000000000000000000000000000000000000000000000000000000000000000000000000000000000000000000000000000000000000000000000000000000000000000000000000000000000000000000000000000000000000000000000000000000000000000000000000000000000000000000000000000000000000000000000000000000000000000000000000000000000000000000000000000000000000000000000000000000000000000000000000000000000000000000000000000000000000000000000000000000000000000000000000000000000000000000000000000000000053570000000000000000000000000000000000000000000000000000000000370000000000000000000000000000000000000000000000000000000000570000000000000000000000000000000000000000000000000000000000000000000000000000000000000000000000000000000000000000000000000000000000000000000000000000000000000000000000000000000000000000000000000000000000000000000000000000000000000000000000000000000000000000000000000000000000000000000000000000000000000000000000000000000000000000000000000000000000000000000000000000000000000000000000000000000000000000000000000000000000000000000000000000000000000000000000000000000000000000000000000000000000000000000000000000000000000000000000000000000000000000000000000000000000000000000000000000000000000000000000000000000000000000000000000000000000000000000000000000000000000000000000000000000000000000000000000000000000000000000000000000000000000000000000000000000000000000000000000000000000000000000000000000000000000000000000000000000000000000000000000000000000000000000000000000000000000000000000000000000000230000000000000000000000000000000000000000000000000000000000000000000000000000000000000000000000000000000000000000000000000000000000000000000000000000000000000000000000000000000000000000000000000000000000000000000000000000000000000000000000000000000000000000000000000000000000000000000000000000000000000000000000000000000000000000000000000000000000000000000000000000000000000000000000000000000000000000000000000000000000000000000000000000000000000000000000000000000000000000000000
#035361:000000000000000000000000000000000000000000000000000000000000000000000000000000000000000000000000000000000000000000000000000000000000000000000000000000000000000000000000000000000000000000000000000000000000000000000000000000000000000000000000000000000000000000000000000000000000000000000000000000000000000000000000000000000000000000000000000000000000000000000000000000000000000000000000000000000000000000000000000000000000000000000000000000000000000000000000000000000000000000000000000000000000000000000000000000000000000000000000000000000000000000000000000000000000000000000000000000000000000000000000000000000000000000000000000000000000000000000000000000000000000000000000000000000000000000000000000000000000000000000000000000000000000000000000000000000000000000000000000000000000000000000000000000000000000000000000000000000000000000000000000000000000000000000000000000000000000000000000000000000000000000000000000000000000000000000000000000000000000000000000000000000000000000000000000000000000000000000000000000000000000000000000000000000000000000000000000000000000000000000000000000000000000000000000000000000000000000000000000000000000000000000000000000000000000000000000000000000000000000000000000000000000000000000000000000000000000000000000000000000000000000000000000000000000000000000000000000000000000000000000000000000000000000000000000000000000000000000000000000000000000000000000000000000000000000000000000000000000000000000000000000000000000000000000000000000000000000000000000000000000000000000000000000000000000000000000000000000000000000000000000000000000000000000000000000000000000000000000000000000000000000000000000000000000000000000000000000000000000000000000000000000000000000000000000000000000000000000000000000000000000000000000000000000000000000000000000000000000000000000000000000000000000000000000000000000000000000000000000000000000000000000000000000000000000000000000000000000000000000000000000000000000000000000000000000000000000000000000000000000000000000000000000000000000000000000000000000000000000000000000000000000000000000000000000000000000000000000000000000000000000000000000000000000000000000000000000000000000000000000000000000000000000000000000000000000000000000000000000000000000000000000000000000000000000000000000000000000000000000000000000000000000000000000000000000000000000000000000000000000000000000000000000000000000000000000000000000000000000000000000000000000000000000000000000000000000000000000000000000000000005300000000000000000000000000000000000000000000000000000000000000000000000000000000000000000000000000000000000000000000000000000000000000000000000000000000000000000000000000000000000000000000000000000000000000000000000000000000000000000000000000000000000000000000000000000000000000000000000000000000530000000000000000000000000000000000000000000000000000000000000000000000000000000000000000000000000000000000000000000000000000000000000000000000000000000000000000000000000000000000000000000000000000000000000000000000000000000000000000000000000000000000000000000000000000000000000000000000000000000000000000000000000000000000000000000000000000000000000000000000000000000000000000000000000000000000000000000000000000000000000000000000000000000000000000000000000000000000000000000000000000000000000000000000000000000000000000000000000000000000000000000000000000000000000000000000000000000000000000000000000000000000000000000000000000000000000000000000000000000000000000000000000000000000000000000000000000000000000000000000000000000000000000000000000000000000000000000000000000000000000000000000000000000000000000000000000000000000000000000000000000000000000000000000000000000000000000000000000000000000000000000000000000000000000000000000000000000000000000000000000000000000000000000000000000000000000000000000000000000000000000000000000000000000000000000000000000000000000000000000
#035341:0000000000000000000000000000000000000000000000003300005300000000
#038321:13230000
#0383b0:13230000
#049370:0000001300230000
#0493b0:0053
#049321:0000001300230000
#050361:0013002300000000
#050321:00530000
#0503b0:0013002300000000
#050370:0000000000000013
#0513b0:53
#051370:0023000000000000
#050321:0000000000000013
#051321:0023000000000000
#051361:0000000000130023
#051321:00000053
#0513b0:0000000000130023
#052380:0000000000000013
#053350:0023000000000000
#052321:0000000000000013
#0533b1:0023000000000000
#0533b1:0000000000130000
#053321:0000000000000023
#053350:0000000000130000
#053380:0000000000000023
#054380:0000001300000000
#054350:0000000000230000
#054321:0000001300000000
#0543b1:0000000000230000
#0553b1:0013000000000000
#055321:0000002300000000
#055350:0013000000000000
#055380:0000002300000000
#0573b0:1300002300000000
#0573b0:0000000000130000
#0583b0:23
#058320:0000000000000013
#059320:0000002300000000
#060380:00000000000000000000000000000013
#061380:23
#061350:00000000132300000000000000000000
#061380:00000000000000000013230000000000
#061350:00000000000000000000000000001323
#065320:12
#066320:22
#067320:13
#068320:23
#069320:14
#070320:24
#071320:15
#072320:25
#0733c0:12
#0743c0:22
#0753b0:13
#0763b0:23
#0773a0:14
#0783a0:24
#079390:15
#080390:25
#081350:0013
#0813b0:0000000000000023
#085320:0013
#085380:0000000000000023
#087380:13
#0873b0:00230000
#0873b0:0000001300000000
#087380:0000000000000023
#089380:0013
#089320:0000000000000023
#0933b0:0013
#093350:0000000000000023
#0973b0:1323000000000000
#097320:0000132300000000
#097380:0000000013230000
#097350:0000000000001323
#0983b0:1323000000000000
#098320:0000132300000000
#0983b0:0000000013230000
#098320:0000000000001323
#0993b0:1323000000000000
#099320:0000132300000000
#0993b0:0000000013230000
#099320:0000000000001323
#100380:1323000000000000
#100350:0000132300000000
#101320:1323000000000000
#1013b0:0000132300000000
#101350:0000000013230000
#101380:0000000000001323
#102320:1323000000000000
#1023b0:0000132300000000
#102320:0000000013230000
#1023b0:0000000000001323
#113320:14240000
#113320:0000001400240000
#113320:0000000000000014
#114320:0024000000000000
#114320:0000001400240000
#115320:13230000
#115320:0000001300230000
#115320:0000000000000013
#116320:0023000000000000
#116320:0000001300230000
#117320:12220000
#117320:0000001200220000
#117320:0000000000000012
#118320:0022000000000000
#118320:0000001200220000
#119350:13
#120350:23
#124370:1222
