This file was generated by Ched 2.7.0.0.
#TITLE ""
#ARTIST ""
#DESIGNER ""
#DIFFICULTY 0
#PLAYLEVEL
#SONGID ""
#WAVE ""
#WAVEOFFSET 0
#JACKET ""
#REQUEST "ticks_per_beat 480"
#00002: 4
#BPM01: 240
#00008: 01
#TIL00: ""
#HISPEED 00
#MEASUREHS 00
#00018:14
#00014:0014
#0011a:1414
#00114:00140000
#00214:14
#00218:0014
#00312:1414
#00318:00140000
#00418:14
#00414:0014
#0051a:1414
#00514:00140000
#0081a:00140014
#00814:0014
#00810:41
#00912:1414
#00918:00140000
#01018:1414
#01012:00140014
#0111a:1414
#01114:00140000
#01214:1414
#0121a:00140014
#01312:1414
#01318:00140000
#01612:00140014
#01618:0014
#0171a:1414
#01714:00140000
#01814:1414
#0181a:00140014
#01912:1414
#01918:00140000
#02018:1414
#02012:00140014
#0211a:1414
#02114:00140000
#0301a:14
#03014:00140000
#03018:0000001400000014
#03012:0000000000140000
#03114:1400001400140000
#03118:0014000014000014
#03214:14
#03412:14
#03418:00140000
#03414:0000001400000014
#0341a:0000000000140000
#0381a:14
#03814:00140000
#03818:0000001400000014
#03812:0000000000140000
#03914:1400001400140000
#03918:0014000014000014
#04014:14
#04518:14
#04514:00140000
#04818:00001414
#04814:0000000000140014
#05218:14
#05214:00140000
#05518:00001414
#05514:0000000000140014
#05918:14
#05914:00140000
#06218:00001414
#06214:0000000000140014
#08118:0014
#08112:00000014
#08114:00140000
#0811a:24
#0811f:21
#0821a:14
#08214:00140000
#08218:0014
#08212:00000014
#08210:0041
#08412:0014000000000000
#08418:00140000
#08414:0000001400001400
#0841a:0000000000140000
#0851a:14
#08514:00140000
#08518:0014
#08512:00000014
#0861a:14
#08614:00140000
#08618:0014
#08612:00000014
#08718:14
#0871a:0000001400000000
#08914:0014
#0891a:00000014
#08918:00140000
#08912:24
#09012:14
#09018:00140000
#09014:0014
#0901a:00000014
#0921a:0014000000000000
#09214:00140000
#09218:0000001400001400
#09212:0000000000140000
#09312:14
#09318:00140000
#09314:0014
#0931a:00000014
#09412:14
#09418:00140000
#09414:0014
#0941a:00000014
#09512:14
#09514:00140000
#09516:0014
#09518:00000014
#09714:00140014
#0971a:0014
#09818:1414
#09812:00140014
#0991a:14140000
#09914:00001414
#10018:1400140000140014
#10014:00001414
#10118:00140014
#10112:1414
#10214:1414
#1021a:00140014
#10312:14140000
#10318:00001414
#10414:1400140000140014
#10418:00001414
#10514:00140000
#10518:0014
#10512:00000014
#1051a:24
#10510:41
#10618:14
#10612:00140000
#1061a:0014
#10614:00000014
#1071a:14
#10718:00140000
#10712:0014
#10714:00000014
#1081a:14
#10818:0000140000140014
#10814:00001414
#10918:00140000
#10914:0014
#1091a:00000014
#10912:24
#11014:14
#1101a:00140000
#11012:0014
#11018:00000014
#11112:14
#11114:00140000
#1111a:0014
#11118:00000014
#11212:14
#11214:0000140000140014
#11218:00001414
#0651f:11
#0241a:00240000
#02410:41
#0261a:24
#02614:00240000
#00712:0034343434343434
#0151a:0034343434343434
#04118:0034343400343434
#0831a:0034343434343400
#09112:0034343434343400
#0961a:0034343400343434
#03610:41
#04910:41
#02955:00000014
#03357:00000014
#03752:00000014
#08758:54
#0875a:0000005400000000
#006320:14
#007320:3434343434343434
#008360:24
#0143a0:14
#0153a0:3434343434343434
#016360:24
#022320:1434
#022330:0000000000340000
#022340:00000034
#022350:0000000000000034
#023360:3434
#023350:0000000000340000
#023340:00000034
#023330:0000000000000034
#024320:24
#024340:0000000000140000
#024330:00000034
#024320:0000000000000034
#025320:0034000000000000
#025330:00340000
#025340:0000003400342400
#026380:0000000000140000
#026390:00000034
#0263a0:0000000000000034
#0273a0:0034000000000000
#027390:00340000
#027380:0000003400342400
#028320:14340000
#028350:0000000000340000
#029320:34
#029350:0000003400002400
#0323a0:00140000
#032370:0000000000340000
#0333a0:34
#033370:0000003400002400
#035380:1400540000343434
#035390:0054003400000000
#036380:24
#036340:00140000
#036320:0000000000340000
#037340:34
#037320:0000003400002400
#040380:00140000
#0403a0:0000000000340000
#041380:3434343400343434
#0413a0:0034
#042380:34
#0423a0:0000002400000000
#042340:00000014
#043320:0024000000000000
#043380:0014
#0433a0:0000000000000024
#044340:00140000
#044320:0000000000240000
#0453a0:0014
#045380:0000000000000024
#046320:00140000
#046340:0000000000240000
#0473a0:14
#047380:0000002400000000
#047320:00000014
#048340:0024000000000000
#049380:14
#0493a0:0000002400000000
#049340:00000014
#050320:0024000000000000
#050380:0014
#0503a0:0000000000000024
#051340:00140000
#051320:0000000000240000
#0523a0:0014
#052380:0000000000000024
#053320:00140000
#053340:0000000000240000
#0543a0:14
#054380:0000002400000000
#054320:00000014
#055340:0024000000000000
#0563a0:14
#056380:0000003400003400
#0573a0:0024000000000000
#057320:0014
#057340:0000000000000034
#058340:00340000
#058320:0000000000240000
#059380:0014
#0593a0:0000000000000034
#0603a0:00340000
#060380:0000000000240000
#061340:14
#061320:0000003400003400
#062340:0024000000000000
#0653b0:13
#0663b0:23
#065351:13
#066351:23
#067381:14
#068381:24
#067320:14
#068320:24
#0693a0:14
#0703a0:24
#069341:14
#070341:24
#071321:15
#072321:25
#071380:15
#072380:25
#0733b0:13
#074380:23
#073351:13
#074321:23
#075381:14
#0763a1:24
#075320:14
#076340:24
#0773a0:14
#078380:24
#077341:14
#078321:24
#079321:15
#080331:25
#079380:15
#080390:25
#0833a0:1434343434343400
#083370:0000000000000024
#087380:1400000000000034
#0873a0:0000003400000000
#088380:3434000000000000
#0883a0:0000003434240000
#091320:1434343434343400
#091350:0000000000000024
#0963a0:1434343400343434
#096370:0034
#0973a0:24
#113380:16
#1143b0:00000023
#115320:16
#116320:00000023
#117380:16
#1183b0:00000023
#120340:16565656
#120320:005a005a005a005a
#121340:56565656
#121320:005a005a005a005a
#122340:56565656
#122320:005a005a005a005a
#123340:56565656
#123320:005a005a005a005a
#124350:5424
