This file was generated by Ched 2.7.0.0.
#TITLE ""
#ARTIST ""
#DESIGNER ""
#DIFFICULTY 0
#PLAYLEVEL
#SONGID ""
#WAVE ""
#WAVEOFFSET 0
#JACKET ""
#REQUEST "ticks_per_beat 480"
#00002: 4
#BPM01: 195
#BPM02: 200
#BPM03: 190
#BPM04: 185
#BPM05: 183
#BPM06: 180
#BPM07: 140
#BPM08: 74
#BPM09: 120
#00008: 01
#04408: 02
#08008: 00000000000000000000000000020000
#06408: 03
#07208: 0400000500000600
#07308: 0007000000000008
#07508: 0000000900000000
#TIL00: ""
#HISPEED 00
#MEASUREHS 00
#01819:14
#02013:14
#02219:14
#02313:14
#0281a:14
#02914:14
#03314:14
#0341a:14
#03218:14
#03112:14
#03018:14
#04019:14
#04113:14
#04418:2616
#04410:41
#04512:16
#04518:0016
#04812:1616
#04918:16
#04912:0016
#0521a:1414
#05314:1414
#05418:1414
#05512:1414
#06414:14
#06410:41
#0651a:14
#06612:14
#06718:14
#08112:2616
#08218:16
#08212:0016
#08518:1616
#08510:41
#08612:16
#08618:0016
#0991a:0014
#09912:14
#10012:14
#1001a:0014
#10312:1616
#10512:1616
#10518:00160016
#10612:1616
#10618:00160016
#10918:16
#10912:0016
#11618:1616
#11712:1616
#11818:1616
#11812:00160000
#00918:14
#00814:00140000
#08912:1414
#09018:1414
#09114:1414
#0921a:1414
#0981a:0014
#10418:1616
#11018:16
#11012:0016
#07514:0000001400000000
#07614:00000000000000000000000000000000000000000000000000000000000000000000000000000000001400000000000000000000000000000000000000000000
#04312:0016
#0681f:11
#01412:26
#0361a:24
#03712:24
#0381a:24
#03912:24
#09712:00240000
#0971a:00240000
#09710:00410000
#10112:2626
#10218:2626
#12018:00000026
#0831f:21
#09414:34
#09313:0034
#09618:34
#09519:0034
#01610:41
#02610:41
#001390:00140000
#002390:00000034
#003390:34
#004390:0024
#005320:14
#006320:24
#0063a0:0000000000140000
#0073a0:0000000000240000
#009340:00000014
#010340:00240000
#010390:00000014
#012390:00000024
#014320:16
#016320:26
#024390:14
#025390:24
#026330:14
#027330:24
#035330:1424
#042380:16363636
#043380:26
#046320:1626
#047380:1626
#050380:1626
#051320:1626
#0563a0:1434
#0573a0:3424
#058320:14000034
#059320:0024
#060390:00140000
#061390:00000034
#062390:34
#063390:0024
#068340:14
#069340:34
#070340:34
#071340:24
#0723a0:1400003400003400
#0733a0:0034000034000034
#0743a0:00340000
#075380:24
#0773a0:0000000000000000000000000000000000000000000000000000000000140000
#0783a0:0000000000000000000000000000000000340000000000000000000000000000
#0793a0:003400000000
#079390:0034
#079380:000000000000000000000000000000000000000000000000000000000000000000000000000000000000000000000000000000000000000000000000000000000000000000000000000000000000003400000000000000000000000000000000
#080380:00000000000000000000000000000000000000000000000000000000002400000000000000000000000000000000000000000000000000000000000000000000
#083380:1626
#084320:1626
#087320:1626
#088380:1626
#093320:14
#093330:0034
#094340:3424
#0953a0:14
#095390:0034
#096380:3424
#097320:00140000
#098320:24
#0973a1:00140000
#0983a1:24
#107321:16363636
#108321:3626
#112381:1600003600003600
#113381:0036000026000000
#114321:1600003600003600
#115321:0036000026000000
#119321:1600003600003600
#120321:0026
#120381:00000016
#123381:26
