This file was generated by Ched 2.7.0.0.
#TITLE ""
#ARTIST ""
#DESIGNER ""
#DIFFICULTY 0
#PLAYLEVEL
#SONGID ""
#WAVE ""
#WAVEOFFSET 0
#JACKET ""
#REQUEST "ticks_per_beat 480"
#00002: 4
#BPM01: 195
#BPM02: 200
#BPM03: 190
#BPM04: 185
#BPM05: 183
#BPM06: 180
#BPM07: 140
#BPM08: 74
#BPM09: 120
#00008: 01
#04408: 02
#08008: 00000000000000000000000000020000
#06408: 03
#07208: 0400000500000600
#07308: 0007000000000008
#07508: 0000000900000000
#TIL00: ""
#HISPEED 00
#MEASUREHS 00
#0011b:00130000
#00117:2213
#0011a:0000000000330000
#0031a:0000001300000000
#00317:00000000000000130000000000000000
#00314:0013
#00312:00000013
#0031b:00000013
#0051a:14
#00515:0013130000000013
#00518:00000013000000000013000000000013
#0051b:0000001300001300
#00512:0000000013130000
#00612:0000001300140000
#00618:0000000000001313
#00615:00000000000000000000000000130000
#00616:00130000
#00613:00000000003300330000000000000000
#00712:1300001300000000
#0071b:0013130000000000
#00715:00000013000000000013000000000000
#00718:0013
#00717:0000000000000013
#0071a:00000000000000000000000000000033
#0081b:1300000000130000
#00818:00000013
#00815:0000000000000013
#00812:00260000
#0081a:00330000000000000000000000000000
#00912:0000001300000000
#00915:00001313
#00918:260000000000000000000000000000130000000000001300
#0091b:00000023
#01015:130013000013001300000000
#01018:001300130000130013000000
#0101b:00000013
#01012:00230013
#01118:16
#0111b:00000013
#01112:22
#01113:00220000
#01114:0022
#01115:00000022
#0121b:00000013
#01219:000000000000000000000013
#01216:000000000013
#01214:22
#01213:00220000
#01212:0022
#01314:1313
#01317:001300000000001300000000
#01312:001300001300
#0131b:00130013
#01316:001300
#01319:000000000013000000000000
#01315:00000013
#01412:1613000000000000
#01418:16
#0141b:0013000000000000
#0161b:1313
#01612:1300001300000013
#01615:0000160000161600
#01610:41
#01716:0014140000000000
#0171b:1313
#01712:0000001300000013
#01717:0000000000121200
#01812:00130013
#01816:1313
#01814:0013001300130000
#01912:1313
#01916:00130013
#01914:0013001300130000
#0201b:1300001300000013
#02012:1313
#02015:0000160000161600
#02112:1313
#0211b:0000001300000013
#02116:0014140000000000
#02117:0000000000121200
#0221b:00130013
#02217:1313
#02219:0013001300130000
#02317:13220000
#02312:00000016
#02314:0022000000000000
#0231a:0000002200000000
#02316:0022
#02319:0000000000220000
#0231c:00000022
#02412:0014
#02416:0000000000001414
#02418:2424240000000000
#02414:00240024000000000000000000000000
#0241a:0000000000240000
#02512:0014140000001400
#02516:0014
#0251a:2400002400240000
#0261a:0014
#02616:0000000000001414
#02614:2424240000000000
#02618:00240024000000000000000000000000
#02612:0000000000240000
#02610:41
#0271a:0014140000001400
#02716:0014
#02712:2400002400240000
#02917:0013
#02916:00130013
#02912:22220000000000002222000000000000
#0291c:00000000222200000000000022220000
#02815:000000003300000000130000
#0281b:00130000
#02817:13
#02819:000000000000000033000033
#0281a:000000000033
#02818:000000000000003300000000
#02814:000033000033000000000000
#02813:003300000000000000000000
#03014:131300
#03019:130000000000000000000013
#03012:00130000
#03016:000000000013000000000000
#03018:0013
#03015:00000013
#03017:000000000013
#0311b:13
#03117:0013000000000000
#03116:0000001300140014
#0311a:0014
#03112:00130014
#03212:24120000
#03214:0012
#03216:00000012
#03317:00130000
#03319:0013
#0331b:00000013
#03412:00140000
#03414:0014
#03416:00000014
#0361b:13001313
#03617:00130000
#03618:000000000013
#03615:000000000000000000000013
#03712:13001313
#03716:00130000
#03715:000000000013
#03718:000000000000000000000013
#0381b:130000000000000000130013
#03816:000000000013
#03916:1414
#0391a:001414001414
#03912:001414001414
#04218:1313000013130000
#04212:00130013000000000013001300000000
#0421b:0000131300001313
#04215:00000000001300130000000000130013
#04318:1600161600000014
#04312:00000000001600000000000000140000
#04316:00000014
#04314:00000000000000000000000000000014
#04315:0026
#04416:0014001400140014
#0441a:24142414
#04412:00241424
#04410:41
#04512:1414
#04516:0014140000140000
#0451a:2400001400001400
#04616:14000000000014000000140000000013
#04612:00000000000000000000001300000000
#04618:00000014
#04614:00000000000000000000000000130000
#0461a:0000000000000014
#0471a:1400001400002400
#04716:0000001400001400000000000000000000000000000000000000000000000000
#04712:0000000000000000001400000000000000000000000000000000000000000000
#04715:00000000000000000014000000000000
#04816:0014001400140014
#04812:24142414
#0481a:00241424
#0491a:1414
#04916:0014140000140000
#04912:2400001400001400
#05016:1400001400140000
#0501b:00000000000000000000001300000000
#05014:00000014
#05019:00000000000000000000000000130000
#05012:0000000000000014
#05017:00000000000000000000000000000013
#05112:1400001400002400
#05116:0000001400001400000000000000000000000000000000000000000000000000
#0511a:0000000000000000001400000000000000000000000000000000000000000000
#05117:00000000000000000014000000000000
#05213:0000000014140000
#05214:0000141400000000
#05212:0000000000001414
#0521a:14
#05319:0000000014140000
#05318:0000141400000000
#0531a:0000000000001414
#05312:14
#05414:0000141400000000
#0541a:14
#05413:0000000014140000
#05412:0000000000001414
#05514:0000141400000000
#05518:00000000001400140000000000000000
#0551a:0014
#05516:0000000000000014
#05512:1400000000000000000000000000000024000000000000001434343400343434
#05615:00130000
#05618:001300
#05612:000000000013000000130000
#0561b:0013
#05715:000000133333000000133333
#0571b:133333000000133333000000
#0581b:0013001300001300
#05817:0013
#05812:0000002424000013
#05816:2424000000002424
#05912:0013000000000000
#05916:00130000
#05915:000000000000262626000000
#05913:00000024
#0591a:0024240000000000
#05919:00000024
#06213:0000001300000000
#06216:00000000000000130000000000000000
#06219:0013
#0621b:00000013
#06212:00000013
#06413:12
#06415:00120000
#06417:0012
#0641a:0000000000120000
#06414:00000012
#06410:41
#0651b:1212
#06512:00120000
#06515:001200
#06518:000000000012000000000000
#06513:00000012
#06516:000000000012
#06519:000000000000000000000012
#0661c:12
#06614:0012
#0661a:0000001200000000
#06617:00000000000000120000000000000000
#06619:00000012
#06615:00000012
#0671b:00130000
#06717:13
#06712:23
#0681c:00120000
#0681a:0012
#0681f:11
#06912:00120000
#06914:0012
#0691a:0012
#0691b:00000012
#0701c:12
#0701a:00120012
#07015:00120012
#07018:0012
#07013:0012
#0711c:121200121200
#07115:001200000000001200120000
#07112:000000120012000000000000
#07119:001200
#07215:0012002200000000
#07217:00121222
#07219:0000000000120012
#07213:22
#0731b:12
#07315:00122200
#07317:0000001200120022
#07319:00000012
#07313:0022000000000000
#07416:00120000
#0741b:0000000000000000001200000000000000000000000000000000000000000000
#07415:00000000001200000000000000000000
#0741a:0000000000000000000000120000000000000000000000000000000000000000
#07414:0000001200000000
#07419:0000000000000000000000000012000000000000000000000000000000000000
#07413:00000000000000120000000000000000
#07418:0000000000000000000000000000001200000000000000000000000000000000
#07412:0012
#07713:00000000000000000000000000000000000000000000000000000000000000000000000000000000000000000000000000000000000000000000000000000012
#0771a:0000000000000000000000000000000000000000000000000000000000120000
#07815:00000000000000000012000000000000000000000000000000000000000000000000000000000000000000000000000000000000000000000000000000000000
#07817:00120000000012000000000000000000
#07819:00000000000000000000000000000000000000120000000000000000000000000000000000000000000000000000000000000000000000000000000000000000
#0781b:00000000000000000000000000000000000000000000000000000000001200000000000000000000000000000000000000000000000000000000000000000000
#07814:00000000000000000000000000000000000000000000000000000000000000000000001200000000000000000000000000000000000000120000000000000000
#0781c:00000000000000000000000000000000000000000000000000000000000000000000000000000000000000000012000000000000000000000000000000000000
#07816:00000000000000000000000000000000000000000000000000000000000000000000000000000000000000000012000000000000000000000000000000000000
#0781a:00000000000000000000000000000000000000000000000000000000000000000000000000000000000000000000000000000000000000120000000000000000
#07918:00120000000000000000000000000000000000000000000000000000000000000000000000000000000000000000000000000000000000000000000000000000
#07912:0000120000000000000000000000000000000000000000000000000000000000000000000000000000000000000000000000000000000000000000000000000000000000000000000000000000000000000000000000000000000000000000000000000000000000000000000000000000320000000000000032000000000000
#08114:14
#08118:14
#0811b:0000131313131313
#08112:0000131313131313
#08218:1313131300130000
#08215:00130013001300130000001300000000
#0821b:0013
#08212:00000000000000000013000000000000
#08213:0000002a
#08312:0000002400130000
#08316:24000000000024000000001400001300
#08314:00000013
#08318:00000000000000000000000000140000
#0831a:24000000000000000000000000000014
#0831f:21
#08416:1400000000000000001400000000000000000000000000000000000000000000
#0841a:00000014000000000000000000000000
#08412:0000001400000000000000001400000000000000000000002400000000000000
#08417:00000000000000000014000000000000
#08516:0014001400140014
#0851a:14142424
#08512:24241414
#08510:41
#0861a:14241424
#08616:0014001400140000
#08612:24142414
#08919:0000000014140000
#08918:0000141400000000
#0891a:0000000000001414
#08912:14
#09013:0000000014140000
#09014:0000141400000000
#09012:0000000000001414
#0901a:14
#09118:0000141400000000
#09112:14
#09119:0000000014140000
#0911a:0000000000001414
#0921a:1400000000000000000000000000000024000000000000001434343400343434
#09218:0000141400000000
#09214:00000000001400140000000000000000
#09212:0014
#09216:0000000000000014
#0871b:0000000000130000
#08716:24000000000024000000001400000000
#08719:00000013
#08714:00000000000000000000000000140000
#08717:0000000000000013
#08712:24000000000000000000000000000014
#0871a:0000002400000000
#08816:1400000000000000001400000000000000000000000000000000000000000000
#08812:00000014000000000000000000000000
#0881a:0000001400000000000000001400000000000000000000002400000000000000
#08815:00000000000000000014000000000000
#09318:000000130013000000001300
#09315:000000001300000000130013
#09418:000000130013000000000000
#09415:001300
#09512:00142400
#09516:000000001414000000001414
#0951a:24001414
#09616:001400001400140000000000
#09612:241400000000
#0961a:000000240014000000000000
#09617:00000012
#09712:0000000000140000
#09716:00000014
#0971a:0000000000000014
#09713:00240000
#09710:00410000
#09815:001300230013001300230000
#09812:001300001300
#09818:231313231300
#0981b:000000000013000000000000
#0991a:1400000014141400
#09916:13000000140014000014001400000000
#09912:00000000001400140000000000000000
#10012:14000024
#1001a:00000024
#10116:00140000140000000014000014000000
#1011a:1414002400000000
#10112:0000000014140024
#10216:14140000140000001414000014000000
#1021a:0014002400000000
#10212:0000000000140024
#1031a:1413
#10316:00130000000000000000000000000000
#10319:0014000000130000
#10318:00140013
#10315:00000013000000000014000000000000
#10314:00000000001300000000001400000000
#10317:0000001400000013
#10313:00000000000000130000000000140000
#10312:00000000000000000000000000000014
#1041a:14141424
#10412:001515000000000000000000
#10414:000000001515000000000000
#10416:000000000000000000000000000015001500000000140000
#10516:0014001400140014
#10612:14141414
#10617:00000024
#10618:0024
#10619:00240000
#1061a:24
#10712:00130000001300000013000000130000
#10718:0013001300130013
#10715:00000013000000130000001300000013
#1071b:00131313
#10716:24
#1081b:1300002300000000
#10812:0000001300000000
#10815:00000000000000333313333300000000
#10818:00000000000000333313333300000000
#10912:1300000000130000
#10915:0013000000001300
#10918:0000130000000013
#1091b:1300001300000000
#10916:0000001300000000
#11016:1300000013000013
#11012:00000000130000000000002300000000
#11017:00000000000000000000001300000000
#1101b:00333333003333332300000000002300
#11112:00000000000000000013000028000000
#1121a:14000014000014000000000014000014
#11212:14000000000014000014000014000000
#11216:0014140014140014
#11312:00001400001400001400000000000000
#11316:1400141400000000
#1131a:00001400000000001400000000000014
#11315:0000000000140000
#11318:00000000000000000000001400000000
#11314:00000014
#11313:0000000000000014
#11319:00000000000000000000000000140000
#11412:14000000000014000014000014000000
#11416:0014140014140014
#1141a:00000014000014000000000014000014
#11516:1400141400000000
#1151a:000000140000000000000000003434343434343434343434
#11512:00001400001400001400000000000000
#1161b:0013
#11619:0000000000130000
#11617:00000013
#11615:2400000000000013
#11719:14
#11717:0014000000000000
#11715:00140000
#11713:0000001400000000
#11718:0015
#11716:0000000000150000
#11714:00000015
#11712:0000000000000015
#11812:00160000001600000016000016000000
#11818:2614260026002600
#11814:00000014000000000000000000000000
#11817:0000001400000000
#11815:00000000000000140000000000000000
#11816:00000000000000000000141400000000
#12012:002400000000000000160000
#12018:0000000000000000000000000000000000000000000000002636003636363636
#06012:00130000
#06016:0013
#06017:22
#06013:0000000000330000
#00417:2323
#0041b:00230000
#00416:00000023
#03516:002400000000000000000000
#03519:002500000000
#03514:00250000
#03518:002600
#03512:000000000026000000000000
#03517:0027
#0401a:22
#04018:00220000
#0401c:0022
#04017:00000022
#0411a:22
#04118:00220000
#0411c:0022
#06316:2323
#06312:00230000
#11916:2400002400000000
#11912:24000024
#1191a:000000000000000000240000000000000000240000002400
#08015:32323200000000000000000000000000
#12118:3636363636363636363636363636363636363636363636363636363636363636
#12218:3636363636363636363636363636363636363636363636363636363636363636
#00456:00000013
#0055a:14
#00652:0000002300140000
#00656:00630000
#01058:00430000
#00955:00000033
#00958:66
#0115b:00000023
#01158:56
#01458:56
#01452:6623000000000000
#0145b:0023000000000000
#0165b:13
#01652:13
#02052:13
#0205b:13
#02352:00000016
#0245a:0000000000140000
#0255a:1400001400140000
#02652:0000000000140000
#02752:1400001400140000
#03059:13
#03054:13
#0315a:0064
#0315b:63
#03156:0000002300240024
#03157:0023000000000000
#03152:00530054
#03252:34
#0335a:14
#03452:14
#0355a:14
#03557:0017
#03558:001600
#03559:001500000000
#03556:001400000000000000000000
#03554:00150000
#03552:000000000016000000000000
#0365b:0013
#03752:0013
#03857:0013
#03956:1414
#04358:16
#04355:0016
#0445a:1414
#04452:00140014
#04556:0024540000240000
#0455a:0000002400000000
#04552:5454
#04656:1400001400000000
#0475a:6400006400004400
#04756:0000002400006400000000000000000000000000000000000000000000000000
#04755:00000000000000000024000000000000
#04752:0000000000000000002400000000000000000000000000000000000000000000
#0495a:6464
#04956:0024640000240000
#04952:0000002400000000
#05056:1400001400000000
#05152:5400005400003400
#05156:0000002400005400000000000000000000000000000000000000000000000000
#0515a:0000000000000000002400000000000000000000000000000000000000000000
#05157:00000000000000000024000000000000
#04852:1414
#0485a:00140014
#0525a:24
#05352:24
#05356:14
#0545a:24
#05456:14
#05556:1400000000000024
#05552:00001454
#0565b:0063
#05652:34000063
#05755:00230023
#0575b:2323
#00157:0063
#06357:00000013
#0685c:00220000
#0685a:0062
#06952:00220000
#06954:0052
#08154:14
#08158:14
#08253:0000001a
#08456:6400000000000000002400000000000000000000000000000000000000000000
#0845a:00000064000000000000000000000000
#08452:0000002400000000000000005400000000000000000000003400000000000000
#08457:00000000000000000024000000000000
#0865a:64446444
#08656:0024002400240000
#08652:14543400
#08952:24
#0905a:24
#09056:14
#09152:24
#09156:14
#09256:1400000000000024
#0925a:00001464
#08552:14140000
#0855a:00001414
#0835a:44
#08352:0000003400000000
#08856:5400000000000000002400000000000000000000000000000000000000000000
#08852:00000054000000000000000000000000
#0885a:0000002400000000000000006400000000000000000000004400000000000000
#08855:00000000000000000024000000000000
#08752:34
#0875a:0000004400000000
#0935a:44
#09657:00000022
#09656:0054
#0995a:54000064
#09956:53
#10052:14
#10056:00140000
#1005a:00001414
#10156:00240024
#1015a:0064004400000000
#10152:0000000000540034
#10256:00240024
#1025a:0064004400000000
#10252:0000000000540034
#1045a:00000064
#10456:0000000000000024
#1055a:44
#10657:00000044
#10658:0044
#10659:00440000
#1065a:44
#10856:001400000000
#1085b:6300006300000000
#10852:0000006300000000
#10858:00000000000000000023000000000000
#10855:00000000000000000023000000000000
#1095b:0000006300000000
#1105b:0000000013000013
#11052:00000000000000000000001300000000
#11056:0000000000000063
#11152:00000000000000000023000048000000
#1125a:14000014
#11252:0000001400000000
#11352:0014000000000000
#1135a:0014
#11452:14000014
#1145a:0000001400000000
#1155a:0014000000000000
#11552:0014
#11655:14
#11956:4400003400000000
#11952:54000054
#1195a:000000000000000000640000000000000000000000006400
#12052:005400000000000000560000
#12058:00000066
#0085b:23
#00852:00660000
#00757:0000000000000053
#06056:0053
#001320:00140000
#003320:24
#001371:0013
#0013a1:0000000000330000
#0013b1:00000033
#0023b1:23
#002371:000000133333230000000000
#0023b1:000000000000000000133333
#0033b1:23
#004321:1333
#004361:00330023
#006351:13
#006361:00332300
#006331:00000000003300330000000000000000
#006321:0000003300000000
#007381:0000000000130000
#007371:0000000000000033
#0073a1:00000000000000000000000000000033
#0083b1:33
#0083a1:00330000000000000000000000000000
#008371:0023000000000000
#008321:00160000
#008351:0000000000230000
#009381:1600002300000000
#011381:16
#0113b1:00000053
#012381:0026
#014321:1653000000000000
#015321:00000026
#014380:16
#0143b0:0053000000000000
#015380:00000026
#0183a0:14
#0193a0:00000024
#022320:14
#023320:24
#024380:00142400
#026340:00142400
#028320:1323
#028330:003300000000000000000000
#028340:000033000033000000000000
#028360:00330000
#028350:003300
#028371:0013
#028381:000000000000003300000000
#028391:000000000000000033000033
#0283b1:00000033
#0283a1:000000000033
#029371:23
#0313b1:13230000
#031371:0053000000000000
#031320:00132300
#031360:0000005300000000
#0313a1:00001424
#031361:0000000000540000
#031320:00000014
#031360:0000000000000054
#032320:24
#032361:14
#0323a1:00540000000000000000000000000000
#0333a1:24
#033360:14
#033320:00540000000000000000000000000000
#034320:24
#034361:14
#0343a1:00540000000000000000000000000000
#0353a1:24
#036361:1323
#036321:00330000
#037371:1323
#0373b1:00330000
#038321:13
#038361:00230000
#0383b0:00130000
#038370:0023
#038321:0013
#038361:00000023
#040321:14
#041321:0024
#045321:14240000
#045361:0054000000000000
#045360:00142400
#0453a0:0000005400000000
#045321:00001424
#045361:0000000000540000
#0463a1:1454545454545454240000000000000000000000000000000000000000000000
#046391:00540054005400540054005400540054000000000000000000000000000000000000000000000000000000000000000000000000000000000000000000000000
#046321:0000000000000000000000001454545454545454240000000000000000000000
#046331:00000000000000000000000000000000000000000000000000540054005400540054005400540054000000000000000000000000000000000000000000000000
#0473a1:14000024000000000000000000000000
#047361:0000005400000000000000000000000000000000000000000000000000000000
#047360:00000014000024000000000000000000
#047320:0000000000000000005400000000000000000000000000000000000000000000
#0473a1:0000001400002400
#047351:00000000000000000054000000000000
#0493a1:14240000
#049361:0054000000000000
#049360:00142400
#049320:0000005400000000
#0493a1:00001424
#049361:0000000000540000
#050321:1454545454545454240000000000000000000000000000000000000000000000
#050331:00540054005400540054005400540054000000000000000000000000000000000000000000000000000000000000000000000000000000000000000000000000
#0503a1:0000000000000000000000001454545454545454240000000000000000000000
#050391:00000000000000000000000000000000000000000000000000540054005400540054005400540054000000000000000000000000000000000000000000000000
#051321:14000024000000000000000000000000
#051361:0000005400000000000000000000000000000000000000000000000000000000
#051360:00000014000024000000000000000000
#0513a0:0000000000000000005400000000000000000000000000000000000000000000
#051321:0000001400002400
#051371:00000000000000000054000000000000
#0523a1:14
#053361:24
#053320:14
#054360:24
#0543a1:14
#055361:24
#055321:0000000000000000000000000000000000000000000000001434343400343434
#055361:0000000000000034
#056321:24
#0563b0:13230000
#0563b0:0013
#056360:00000023
#056321:00000013
#057371:23
#0573b0:133333000000000000000000
#057380:00230000
#057351:000000133333000000000000
#057321:0023
#0573b0:000000000000133333000000
#057380:00000023
#057351:000000000000000000133333
#058321:23
#0603a1:00140000
#0623a1:24
#060360:0013
#060330:0000000000330000
#060320:00000033
#061320:23
#061360:000000133333230000000000
#061320:000000000000000000133333
#062320:23
#0633b0:1333
#063370:00330023
#067320:13003323
#067360:00330000
#067371:00001323
#0683c1:12520000
#0683a1:0052
#068381:00000052
#069381:22
#069320:12520000
#069340:0052
#069360:00000052
#070360:22
#0733c0:0000000000000012
#0743c0:00220000
#074370:0000000000000000000000000000000000120000000000000000000000000000
#075370:22
#075370:0000001200000000
#077340:00000028
#079320:0000000000000000000000000000000000000000000012000000000000000000000000000000000000000000000000000000000000000000000000000000000000000000000000000000000000000000000000000000000000000000000000000000000000000000003200000000000000320000000000000032000000000000
#080350:32323200000000000000000000000000
#080370:00000000000000000000000032000000000000000000000000000000002200000000000000000000000000000000000000000000000000000000000000000000
#079371:0000000000000000000000000000000000000000000000000000000000000000000000000000000000000000000000000000000000000000000000000000000012000000000000000000000000000000000000000000000000000000000000000000000000000000003200000000000000000000000000000000000000000000
#0803c1:00000000000000000000000032000000000000000000000000000000002200000000000000000000000000000000000000000000000000000000000000000000
#083361:1454545454545454240000000000000000000000000000000000000000000000
#083351:00540054005400540054005400540054000000000000000000000000000000000000000000000000000000000000000000000000000000000000000000000000
#083361:0000000000000000000000001454545454545454240000000000000000000000
#083371:00000000000000000000000000000000000000000000000000540054005400540054005400540054000000000000000000000000000000000000000000000000
#084361:14000024000000000000000000000000
#084321:0000005400000000000000000000000000000000000000000000000000000000
#0843a0:00000014000024000000000000000000
#084360:0000000000000000005400000000000000000000000000000000000000000000
#084321:0000001400002400
#084371:00000000000000000054000000000000
#0863a1:14240000
#086361:0054000000000000
#086320:00142400
#086360:0000005400000000
#0863a1:00001424
#086361:0000000000540000
#087361:1454545454545454240000000000000000000000000000000000000000000000
#087371:00540054005400540054005400540054000000000000000000000000000000000000000000000000000000000000000000000000000000000000000000000000
#087361:0000000000000000000000001454545454545454240000000000000000000000
#087351:00000000000000000000000000000000000000000000000000540054005400540054005400540054000000000000000000000000000000000000000000000000
#088361:14000024000000000000000000000000
#0883a1:0000005400000000000000000000000000000000000000000000000000000000
#088320:00000014000024000000000000000000
#088360:0000000000000000005400000000000000000000000000000000000000000000
#0883a1:0000001400002400
#088351:00000000000000000054000000000000
#089321:14
#090361:24
#0903a0:14
#091360:24
#091321:14
#092361:24
#0923a1:0000000000000000000000000000000000000000000000001434343400343434
#092361:0000000000000034
#0933a1:24
#093320:13230000
#0933b0:00001323
#094320:13230000
#0943b0:0013
#094380:00000023
#094351:00000013
#095321:23
#0953a0:14240000
#095320:00001424
#096360:0014
#096370:00000052
#097340:28
#097330:00142400
#097320:00000000000000000000000000000000005400540054005400540054005400540000000000000000000000000000000000000000000000000000000000000000
#097340:0000000000000000005454545454545400000000000000000000000000000000
#097391:00142400
#0973a1:00000000000000000000000000000000005400540054005400540054005400540000000000000000000000000000000000000000000000000000000000000000
#097381:0000000000000000005454545454545400000000000000000000000000000000
#0983a1:000000000014
#0993a1:34
#099361:005424000000000000000000
#099360:13
#099320:005323000000000000000000
#0993a0:00000014
#100360:24
#100360:0014240000000000
#100321:0000142400000000
#1003a0:0000001424000000
#100361:0000000014240000
#100321:00000014
#101321:24
#1013a1:0014002400000000
#101361:00540000
#101321:0000000000140024
#101361:00000054
#1023a1:0014002400000000
#102361:00540000
#102321:0000000000140024
#102361:00000054
#1043a1:00000014
#104361:0000000000000054
#1053a1:24
#105320:14240000
#1053a1:00142400
#105320:00001424
#1053a1:00000014
#1063a1:24
#1083b1:13
#108361:002400000000
#108321:0000001300002300
#108351:00000000000000333333333300000000
#1083b0:0000001300002300
#108380:00000000000000333333333300000000
#1093b0:0000001300000000
#109370:0000000000230000
#1103b0:13333333003333332300000000000000
#110370:00330000
#110360:0000000000000013
#111320:00000000000000000053000028000000
#1153a0:000000000000000000000000143434343434343434343434
#116350:24
#119320:14
#119360:00240000
#1193a0:0000001400000000
#119360:0000000000240000
#119320:00000014
#119360:000000000000000000000024
#1193a1:000000000000000000000014
#120361:002400000000000000000000
#120320:001400000000000000000000
#120360:00542400
#120320:00000016
#120350:00000000000000000000000000530000
#123320:26
#120381:0000000000000000000000000000000000000000000000001636333636363636
#121381:3636363636363636363636363636363636363636363636363636363636363636
#122381:3636363636363636363636363636363636363636363636363636363636363636
#123381:26
