This file was generated by Ched 2.7.0.0.
#TITLE ""
#ARTIST ""
#DESIGNER ""
#DIFFICULTY 0
#PLAYLEVEL
#SONGID ""
#WAVE ""
#WAVEOFFSET 0
#JACKET ""
#REQUEST "ticks_per_beat 480"
#00002: 4
#BPM01: 195
#BPM02: 200
#BPM03: 190
#BPM04: 185
#BPM05: 183
#BPM06: 180
#BPM07: 140
#BPM08: 74
#BPM09: 120
#00008: 01
#04408: 02
#08008: 00000000000000000000000000020000
#06408: 03
#07208: 0400000500000600
#07308: 0007000000000008
#07508: 0000000900000000
#TIL00: ""
#HISPEED 00
#MEASUREHS 00
#0011b:00131300
#00112:00130000
#00117:22
#00119:0000000000330000
#00318:0000001300000000
#00312:0013
#00315:00000013
#0031b:00000013
#0051a:1400001400001400
#00515:0013130000000013
#00512:0000000013130000
#01018:00130000
#0101b:00000013
#01015:00000013
#01012:00230000
#0161a:14
#0161b:0013
#01615:0000000000130000
#01618:00000013
#01612:0000140000000013
#01610:41
#01715:0013000000130000
#0171b:1313
#01718:00130013
#01712:0000001300000013
#02418:0000000014000014
#02412:0000000000240000
#0241a:24
#02518:0000140000260000
#02512:2400002400000000
#02918:0013
#02915:00130000
#0291b:23230013
#02912:00002323
#03019:14
#03012:000000140014000000000000
#03018:000014140000
#0301a:000000000014
#03014:000000000000000000140014
#03013:14
#0311a:1414
#03117:00140014
#03212:00130000
#03214:0013
#03216:00000013
#0321a:24
#03313:00140000
#03315:0014
#03317:00000014
#03318:13
#0391a:141400
#03916:001400001400
#03912:000000140014
#04412:0013000000130000
#04415:0000001300000013
#04418:00230023
#0441b:2323
#04410:41
#0451b:1313
#04518:00130000
#04618:0000001300000000
#0461b:13
#04612:00000000000013000000003333003333
#04615:13
#0471b:00000013000013000000000023000000
#04717:00000000000000000013000000000000
#06416:12
#0641a:00120000
#06415:0012
#06418:00000012
#06410:41
#0651b:12
#06618:0012
#06616:00000012
#0661a:001200
#07218:0012000000000012
#07214:22120022
#07216:0012
#0721a:0000002200120000
#07314:12002212
#07316:00120000
#0731a:0022001200000000
#07318:0000000000120000
#0771b:0000000000000000000000000000000000000000000000000000000000130000
#08112:14
#0811a:14
#08118:00131313
#08115:0000001300130013
#10112:1434000000000000
#1011a:0000000014340000
#10115:0000002400000000
#10117:0000000000000024
#10912:13
#10918:0013000000000013
#10915:00130013
#11016:0000000000000014
#11012:00333333003333332300000000000000
#1101b:00000000000000000000002300000000
#11217:0000001400000000
#11212:00140000
#11213:0000000000140000
#11218:00000014
#11319:0014000000000000
#11314:14
#11315:0000001400000000
#1131a:0014
#11414:18000014
#11415:0000001400000000
#1141a:00140000
#11419:0000000000140000
#1161b:0013
#11615:0000000000130000
#11618:00000013
#11612:2400000000000013
#1171a:14
#11714:0014000000150000
#11718:00140000
#11712:0000001400000015
#11719:0015
#11717:00000015
#11814:0014000000140000
#11812:0000001400000000
#11818:26000026
#11816:00262600
#09816:0014001400140000
#0981a:2424
#09812:00240024
#00612:0000000000140000
#00618:0000000000001313
#0071b:0013130000000000
#00718:0013
#00712:1400001400000000
#0121b:00000013
#01215:00000013
#0131a:13
#01314:13
#01319:00130000
#01318:0013
#01313:00130000
#01312:0013
#02314:14242414
#02318:0024002400240000
#03413:00150000
#03415:0015
#03417:00000015
#03419:14
#03614:14
#0361a:14
#03718:14
#03712:14
#03814:14
#0381a:14
#05612:00130000
#05615:000000000000000033133300000000000000000000000000
#05618:00130000
#0561b:000000000000000033133300000000000000000000000000
#06719:00120000
#06714:12
#06716:0012
#0681b:00130000
#06819:0013
#0681f:11
#06917:00130000
#06919:0013
#07018:00120000
#07014:0012
#07016:00000012
#07118:1212
#0711a:00120000
#07116:00000012
#07817:0000000000000000000000000000000000130000000000000000000000000000
#07812:0000000000000000000000000000000000130000000000000000000000000000
#07814:0000000000000000000000000000000000000000000000000000001300000000
#07819:0000000000000000000000000000000000000000000000000000001300000000
#08412:00000014000014000000000024000000
#08415:00000000000000000014000000000000
#09315:00130013
#09312:000000000000000033133300000000000000000033133300
#0931b:00130013
#09318:000000000000000033133300000000000000000033133300
#09415:00130000
#09412:000000000000000033133300000000000000000000000000
#0941b:00130000
#09418:000000000000000033133300000000000000000000000000
#09918:0000001300130000
#09915:00131300
#0991a:14
#09912:14
#10512:00140014
#10518:00140014
#1051a:0014
#10514:0014
#10819:00000015000025353513353500000000
#10812:00000015000015353500353500000000
#10814:00000000000000000013000000000000
#01412:13
#0141b:13
#0181b:1313
#01818:00130000
#01819:0033003300330000
#01912:1313
#01915:00130000
#01914:0033003300330000
#0201a:14
#02018:0013
#02012:0000140000000013
#0201b:00000013
#02015:0000000000130000
#0211b:00130013
#02112:0000001300000013
#02118:1313
#02115:0013000000130000
#02218:1313
#0221b:00130000
#0221a:0033003300330000
#02614:0000000014000014
#0261a:0000000000240000
#02612:24
#02610:41
#02714:00140000
#0271a:2400002400000000
#02712:0000000000260000
#0421b:13000000003333331300000000333333
#04218:00333333130000000033333313000000
#04212:00000000000000001333333300333333
#04215:00000013
#0551a:00140000
#05515:13
#05517:00000000000000342400000000000000
#05519:00000000003400000000000000000000
#05518:0000003400000000
#07916:0000000000130000000000000000000000000000000000000000000000000000
#0791b:0013
#07919:0000000000000000000000000000000000000000001300000000000000000000
#07914:00000000000000000000000000000000000000000013000000000000000000000000000000000000000000000000000000000000000000000000000000000000
#07912:00000000000000000000000000130000
#07917:00000000000000000000000000130000
#08218:13333333000000001333333300000000
#0821b:00000000133333330000000023000000
#0881a:00000014000014000000000024000000
#08817:00000000000000000014000000000000
#08514:0014001400000000
#08512:0000000000140014
#0851a:24240000
#08518:00002424
#08510:41
#0861a:1414
#08617:00140000
#09212:00140000
#09218:13
#09215:00000000000000342400000000000000
#09213:00000000003400000000000000000000
#09214:0000003400000000
#10012:00140000
#10018:00140000
#10013:0014
#10019:0014
#1001a:00000024
#10014:00000024
#09518:23130013
#0951b:000000000000000033133300000000000000000033133300
#09512:23130013
#09515:000000000000000033133300000000000000000033133300
#01116:00000014
#10418:1313
#10412:1313
#1041b:00130000
#10415:00130000
#1041a:00000024
#10414:00000024
#0481b:0013000000130000
#04818:0000001300000013
#04812:2323
#04815:00230023
#04912:1313
#04915:00130000
#05015:0000001300000000
#05012:13
#0501b:00000000000013000000003333003333
#05018:13
#05112:00000013000013000000000023000000
#05116:00000000000000000013000000000000
#06012:00131300
#0601b:00130000
#06017:22
#06014:0000000000330000
#06215:0000001300000000
#0621b:0013
#06218:00000013
#06212:00000013
#08912:1400000000000014
#0891a:0013
#08914:0000001400000000
#0891b:00130000
#08919:00000013
#08913:0000000000140000
#09018:1300000000000014
#09014:0013
#0901a:0000001400000000
#09015:00130000
#09013:00000013
#09019:0000000000140000
#09112:1300000000000014
#0911a:0013
#09114:0000001400000000
#0911b:00130000
#09119:00000013
#09113:0000000000140000
#10212:1434000000000000
#1021a:0000000014340000
#10215:0000002400000000
#10217:0000000000000024
#11512:000000000000000000000000143434343434003434343434
#11515:00000014
#11513:0014000000000000
#11518:14
#11517:0000001400000000
#0521a:1400000000000014
#05213:0013
#05218:0000001400000000
#05212:00130000
#05214:00000013
#05219:0000000000140000
#05315:13
#05319:0013
#05312:0000001400000000
#05318:00130000
#0531a:00000013
#05314:0000000000000014
#05313:0000000000140000
#0541b:13
#05413:0013
#05418:0000001400000000
#05412:00130000
#05414:00000013
#0541a:0000000000000014
#05419:0000000000140000
#00418:2323
#0041b:00230000
#00412:2323
#00415:00230023
#0081b:00230000
#03515:00260000
#03512:0025
#03519:2525
#0401b:2323
#04015:00230000
#04012:00000023
#04118:23
#04112:00230000
#0411b:0023
#05818:2300002300000000
#0581a:00000024
#05815:0023000023000000
#05812:0000000000000024
#0591a:0024000000000000
#05912:00240000
#05916:0024
#10612:00260026
#10618:2626
#11912:26000026
#11918:000000000000000000260000000000000000000000002600
#04312:0024
#0431a:0024
#09712:00240000
#09710:00410000
#12012:002600000000000000000000
#12018:00000024
#0091b:00000023
#00915:23
#06315:2323
#06312:00230000
#0631b:2323
#06318:00230000
#08714:24
#0871a:24
#08718:0000002400000000
#08712:00000000000024000000003434003434
#08318:24
#08312:24
#08314:0000002400000000
#0831a:00000000000024000000003434003434
#0831f:21
#0741b:0000000000000000003232323232323232000000000000000000000000000000
#0281a:003300000000000000000000
#02819:003300000000
#02818:000000333333000000000000
#02815:000000000000003333330000
#02814:000000000033
#02813:000000000000000000000033
#0165a:14
#02452:0000000000140000
#02552:1400001400000000
#02558:0000000000160000
#0315a:6464
#03157:00540054
#03552:0015
#03559:0015
#0455b:6363
#04558:00630000
#04658:0000001300000000
#0465b:13
#04655:13
#04652:0000001300000000
#0475b:0000006300004300
#04757:00000000000000000023000000000000
#0015b:0053
#08152:14
#0815a:14
#10152:64
#10155:0000001400000000
#1015a:0054
#10157:0000000000000014
#11052:0013
#1105b:00000000000000000000001300000000
#11056:0000000000000054
#11257:0000001400000000
#11258:00000014
#11254:18
#11359:0014000000000000
#1135a:0014
#11454:18000014
#11455:0000001400000000
#11652:14
#00455:00000013
#0365a:0014
#03654:0014
#03752:0014
#03758:0014
#0385a:0014
#03854:0014
#04352:3314
#0435a:0014
#0435b:43
#05655:0000002300000000
#05652:00530000
#05658:00530000
#0565b:0000002300000000
#06859:0053
#0685b:00230000
#06957:00230000
#06959:0053
#07857:0000000000000000000000000000000000230000000000000000000000000000
#07852:0000000000000000000000000000000000230000000000000000000000000000
#07854:0000000000000000000000000000000000000000000000000000006300000000
#07859:0000000000000000000000000000000000000000000000000000006300000000
#0775b:0000000000000000000000000000000000000000000000000000000000630000
#0825b:00530013
#08258:5353
#08452:0000005400003400
#08455:00000000000000000024000000000000
#09355:00630063
#09352:0000002300000023
#0935b:00630063
#09358:0000002300000023
#09455:00630000
#09452:0000002300000000
#0945b:00630000
#09458:0000002300000000
#10652:00160016
#10658:1616
#0145b:23
#01452:23
#0325a:14
#0185b:5353
#01858:00530000
#01952:6363
#01955:00630000
#0205a:14
#02258:6363
#0225b:00630000
#02354:00000014
#0265a:0000000000140000
#0275a:1400001400000000
#02752:0000000000160000
#0425b:6363
#04252:0053
#04258:00230023
#04255:00000023
#0555a:00540000
#05557:0014
#05555:13
#07956:0000000000230000000000000000000000000000000000000000000000000000
#07959:0000000000000000000000000000000000000000006300000000000000000000
#07954:00000000000000000000000000000000000000000063000000000000000000000000000000000000000000000000000000000000000000000000000000000000
#0795b:0023
#07952:00000000000000000000000000230000
#07957:00000000000000000000000000230000
#0885a:0000006400004400
#08857:00000000000000000024000000000000
#0865a:6464
#08657:00640000
#09252:00640000
#09255:0014
#09258:13
#09558:00530053
#0955b:0000002300000023
#09552:00530053
#09555:0000002300000023
#1055a:14
#10554:14
#04952:5353
#04955:00530000
#05055:0000001300000000
#05052:13
#0505b:0000001300000000
#05058:13
#05152:0000005300003300
#05156:00000000000000000023000000000000
#06052:0063
#09058:13
#09152:13
#10252:64
#10255:0000001400000000
#1025a:0054
#10257:0000000000000014
#10852:0000006500000000
#10859:00000000000055000023000000000000
#10854:00000000000000000023000000000000
#11552:0054
#11555:00000024
#11553:0014000000000000
#03358:13
#03459:14
#08754:14
#08752:0000001400000000
#08758:0000001400000000
#0875a:14
#08358:14
#08352:14
#08354:0000001400000000
#0835a:0000001400000000
#05355:13
#0545b:13
#0013b0:0013
#001390:0000000000330000
#001380:00000033
#002380:23
#002320:000000133333330000000000
#002350:000000000000000000333333
#003350:23
#0063a0:1424
#007320:0000000000140000
#008320:0024000000000000
#0083b0:00130000
#008380:0000000000330000
#008390:00000033
#0083a0:0000000000000033
#0093b0:23
#009351:13000023
#009321:0000003300000000
#009331:0033
#009341:0000000000330000
#011381:1323
#0113b1:00330000
#012351:1323
#012321:00330000
#014321:13
#015321:00000026
#0143b0:13
#015380:00000026
#0183b0:1333
#018390:0033003300330000
#018380:00330023
#019320:1333
#019340:0033003300330000
#019350:00330023
#022380:1333
#0223a0:0033003300330000
#0223b0:00330023
#0243a0:1434240000000000
#024390:00340034000000000000000000000000
#026320:1434240000000000
#026330:00340034000000000000000000000000
#0283b0:13
#0283a0:003300000000000000000000
#028390:003300000000
#028380:000000333333230000000000
#028351:000000000000133333330000
#028341:000000000033
#028331:000000000000000000000033
#029321:23
#0313a1:1434
#031371:00340034
#0323a1:24
#0363a1:00142400
#036340:00142400
#037320:00142400
#037381:00142400
#0383a1:00142400
#038340:00142400
#0423b0:13000000003333333300000000333333
#042380:00333333330000000033333333000000
#0433b0:23
#042321:00000000000000001333333300333333
#042351:00000033
#043321:23
#0453b1:1333
#045381:00330023
#046321:00000000000000000000133333003333
#046351:00000000000000000000000000330000
#047321:23
#0473b1:0000001300002300
#047371:00000000000000000053000000000000
#049321:1333
#049351:00330023
#0503b1:00000000000000000000133333003333
#050381:00000000000000000000000000330000
#0513b1:23
#051321:0000001300002300
#051361:00000000000000000053000000000000
#0553a1:00140000
#055391:00000000003400000000000000000000
#055381:0000003400000000
#055371:00000000000000342400000000000000
#056321:13333323
#056351:000000000000000033533300000000000000000000000000
#056380:13333323
#0563b0:000000000000000033533300000000000000000000000000
#057380:1323
#0573b0:00330000
#057351:0013
#057321:00000033
#058351:23
#059361:000000000000143434240000
#060321:0013
#060341:0000000000330000
#060351:00000033
#061351:23
#0613b1:000000133333330000000000
#061381:000000000000000000333333
#062381:23
#065351:000000123232220000000000
#065391:000000000000000000123232
#066391:22
#0683b1:13530000
#068391:0053
#068371:00000053
#069371:33530000
#069391:0053
#0693b1:00000053
#0703b1:23
#0733b1:0000000000000012
#0743b1:0000000000000000323232323232323232000000000000000000000000000000
#074371:0000000000000000000000000000000000320000000000000000000000000000
#075371:22
#075361:0000001400000000
#077341:00000028
#0773b1:0000000000000000000000000000000000000000000000000000000000130000
#078371:0000000000000000000000000000000000330000000000000000000000000000
#078391:0000000000000000000000000000000000000000000000000000005300000000
#0793b1:0000000000330000000000000000000033000000000000000000000000000000
#079391:0000000000000000000000000000000000000000005300000000000000000000
#079371:00000000000000000000000000330000
#0803b1:000000000000000000000023000000000000000000000000
#077320:0000000000000000000000000000000000000000000000000000000000130000
#078320:0000000000000000000000000000000000330000000000000000000000000000
#078340:0000000000000000000000000000000000000000000000000000005300000000
#079360:0000000000330000000000000000000000000000000000000000000000000000
#079340:00000000000000000000000000000000000000000053000000000000000000000000000000000000000000000000000000000000000000000000000000000000
#079320:00000000000000003300000000330000
#080360:000000000000000000000023000000000000000000000000
#082380:13333333000000003333333300000000
#0823b0:00000000333333330000000023000000
#0833a0:00000000000000000000143434003434
#083370:00000000000000000000000000340000
#0843a0:24
#084320:0000001400002400
#084350:00000000000000000054000000000000
#0863a0:1434
#086370:00340024
#087320:00000000000000000000143434003434
#087350:00000000000000000000000000340000
#088320:24
#0883a0:0000001400002400
#088370:00000000000000000054000000000000
#092320:00140000
#092330:00000000003400000000000000000000
#092340:0000003400000000
#092350:00000000000000342400000000000000
#093350:13333333
#093320:000000000000000033533300000000000000000033533300
#094350:33333323
#094320:000000000000000033533300000000000000000000000000
#0933b1:13333333
#093381:000000000000000033533300000000000000000033533300
#0943b1:33333323
#094381:000000000000000033533300000000000000000000000000
#095381:13333333
#0953b1:000000000000000033533300000000000000000033533300
#096381:33230000
#095320:13333333
#095350:000000000000000033533300000000000000000033533300
#096320:33230000
#096350:0016
#097350:26
#097320:00000000145454545454545424000000
#097330:0000000000000000005400540054005400540054005400540000000000000000
#0973a1:00000000145454545454545424000000
#097391:0000000000000000005400540054005400540054005400540000000000000000
#099351:00000013
#100351:23
#101321:1434000000000000
#101351:0000002400000000
#1013a1:0000000014340000
#101371:0000000000000024
#102321:1434000000000000
#102351:0000002400000000
#1023a1:0000000014340000
#102371:0000000000000024
#103321:1333
#103331:00330000000000330033000000000000
#103341:0033003300330000
#103351:00000033003300000000003300000000
#103361:00330023
#1043a1:00000014
#1053a1:24
#104340:00000014
#105340:24
#1073a0:1424
#107390:00340000000000340000000000000000
#107380:0034003400000000
#107370:00000034003400000000000000000000
#107360:00340000
#107361:0014
#107351:00000000000000000034000000000034
#107341:0000000000340034
#107331:00000000000000000000003400340000
#107321:00000034
#108361:24
#108391:00000000000015353533353525000000
#108320:00000000000015353500353525000000
#108340:00000000000000000033000000000000
#1093b0:0000001300230000
#110320:13333333003333332300000000000000
#110360:00330000
#110360:0000000000000014
#112340:28
#115320:000000000000000000000000143434343434003434343434
#115350:00000034
#116320:24
#119320:16260000
#119380:0000001600260000
#120320:001600000000260000000000
#120340:00000014
#123320:26
#120381:00000014
#123381:26
