This file was generated by Ched 2.7.0.0.
#TITLE ""
#ARTIST ""
#DESIGNER ""
#DIFFICULTY 0
#PLAYLEVEL
#SONGID ""
#WAVE ""
#WAVEOFFSET 0
#JACKET ""
#REQUEST "ticks_per_beat 480"
#00002: 4
#BPM01: 195
#BPM02: 200
#BPM03: 190
#BPM04: 185
#BPM05: 183
#BPM06: 180
#BPM07: 140
#BPM08: 74
#BPM09: 120
#00008: 01
#04408: 02
#08008: 00000000000000000000000000020000
#06408: 03
#07208: 0400000500000600
#07308: 0007000000000008
#07508: 0000000900000000
#TIL00: ""
#HISPEED 00
#MEASUREHS 00
#0011c:00120000
#00119:0000000012120000
#00112:00170000
#00117:22
#00317:00000000000000120000000000000000
#00312:00001212
#0031c:0000001200000000
#0051c:12
#0051b:0013130000001313
#00518:00000013000013000000130000000013
#00512:1200001313130000
#00515:00000000130000000013000013000000
#00614:00000013000000130000000000140000
#00612:0013000013141414
#0061b:13
#00616:0000131300000014
#00618:00000000001300000000000000000000
#0061a:0000000000140000
#00615:13
#0071a:1414141400001400
#00718:00000014000000000000000000140000
#00716:0000140000140014
#00712:1400001414140000
#00714:00000000000000000014000000000014
#0081b:00000013
#00818:00140000000000000000000000001300
#00816:14
#0081a:0014000000000000
#00815:0000290000000013
#00915:0000000000130000
#00912:29001313
#00916:000000000000000000280012
#0091b:000000000000000000000013
#00918:0000000000130000
#01016:120013
#0101b:13130000
#01014:001200000000001300000000
#01012:0000122800131300001c0021
#01018:000000000012120000000000
#0101a:000000000000001200000000
#0101c:000012
#01017:001300000000
#01019:001300000000000000000000
#01218:000000000000000000000012
#01212:000000000021210000120000
#01215:000000000012
#01216:21
#01214:000021210000000000000000
#0131c:12
#01319:001200000000000012000000
#01316:001200000000
#0131a:00120000
#01317:001200
#01314:000000000012000000000000
#01318:0012
#01315:000000000000001200000000
#01312:000012
#01512:000012
#0151c:000012
#01416:12
#01418:12
#01414:003200000000000000000000000000000000000000000000
#0141a:003200000000000000000000000000000000000000000000
#01612:1400001200000012
#01614:00131313
#0161b:00131313
#01619:0000001200000012
#01617:0000000000120000
#0161a:14
#01610:41
#01714:13131313
#0171b:13131313
#01717:0012000000120000
#01719:0000001200000012
#01712:0000001200000012
#01814:13131313
#01812:0000001200000012
#01817:0012000000120000
#01818:16
#01914:13131313
#01917:0012000000120000
#01912:0000001200000012
#0191c:00120000000000000000000000000000
#0201b:13
#02019:00131313
#02012:00131313
#02015:0000001200000012
#02017:0000000000120000
#02014:13
#0201c:0000001200000012
#02119:13131313
#02112:13131313
#02117:0012000000120000
#02115:0000001200000012
#0211c:0000001200000012
#02219:13131313
#0221c:0000001200000012
#02217:0012000000120000
#02212:16000012
#02312:00000019
#02315:00210000
#02313:0021000000000000
#02317:0000002100000000
#02319:0021
#0231b:0000000000210000
#0231d:00000021
#02416:0000001400000000
#02412:00240024000000001800240000000000
#02415:00000000000000000000000000130000
#02418:0000000000001313
#02417:2424240000000000
#0241a:0000000000240000
#02616:0000001418000000
#02618:00000000000000000000000000130000
#02615:2424240000001313
#0261a:00240024000000000000240000000000
#02612:0000000000240000
#02610:41
#0301a:120000000012
#03016:00130000
#03017:001300
#03018:000000000013000000000000
#03019:00001312
#03012:00120000
#03013:000000001200000000130000
#03014:000000000012000000001300
#03015:000000000000120000000013
#0301b:000000000000000000000012
#03215:130000000000001200000000
#03212:23120000
#03214:000000001200000000120000
#03216:000000000012000000001200
#03213:0012
#03217:000012
#03218:000000000000000000000012
#03318:130000001200000000120000
#03316:00120000
#0331a:000000000012000000001200
#03317:0012
#03319:000000000000001200000000
#0331b:000012
#0331c:000000000000000000000012
#03415:130000001200001200001200
#03412:00121212
#03418:000000000012000012000012
#0341b:000000000000000000000013
#03512:1329132913292c0000000000
#0351b:001300130013000000000000
#03515:292929000000
#0361b:1313
#03617:13
#03612:000000130000000000131313
#03616:00130000
#03712:1313
#03716:13
#0371b:000000130000000000131313
#03717:00130000
#0381b:1313
#03817:13
#03812:000000130000000000131313
#03816:00130000
#04214:14000012000000001400001200000000
#04212:00120000000000000012000000000000
#04216:00001400001200000000140000120000
#04218:00000000140000120000000014000012
#0421a:0000001400000014
#04412:1713240017132400
#04417:0012171200121712
#0441b:0000001300000013
#0441a:2424
#04410:41
#04313:00000012
#04315:00000000000000000000000000120000
#04317:0000000000000012
#04319:00000000000000000000000000000012
#04318:16
#04312:120000001c1c1c002600000000000000
#0431c:0022
#04618:13000000130000000000001300130016
#04612:00000000000013000000130000130000
#0461b:00000013
#04615:0000000000001313
#05518:00000000001600160000000000000000
#0551b:0000131313000000
#05512:1c26
#05516:0000000000000012
#0551c:0000000000000000000000000000000000000000000000001232323200323232
#0571b:130013000013130013000000
#05715:001600001600000013001300
#05718:000000000000001300000013
#05712:000013130013000000130013
#05818:261400261400000000000000000000000000000000000000
#05814:000000000000000000001400001400000000000000000000
#05819:000000000000000000000000000000000000001500001500
#05812:0000002626000000
#05817:0000000000002727
#05912:000000271500271500000000160016001600160000000000
#05918:000000000000262626260000
#06012:00120000
#06015:0000000012120000
#06017:22170000
#06217:00000000000000120000000000000000
#0621c:00001212
#06212:0000001200000000
#06417:12
#06414:00120000
#0641a:00120000
#06412:00001212
#06418:00001212
#06416:0000000000120000
#0641c:0000000000120000
#06410:41
#06512:12120000
#06515:001200
#06518:000000000012000000000000
#0651c:00001212
#06519:000000000012
#06516:000000000000000000000012
#06613:0000001200000000
#0661b:0000001200000000
#06619:00000000000000120000000000000000
#06612:12
#06617:0012
#06618:00120000
#06614:00000012
#0661a:00000012
#06615:00000000000000120000000000000000
#0681c:00120000
#06819:0012
#06818:12
#0681f:11
#06912:00120000
#06915:0012
#0691a:0012
#0691b:00000012
#0701c:12000012
#07018:00000012000000001200000000000000
#07014:00120000
#07012:0012
#07016:00000012
#07114:121200000000
#07118:001200001200000000000000
#0711c:000000120012000000000000
#07112:000000121200
#07116:000000000000001200001200
#0711a:000000000000000000120012
#07214:0011002100000000
#07216:00111121
#07217:11
#07219:0000001100000000
#07218:0000000000110011
#0721b:00000011
#07212:21
#0731a:11111100
#0731d:0011000000000000
#0731c:0000001100000000
#07317:0000000000110000
#07319:00000011
#07318:0021000000000021
#07315:0021
#08113:15
#08118:15
#08112:0000121212000000
#0811c:0000121212000000
#08115:0000000000121212
#08119:0000000000121212
#07712:00000000000000000000000000000000000000000000000000000000000000000000000000000000000000000000000000000000000000000000000000000012
#0771a:0000000000000000000000000000000000000000000000000000000000120000
#08212:1418001400001600
#0821a:00140000000000140000001200000000
#08216:00000014141800000012000000000000
#08214:0012
#08218:0000000000122600
#09212:1c00000000000000130016001300160013000000000000001232323200323232
#09218:0000000026000012
#09313:00120000
#0931c:0012
#0931b:00000012
#09318:000000000012
#09315:000000000000000000000012
#09319:000000000012000000000000
#09316:001200
#09412:12
#09413:00120000
#09416:001200
#09419:000000000012000000000000
#0941c:0012
#0941b:00000013
#09514:000000140000140000000000000000000000000000001400
#09512:240000000014240000000000
#09518:000000000000000000001400000000140000140000000000
#09516:000014000014
#0951a:240000000000240000000014
#09618:001300001300000000000000
#09615:000013000013000000000000
#0961b:00131300
#09612:24231300
#0961a:24
#09712:0000000000130000
#09716:0000000000120000
#09715:00000013
#09719:00000012
#0971c:0000000000000012
#09718:0000000000000013
#09713:00250000
#09710:00410000
#09815:001600001600001612001600
#09819:001200000000
#09817:000000000012000000000000
#0981b:23132313
#09812:13231323
#09912:00120000
#09914:00000000001414000000000000000000
#09918:00000000140000120014140000000000
#09916:00001214
#0991c:00000000000000000000001200000000
#10112:1300001313000023
#10115:00130000000000160000130000000016
#10118:00001300000000000013000000000000
#1011b:0000002313000013
#10114:000000000013000000000000000000000000000000000000
#10119:000000000000000000000000000000000013000000000000
#10116:003300000000
#10117:000033
#10212:1300001313000023
#10215:00130000000000160000130000000016
#1021b:1300002313000013
#10218:00001300000000000013000000000000
#10214:000000000013000000000000000000000000000000000000
#10219:000000000000000000000000000000000013000000000000
#10216:003300000000
#10217:000033
#1031b:13
#10319:00130000000000001300000000000000
#10317:00001300000000000013000000000000
#10315:00000013180000000000130000000000
#10318:00000000001300000000000000000000
#10316:00000000000013000000000000130000
#10314:00000000000000130000000000001300
#10313:00000000000000000000001318000000
#10312:13000000000000000000000000000013
#10412:001c15000000000000140000
#10414:000000001a15000000000000
#10416:000000000000001815000000
#10415:0000000000000014
#1041b:00000023
#1071b:00130000000000001300000000000000
#10715:00001300000016000013000013001600
#10718:13000013000000160000130000000016
#10712:23000000131600000000001300160000
#10812:1c000000000015353515353500000000
#10819:00000000000025353515353500000000
#10817:001200000000000000000000
#10912:1200000000120000
#10915:13
#10914:0012000000001200
#10917:0013000000001300
#10916:0000120000000012
#10919:0000130000000013
#10918:0000001200000000
#1101b:13
#11018:12330033000000000000000000000000
#11016:00001300000000000000001300000000
#11017:0000130000000013
#11012:00000000000013000000002400000000
#1101a:0000000024000024
#11014:00000000003300330000000000000000
#1111c:00000000000000000012000000000000
#11112:0000002c
#1121a:14
#11212:1400001613131300
#1121b:0013131300000013
#11218:00000013001300000000000016000013
#11215:00000000000000000013001300000000
#11216:00130000
#11217:0000000000130000
#11318:00130000000000001600000000001400
#11312:0016131313160000
#11315:00000000001300130000000000130000
#11317:0000001300001300
#11314:00000000000000000000000000000014
#1131b:1313000000130000
#11316:13
#11419:15
#11412:1514001800001414
#11414:00000014000000000000001400000014
#11416:0000140000141800
#11418:00001300001400000014000000001300
#1141a:0000001414000000
#11415:0013
#11512:0018000014180000
#11516:1400001418000000
#11518:00140000001400000000000000000000
#1151a:0014140000000000
#11514:00000000000000140000000000000000
#11515:00130000
#11615:0000161316131613
#11618:0000001300130013
#11612:23
#11715:1613161316161616
#11718:0013001300000000
#11712:0000120000120012
#1171c:12001212
#11815:16001612160016121600161216000000
#11819:00120000001200000012000000000000
#11812:0022002200220000
#1181c:22222222
#12012:00000016
#12018:000000000000000026000000000000000000000000000000000000000000000000000000000000000000000000000000000000000000000000000000000000000000000000000000260000360000000000360000360000360000360000360000
#0111c:0000000000000012
#01112:21
#01114:000021210000000000000000
#01116:000000000021210000000021
#01118:000000000000000021210000
#02516:00000000000000141414000014140000
#02518:00000013000000000000000000000000
#02515:0013130000000000
#02512:2400000000000014
#0251a:2400002400240014
#07818:00000000000000000012000000000000000000000000000012000000000000000000001200000000000000000000000000000000000000120000000000000000
#07815:00000000120000000000000000000000000000120000000000000000000000000000000000000000000000000000000000000000000000000000000000000000
#0781b:00000000000000000000000000000000000000000000000000000000001200000000000000000000000000000000000000000000000000000000000000000000
#07812:00000000000000000000000000000000000000000000000000000000000000000000001200000000000000000000000000000000000000000000000000000000
#0781c:00000000000000000000000000000000000000000000000000000000000000000000000000000000000000000012000000000000000000000000000000000000
#07814:00000000000000000000000000000000000000000000000000000000000000000000000000000000000000000000000000000000000000120000000000000000
#07816:00000000000000000000000000000000000000000000000000000000000000000000000000000000000000000012000000000000000000000000000000000000
#0791a:00120000000000000000000000000000000000000000000000000000000000000000000000000000000000000000000000000000000000000000000000000000
#07916:00120000000000000000000000000000000000000000000000000000000000000000000000000000000000000000000000000000000000000000000000000000
#07912:0000000000000000000000000000000000000000000000000000000000000000000000000000000000000000000000000000000000000000000000000000000000000000000000000000000000000000000000000000000000000000000000000000000000000000000000000000000000320000000000000032000000000000
#04817:1712001217120012
#04812:2400171324001713
#0481b:0013000000130000
#0481a:00240024
#05015:13000000130000000000001300130000
#0501b:00000000000013000000130000130000
#05012:00000000000000000000000013000016
#05018:0000000000001313
#05312:00001a1918171615
#05418:00160000
#05417:0000001700000000
#05416:0018
#05415:0000000000190000
#05414:0000001a
#05413:000000000000001b
#05216:00000018
#0521a:14140000
#05215:0000000000000019
#05217:0000000000170000
#05218:0016
#05219:0000001500000000
#0391a:141400141400
#03916:000014001818140000000000
#03912:130014001814
#03914:000000000000000000000014
#03919:000000000000000000000013
#03917:000000000013
#08315:00000000000023000000001300130000
#08318:2300000000001313
#0831b:00000000000023000000000000130000
#08312:23000000000000000000130013000016
#0831f:21
#08718:00000000000023000000001300130000
#08712:0000000000002300000000000013001c
#0871b:2300000000131300
#08715:2300000000001313
#09019:0000000000000015
#09014:001a0000
#09015:0000001900000000
#09016:0018
#09017:0000000000170000
#09018:00000016
#09112:0000161718191a1b
#08912:1400141516171819
#03118:0000000000000013
#03112:00000012
#03117:00230023
#03116:2323
#1001a:0000000000140000
#10012:00000024
#10016:00000024
#04712:16000000000000000000001600000000000000000000000016000000000000001600000000000000000000000000000000000000000000000000000000000000
#04718:16000000000000000000001600000000000000000000000016000000000000000000000000000000000000000000000026000000000000000000000000000000
#02716:00000000000000141414000014140000
#02715:00000013000000000000000000000000
#02718:0013130000000000
#02712:2400002400240014
#0271a:2400000000000014
#05118:16000000000000000000001600000000000000000000000016000000000000001600000000000000000000000000000000000000000000000000000000000000
#05112:16000000000000000000001600000000000000000000000016000000000000000000000000000000000000000000000026000000000000000000000000000000
#08412:26000000000000000000001600000000000000000000000026000000000000001600000000000000000000000000000000000000000000000000000000000000
#08418:16000000000000000000002600000000000000000000000016000000000000000000000000000000000000000000000026000000000000000000000000000000
#08818:26000000000000000000001600000000000000000000000026000000000000001600000000000000000000000000000000000000000000000000000000000000
#08812:16000000000000000000002600000000000000000000000016000000000000000000000000000000000000000000000026000000000000000000000000000000
#00416:00000022
#00413:2121
#00419:00210000
#0631c:2121
#06316:00210000
#1191a:24
#11914:24
#11918:0000002400002600
#11912:000000000000000000240000000000000000260000002600
#11917:0034000000000000000000000000000000000000000000000000000000000000
#11915:0000000000000000000000000034000000000000000000000000000000000000
#0291b:21210000000000002121000000000000
#0291d:00000000212100000000000021210000
#0401d:2121
#04012:00210021
#04118:2121
#04117:00210000
#04512:2424
#0451a:00240024
#0671a:22
#10512:00240024
#1051a:0024
#1061a:24
#10619:00240000
#10618:0024
#10617:00000024
#08512:2424
#0851a:00240024
#08510:41
#08612:24
#08613:00240000
#08614:0024
#08615:00000024
#0491a:2424
#04912:00240024
#0741c:0000000000000000003100000000000000000000000000000000000000000000
#0741b:00000000003100000000000000000000
#0741a:0000000000000000000000310000000000000000000000000000000000000000
#07419:0000003100000000
#07418:0000000000000000000000000031000000000000000000000000000000000000
#07417:00000000000000310000000000000000
#07416:0000000000000000000000000000003100000000000000000000000000000000
#07415:0031
#12118:3636363636363636363636363636363636363636363636363636363636363636
#12218:3636363636363636363636363636363636363636363636363636363636363636
#08015:32323200000000000000000000000000
#00456:00000042
#00259:32
#00256:0042
#0035c:32
#00952:00000033
#00552:32
#0055c:42
#00652:0000000000340000
#0065a:0000000000440000
#0105b:00430000
#01052:0000006c
#01255:00000049
#01552:000022
#0155c:000022
#01456:52
#01458:62
#01652:34
#0165a:44
#0205b:43
#02352:3a000039
#02452:0048
#0245a:0000000000440000
#02457:44540000
#0255a:4400004400440000
#02656:0038
#02655:34640000
#02652:0000000000340000
#03255:63
#03252:33
#03358:53
#0335b:33
#03455:63
#03452:43
#0345b:000000000000000000000023
#03555:494949000000
#03552:2339233923394c0000000000
#0355b:002300230023000000000000
#03657:6333
#03652:00630000
#03656:00530000
#0365b:0053
#03756:5343
#0375b:00530000
#03757:00630000
#03752:0063
#03857:6333
#03852:00630000
#03856:00530000
#0385b:0053
#04352:0036
#04358:46
#0435c:0052
#05552:4c16
#05556:0000000000000022
#0555c:00000062
#0575b:4343
#05752:00330033
#06252:42
#06155:42
#06158:0032
#05952:00000016
#05958:00000016
#0685c:00220000
#06859:0062
#06952:00220000
#06955:0052
#08153:15
#08158:15
#08258:00000046
#08252:00000036
#09258:0000000016000022
#09252:3c000052
#09352:32
#0935c:0042
#09652:3453
#0965b:0063
#10154:000000000023000000000000000000000000000000000000
#10158:0063000000000000
#10155:0000000000530000
#10159:000000000000000000000000000000000023000000000000
#1015b:0000004300000000
#10152:0000000000000033
#10852:5c000000000000001c000000000000000000550000000000000000250000000000000000000000000000000000000000
#10859:00000000000065000025000000000000
#10857:002200000000000000000000
#11056:0023000000000000
#1105b:63
#11052:00000000000023000000003400000000
#1105a:0000000044000044
#11057:0000630000000053
#1115c:00000000000000000022000000000000
#11152:0000003c
#11252:1400003600000000
#1125a:14
#11258:00000046
#11352:0036000000360000
#11358:0046
#11459:15
#11452:1500003800000000
#11456:00000048
#11652:33
#11552:0038000000380000
#11556:0048
#1195a:44
#11952:0000003400000000
#12052:00000056
#12058:00000066
#0115c:0000000000000022
#02252:66000022
#0195c:00220000000000000000000000000000
#01858:56
#00152:00570000
#04452:00340034
#0445a:4444
#04852:3434
#0485a:00440044
#06057:00670000
#09554:0024000000000000
#0955a:6444
#09558:0000000000240000
#09552:3454
#10258:0063000000000000
#10254:000000000023000000000000000000000000000000000000
#10255:0000000000530000
#10259:000000000000000000000000000000000023000000000000
#1025b:0000004300000000
#10252:0000000000000033
#10052:34000034
#10056:00340000
#1005a:0044
#06358:00000032
#04652:0000001300000000
#04658:13
#0505b:0000001300000000
#05055:13
#05456:43
#05352:43
#09452:32
#0945c:0042
#0945b:00000043
#09457:00000033
#10452:00000014
#1045b:00000053
#10455:0000000000000024
#09157:33
#0905b:33
#0305a:12
#03054:12
#08352:33
#08355:0000003300000000
#03152:00000062
#03158:0000000000000023
#03157:00430043
#03156:3333
#03956:003400340000
#03952:003400
#0395a:340034
#1055a:4444
#10552:00340034
#04552:00000018
#02752:3400003400340000
#0565c:42
#1065a:44
#10659:00440000
#10658:0044
#10657:00000044
#04752:36000000000000000000003600000000000000000000000036000000000000002600000000000000000000000000000000000000000000000000000000000000
#04758:66000000000000000000006600000000000000000000000066000000000000000000000000000000000000000000000046000000000000000000000000000000
#08758:0000004300000000
#0875b:43
#10752:33
#05158:46000000000000000000004600000000000000000000000046000000000000002600000000000000000000000000000000000000000000000000000000000000
#05152:56000000000000000000005600000000000000000000000056000000000000000000000000000000000000000000000036000000000000000000000000000000
#08452:36000000000000000000005600000000000000000000000036000000000000002600000000000000000000000000000000000000000000000000000000000000
#08458:66000000000000000000004600000000000000000000000066000000000000000000000000000000000000000000000046000000000000000000000000000000
#08858:46000000000000000000006600000000000000000000000046000000000000002600000000000000000000000000000000000000000000000000000000000000
#08852:56000000000000000000003600000000000000000000000056000000000000000000000000000000000000000000000036000000000000000000000000000000
#08552:3434
#0855a:00440044
#08652:34
#08653:00340000
#08654:0034
#08655:00000034
#04956:00000018
#001320:00170000
#002320:00520000
#003320:22
#001391:00000012
#002391:22
#002361:000000123232220000000000
#0023c1:000000000000000000123232
#0033c1:22
#003361:00000012
#004361:32003222
#0043c1:00320000
#008321:000000000000000000000000000000000000000000000000000000000000000000000000000000000000000000000000000000000000000000000000000000000000000000000000000000000000000000000000000000000000000000000000000000000000000000000000000000000000000000000000000000000000000000000000000000000000000000000000000000000000000000000000000000000000000000000000000000000000000000000000000000000000000000000000000000000000000000000000000000000000000000000000000000000000000000000000000000000000000000000000130000000000000000000000000000000000000000000000000000000000000000000000000000000000000000000000000000000000000000000000000000000000000000000000000000000000000000000000000000000000000000000000000000000000000000000000000000000000000000000000000000000000000000000000000000000000000000000000000000000000000000000000000000000000000000000000000000000000000000000000335600000000000000000000000000000000000000000000000000000000000056000000000000000000000000000000000000000000000000000000000000000000000000000000000000000000000000000000000000000000000000000000000000000000000000000000000000000000000000000000000000000000000000000000000000000000000000000000000000000000000000000000000000000000000000000000000000000000000000000000000000000000000000000000000000000000000000000000000000000000000000000000000000000000000000000000000000000000000000000000000000000000000000000000000000000000000000000000000000000000000000000000000000000000000000000000000000000000000000000000000000000000000000000000000000000000000000000000000000000000000000000000000000000000000000000000000000000000000000000000000000000000000000000000000000000000000000000000000000000000000000000000000000000000000000000000000000000000000000000000000000000000000000000000000000000000000000000000000000000000000000000000000000000000000000000000000000000000000000000000000000000000000000000000000000000000000000000000000000000000000000000000000000000000000000000000000000000000000000000000
#008351:000000000000000000000000000000000000000000000000000000000000000000000000000000000000000000000000000000000000000000000000000000000000000000000000000000000000000000000000000000000000000000000000000000000000000000000000000000000000000000000000000000000000000000000000000000000000000000000000000000000000000000000000000000000000000000000000000000000000000000000000000000000000000000000000000000000000000000000000000000000000000000000000000000000000000000000000000000000000000000000000000000000000000000000000000000000000000000000000000000000000000000000000000000000000000000000000000000000000000000000000000000000000000000000000000000000000000000000000000000000000000000000000000000000000000000000000000000000000000000000000000000000000000000000000000000000000000000000000000000000000000000000000000000000000000000000000000000000000000000000000000000000000000000000000000000000000000000000000000000000000000000530000000000000000000000000000000000000000000000000000000000000000000000000000000000000000000000000000000000000000000000000000000000000000000000000000000000000000000000000000000000000000000000000000000000000000000000000000000000000000000000000000000000000000000000000000000000000000000000000000335600000000000000000000000000000000000000000000000000000000560000000000000000000000000000000000000000000000000000000000000000000000000000000000000000000000000000000000000000000000000000000000000000000000000000000000000000000000000000000000000000000000000000000000000000000000000000000000000000000000000000000000000000000000000000000000000000000000000000000000000000000000000000000000000000000000000000000000000000000000000000000000000000000000000000000000000000000000000000000000000000000000000000000000000000000000000000000000000000000000000000000000000000000000000000000000000000000000000000000000000000000000000000000000000000000000000000000000000000000000000000000000000000000000000000000000000000000000000000000000
#008381:000000000000000000000000000000000000000000000000000000000000000000000000000000000000000000000000000000000000000000000000000000000000000000000000000000000000000000000000000000000000000000000000000000000000000000000000000000000000000000000000000000000000000000000000000000000000000000000000000000000000000000000000000000000000000000000000000000000000000000000000000000000000000000000000000000000000000000000000000000000000000000000000000000000000000000000000000000000000000000000000000000000000000000000000000000000000000000000000000000000000000000000000000000000000000000000000000000000000000000000000000000000000000000000000000000000000000000000000000000000000000000000000000000000000000000000000000000000000000000000000000000000000000000000000000000000000000000000000000000000000000000000000000000000000000000000000000000000000000000000000000000000000000000000000000000000000000000000000000000000000000000000000000000000000000000000000000000000000000000000000000000000000000000000000000000000000000000000000000000000000000000000000000000000000000000000000000000000000000000000000000000000000000000000000000000000000000000000000000000000000000000000000000000000000000000000000000000000000000000000000000000000000000000000000000000000000000000000000000000000000005300000000000000000000000000000000000000000000000000000000000000000000000000000000000000000000000000000000000000000000000000000000000000000000000000000000000000000000000000000000230000000000000000000000000000000000000000000000000000000000000000000000000000000000000000000000000000000000000000000000000000000000000000000000000000000000000000000000000000000000000000000000000000000000000000000000000000000000000000000000000000000000000000000000000000000000000000000000000000000000000000000000000000000000000000000000000000000000000000000000000000000000000000000000000000000000000000000000000000000000000000000000000000000000000000000000000000000000000000000000
#008350:00190000
#0083b0:0000000000230000
#0093b1:13000033000000000000000000000000
#009381:000000000000000000000000000000000000000000000000000000000000000000000000000000000000000000000000000000000000000000000000000000000000000000000000000000000000000000000000000000000000000000000000000000000000000000000000000000000000000000000000000000000000000000000000000000000000000000000000000000000000000000000000000000000000000000000000000000000000000000000000005600000000000000000000000000000000000000000000000000000000000056530000000000000000000000000000000000000000000000000000000000000000000000000000000000000000000000000000000000000000000000000000000000000000000000000000000000000000000000000000000000000000000000000000000000000000000000000000000000000000000000000000000000000000000000000000000000000000000000000000330000000000000000000000000000000000000000000000000000000000000000000000000000000000000000000000000000000000000000000000000000000000000000000000000000000000000000000000000000000000000000000000000000000000000000000000000000000000000000000000000000000000000000000000000000000000000000000000000000000000000000000000000000000000000000000000000000000000000000000000000000000000000000000000000000000000000000000000000000000000000000000000000000000000000000000000000000000000000000000000000000000000000000000000000000000000000000000000000000000000000000000000000000000000000000000000000000000000000000000000000000000000000000000000000000000000000000000000000000000000000000000000000000000000000000000000000000000000000000000000000000000000000000000000000000000000000000000000000000000000000000000000000000000000000000000000000000000000000000000000000000000000000000000000000000000000000000000000000000000000000000000000000000000000000000000000000000000000000000000000000000000000000000000000000000000000000000000000000000000000000000000000000000000000000000000000000000000000000000000000000000000000000000000000000000000000000000000000000000000000000000000000000000000000000000000000000000000000000000000000
#009351:000000000000000000000000000000000000000000000000000000000000000000000000000000000000000000000000000000000000000000000000000000000000000000000000000000000000000000000000000000000000000000000000000000000000000000000000000000000000000000000000000000000000000000000000000000000000000000000000000000000000000000000000000000000000000000000000000000000000000000000000000000000000000000000000000000000000000000000000000000000000000000000000000000000000000000000000000000000000000000000000000000000000000000000000000000000000000000000000000000000000000000000000000000000000000000000000000000000000000000000000000000000000000000000000000000000000000000000000000000000000000000000000000000000000000000000000000000000000000000000000005600000000000000000000000000000000000000000000000000000000565300000000000000000000000000000000000000000000000000000000000000000000000000000000000000000000000000000000000000000000000000000000000000000000000000000000000000000000000000000000230000000000000000000000000000000000000000000000000000000000000000000000000000000000000000000000000000000000000000000000000000000000000000000000000000000000000000000000000000000000000000000000000000000000000000000000000000000000000000000000000000000000000000000000000000000000000000000000000000000000000000000000000000000000000000000000000000000000000000000000000000000000000000000000000000000000000000000000000000000000000000000000000000000000000000000000000000000000000000000000000000000000000000000000000000000000000000000000000000000000000000000000000000000000000000000000000000000000000000000000000000000000000000000000000000000000000000000000000000000000000000000000000000000000000000000000000000000000000000000000000000000000000000000000000000000000000000000000000000000000000000000000000000000000000000000000000000000000000000000000000000000000000000000000000000000000000000000000000000000000000000000000000000000000000000000000000000000000000000000000
#009320:1900002300000000
#010321:0000001c
#0113c1:0000000000520052
#012351:00000029
#014361:12
#014341:003200000000000000000000000000000000000000000000
#014321:000032323232323232323232323232323232323232323232
#015321:320052
#015361:00000022
#014380:12
#0143a0:003200000000000000000000000000000000000000000000
#0143c0:000032323232323232323232323232323232323232323232
#0153c0:320052
#015380:00000022
#018380:16
#0183c0:00000000000000000000000000520000
#0193c0:00520000000000000000000000000000
#019380:0000000000000026
#022320:16000052
#023320:2a
#024370:00140000
#0243a0:00000000005400002400000000000000
#026350:00140000
#026320:00000000005400002400000000000000
#0283c0:122200000000000000000000
#028361:001424000000000000000000
#0283a0:000012220000000000000000
#028341:000000142400000000000000
#028380:000000001222000000000000
#028321:000000000014240000000000
#0283a0:000000000000142400000000
#028361:000000000000001222000000
#028380:000000000000000014240000
#028341:000000000000000000122200
#028360:000000000000000000001424
#028321:000000000000000000000012
#029321:22
#029321:000000000000000000000000000000000000000000000000000000000000180000000000000000000000000000000000000000000000000000000000000000000000000000000000000000000000000000000000000000000000000000000000000000000000000000000000000000000000000000000000000000000000000000000000000000000000000000000000000000000000005a00000000000000000000000000000000000000000000000000000000000000000000000000000000000000000000000000000000000000000000000000000000000000000000000000000000000000000000000000000000000000000000000000000000000000000000000000000000000000000000005800000000000000000000000000000000000000000000000000000000000000000000000000000000000000000000000000000000000000000000000000000000000000000000000000000000000000000000000000000000000000000000000000000000000000000000000000000000000000000000005a00000000000000000000000000000000000000000000000000000000000000000000000000000000000000000000000000000000000000000000000000000000000000000000000000000000000000000000000000000000
#029381:000000000000000000000000000000000000000000000000000000000000000000000000000000000000000000000000000000000000000000000000000000000000000000000000000000000000000000000000000000000000000000000000000000000000000000000000000000000000000000000031000000000000000000000000000000000000000000000000000000000031000000000000000000000000000000000000000000000000000000000000000000000000000000000000000000000000000000000000000000000000000000000000000000000000000000000000000000000000000000000000000000000000000000000000000000000000000000000000000000000000000000000000000000000000000000000000000000000000000000000000000000000000000000000000000000000000000000000000000000000000000000000000000000000000000000000000000000000000000000000000000031000000000000000000000000000000000000000000000000000000310000000000000000000000000000000000000000000000000000000000000000000000000000000000000000000000000000000000000000000000000000000000000000000000000000000000000000000000000000000000
#029331:00000000000000003131000000000000
#030341:22
#0313c1:12
#031361:0000000000000000530000000000000000000000000000000000000000000053000000000000000000000000000000000000000000000000000000000000000000000000000000000000000000000000000000000000000000000000000000000000000000000000000000000000000000000000000000000000000000000000
#031371:00230000
#031320:00120000
#031370:0000000000000000000000000000000000000000000000000000000000000000000000000000000053000000000000000000000000000000000000000000005300000000000000000000000000000000000000000000000000000000000000000000000000000000000000000000000000000000000000000000000000000000
#031360:0023
#0313c1:0012
#031361:0000000000000000000000000000000000000000000000000000000000000000000000000000000000000000000000000000000000000000000000000000000000000000000000005300000000000000000000000000000000000000000000530000000000000000000000000000000000000000000000000000000000000000
#031371:00000023
#031320:00000012
#031380:0000000000000053
#032320:23
#032351:13
#0323b1:00000000005300000000000000000000000000000000000000000000000000000000000000000000000000000000000000000000000000000000000000000000
#0333b1:23
#033380:13
#033320:00000000005300000000000000000000000000000000000000000000000000000000000000000000000000000000000000000000000000000000000000000000
#034320:23
#034351:13
#0343b1:000000000000000000000000000000530000000000000000000000000000000000000000000000000000000000000000000000000000000000000000000000000000000000000000000000000000000000000000000000000000000000000000000000000000000000000000000000000000000000000000000000000000000000000000000000000000000000000000000000000000000000000000000000000000000000000000000000000000000053000000000000000000000000000000
#035351:29
#035320:132900000000000000000000
#0353b1:001300000000000000000000
#035351:002900000000
#035320:000013290000000000000000
#0353b1:00130000
#035351:002900
#035320:000000001329000000000000
#0353b1:000000000013000000000000
#035321:002c
#036371:1323
#036321:00530000
#036360:00130023
#0363b0:0053
#037360:1323
#0373b0:00530000
#037371:00130023
#037321:0053
#038371:1323
#038321:00530000
#038360:00130023
#0383b0:0053
#0433c0:0012
#043360:00000022
#045360:180000000000000000000000000000000000000000000000000000000000000000000000000000000000000000000000000000000000000000000058000000000000000000000000000000000000000000000000000000000000000000000000000000000000000000000000000000000000000000000000000000000000000000000000000000000000000000000000000000000000000000000000000000000000000000000000000000000000000000000000000000000000000000000000000000000000000000000000000000000000000000000000000000000000000000000000000000000000000000000000000000000000000000000000000000000000000000000000000000000000000000000000000000000000000000000000000000000000000000000000000000000000000000000000000000000000000000000000000000000000000000000000000000000000000000000000000000000000000000000000000000000000000000000000000000000000000000000000000000000000000000000000000000000000000000000000000000000000000000000000005800000000000000000000000000000000000000000000000000000000000000000000000000000000000000000000000000000000000000000058340000000000000000000000000000000000000000000000000000000000000000000000000000000000000000000000000000000000000000000054000000000000000000000000000000000000000000000000000000000000000000000000000000000000000000000000000000000000000000000000000000000000000000000000000000000000000000000000000000000000000000000000000000000000000000000000000000000000000000000000000000000000000000000000000000000000000000000000000000000000000000000000000000000000000000000000000000000000000000000000000000000000000000000000000000000000000000000000000000000000000000000000000000000000000000000000000000000000000000000000000000000000000000000000000000000000000000000000000000000000000000000000000000000000000000000000000000000000000000000000000000000000000000000000000000000000000000000000000000000000000000000000000000000000000000000000000000000000000000000000000000000000000000000000000000000000000000000000000000000000000000000000000000000000000000000000000000000000000000000000
#045320:0000000000000000000000000000000000000000000000000000000000000000000000000000000000000000000000000000000000000000000000005c00000000000000000000000000000000000000000000000000000000000000000000000000000000000000000000000000000000000000000000000000000000000000000000000000000000000000000000000000000000000000000000000000000000000000000000000000000000000000000000005c58000000000000000000000000000000000000000000000000000000000000000000000000000000000000000000000000000000000000000000583400000000000000000000000000000000000000000000000000000000000000000000000000000000000000000000000000000000000000000000545c00000000000000000000000000000000000000000000000000000000000000000000000000000000000000000000000000000000000000000000000000000000000000000000000000000000000000000000000000000000000000000000000000000000000000000000000000000000000000000000005c00000000000000000000000000000000000000000000000000000000000000000000000000000000000000000000000000000000000000000000000000000000000000000000000000000000000000000000000000000000000000000000000000000000000000000000000000000000000000000000005c00000000000000000000000000000000000000000000000000000000000000000000000000000000000000000000000000000000000000000000000000000000000000000000000000000000000000000000000000000000000000000000000000000000000000000000000000000000000000000000005c5800000000000000000000000000000000000000000000000000000000000000000000000000000000000000000000000000000000000000000000280000000000000000000000000000000000000000000000000000000000000000000000000000000000000000000000000000000000000000000000000000000000000000000000000000000000000000000000000000000000000000000000000000000000000000000000000000000000000000000000000000000000000000000000000000000000000000000000000000000000000000000000000000000000000000000000000000000000000000000000000000000000000000000000000000000000000000000000000000000000000000000000000000000000000000000000000000000000000000000000
#0463b0:135353535353535353535353230000000000000000000000000000000000000000000000000000000000000000000000
#0463a0:005300530053005300530053005300530053005300530053000000000000000000000000000000000000000000000000000000000000000000000000000000000000000000000000000000000000000000000000000000000000000000000000
#046350:000000000000000000000000000000000000135353535353535353535353230000000000000000000000000000000000
#046340:000000000000000000000000000000000000000000000000000000000000000000000000005300530053005300530053005300530053005300530053000000000000000000000000000000000000000000000000000000000000000000000000
#047380:16
#047320:0026000000000000
#047380:00000000000000000000001600000000000000000000000000000000000000000000000000000000000000000000000000000000000000000000000000000000
#047320:00000000000000000000000000000000000000260000000000000000000000000000000000000000000000000000000000000000000000000000000000000000
#047380:0000001600002600
#047320:0056
#049320:1800000000000000000000000000000000000000000000000000000000000000000000000000000000000000000000000000000000000000000000585c00000000000000000000000000000000000000000000000000000000000000000000000000000000000000000000000000000000000000000000000000000000000000000000000000000000000000000000000000000000000000000000000000000000000000000000000000000000000000000000005c00000000000000000000000000000000000000000000000000000000000000000000000000000000000000000000000000000000000000000000000000000000000000000000000000000000000000000000000000000000000000000000000000000000000000000000000000000000000000000000005c00000000000000000000000000000000000000000000000000000000000000000000000000000000000000000000000000000000000000000000000000000000000000000000000000000000000000000000000000000000000000000000000000000000000000000000000000000000000000000000005c58000000000000000000000000000000000000000000000000000000000000000000000000000000000000000000000000000000000000000000580000000000000000000000000000000000000000000000000000000000000000000000000000000000000000000000000000000000000000000000005c00000000000000000000000000000000000000000000000000000000000000000000000000000000000000000000000000000000000000000000000000000000000000000000000000000000000000000000000000000000000000000000000000000000000000000000000000000000000000000000005c0000000000000000000000000000000000000000000000000000000000000000000000000000000000000000000000000000000000000000000000000000000000000000000000000000000000000000000000000000000000000000000000000000000000000000000000000000000000000000000000000000000000000000000000000000000000000000000000000000000000000000000000000000000000000000000000000000000000000000000000000000000000000000000000000000000000000000000000000000000000000000000000000000000000000000000000000000000000000000000000000000000000000000000000000000000000000000000000000000000000000000000000000000000000000000000000000000000000000000000000
#049360:000000000000000000000000000000000000000000000000000000000000000000000000000000000000000000000000000000000000000000000000000000000000000000000000000000000000000000000000000000000000000000000000000000000000000000000000000000000000000000000000000000000000000000000000000000000000000000000000000000000000000000000000000000000000000000000000000000000000000000000000005800000000000000000000000000000000000000000000000000000000000000000000000000000000000000000000000000000000000000000058000000000000000000000000000000000000000000000000000000000000000000000000000000000000000000000000000000000000000000000000000000000000000000000000000000000000000000000000000000000000000000000000000000000000000000000000000000000000000000000000000000000000000000000000000000000000000000000000000000000000000000000000000000000000000000000000000000000000000000000000000000000000000000000000000000000000000000000000000000000000000000000000000000000000000000000000000000000000000000000000340000000000000000000000000000000000000000000000000000000000000000000000000000000000000000000000000000000000000000000054000000000000000000000000000000000000000000000000000000000000000000000000000000000000000000000000000000000000000000000000000000000000000000000000000000000000000000000000000000000000000000000000000000000000000000000000000000000000000000000000005800000000000000000000000000000000000000000000000000000000000000000000000000000000000000000000000000000000000000000000280000000000000000000000000000000000000000000000000000000000000000000000000000000000000000000000000000000000000000000000000000000000000000000000000000000000000000000000000000000000000000000000000000000000000000000000000000000000000000000000000000000000000000000000000000000000000000000000000000000000000000000000000000000000000000000000000000000000000000000000000000000000000000000000000000000000000000000000000000000000000000000000000000000000000000000000000000000000000000000000
#0493a0:000000000000000000000000000000000000000000000000000000000000000000000000000000000000000000000000000000000000000000000000000000000000000000000000000000000000000000000000000000000000000000000000000000000000000000000000000000000000000000000000000000000000000000000000000000000000000000000000000000000000000000000000000000000000000000000000000000000000000000000000000000000000000000000000000000000000000000000000000000000000000000000000000000000000000000000000000000000000000000000000340000000000000000000000000000000000000000000000000000000000000000000000000000000000000000000000000000000000000000000054000000000000000000000000000000000000000000000000000000000000000000000000000000000000000000000000000000000000000000000000000000000000000000000000000000000000000000000000000000000000000000000000000000000000000000000000000000000000000000000000000000000000000000000000000000000000000000000000000000000000000000000000000000000000000000000000000000000000000000000000000000000000000000000000000000000000000000000000000000000000000000000000000000000000000000000000000000000000000000000000000000000000000000000000000000000000000000000000000000000000000000000000000000000000000000000000000000000000000000000000000000000000000000000000000000000000000000000000000000000000000000000000000000000000000000000000000000000000000000000000000000000000000000000000000000000000000000000000000000000000000000000000000000000000000000000000000000000000000000000000000000000000000000000000000000000000000000000000000000000000000000000000000000000000000000000000000000000000000000000000000000000000000000000000000000000000000000000000000000000000000000000000000000000000000000000000000000000000000000000000000000000000000000000000000000000000000000000000000000000000000000000000000000000000000000000000000000000000000000000000000000000000000000000000000000000000000000000000000000000000000000000000000000000000000000000000000000000000000000000000
#050320:135353535353535353535353230000000000000000000000000000000000000000000000000000000000000000000000
#050330:005300530053005300530053005300530053005300530053000000000000000000000000000000000000000000000000000000000000000000000000000000000000000000000000000000000000000000000000000000000000000000000000
#050380:000000000000000000000000000000000000135353535353535353535353230000000000000000000000000000000000
#050390:000000000000000000000000000000000000000000000000000000000000000000000000005300530053005300530053005300530053005300530053000000000000000000000000000000000000000000000000000000000000000000000000
#051320:16
#051380:0026000000000000
#051320:00000000000000000000001600000000000000000000000000000000000000000000000000000000000000000000000000000000000000000000000000000000
#051380:00000000000000000000000000000000000000260000000000000000000000000000000000000000000000000000000000000000000000000000000000000000
#051320:0000001600002600
#051380:0056
#052320:13
#052380:0053000000000000
#053320:23
#053351:13
#0533b1:0053000000000000
#054361:23
#054320:14
#054380:0054000000000000
#055320:00240000
#0553c0:0000000000000000000000000000000000000000000000001232323200323232
#055360:0000000000000032
#0563c0:22
#056321:13330033
#056351:003300
#056381:000000000033000000000000
#0563b1:0033
#057381:23
#060371:00170000
#0613c1:00520000
#0623c1:22
#060350:00000012
#061350:22
#061380:000000123232220000000000
#061320:000000000000000000123232
#062320:22
#062380:00000012
#063380:32003222
#063320:00320000
#065360:12220000
#065380:00001222
#0663c0:12220000
#067340:12
#067380:000053000000000000000000000000000000000000000000000000000000000000000000000000000000000000000000000000000000000000000000000000000000000000000000000000000000000000000000000000000000000000000000000000000000000000000000000000000000000000000000000000000000000000000000000000000000000000000000000000000000000000000000000000000000000000000000000000000000000000000000000000000000000000000000000000000000000000000000000000000000000000000000000000000000000000000000000000000000000000000000000000000000000000000000000000000000000000000000000000000000000000000000000000000000000000000000000000000000000000000000000000000000000000000000000000000000000000000000000000000000000000000000000000000000000000000000000000000000000000000000000000000000000000000000000000000000000000000000000000000000000000000000000000000000000000000000000000000000000000000000000000000000000000000000000000000000000000000000000000000000000000000000000000000000000000000000000000000000000000000053000000000000000000000000000000000000000000000000000000000000000000000000000000000000000000000000000000000000000000000000000000000000000000000000000000000000000000000000000000000000000000000000000000000000000000000000000000000000000000000000000000000000000000000000000000000000000000000000000000000000000000000000000000000000000000000000000000000000000000000000000000000000000000000000000000000000000000000000000000000000000000000000000000000000000000000000000000000000000000000000000000000000000000000000000000000000000000000000000000000000000000000000000000000000000000000000000000000000000000000000000000000000000000000000000000000000000000000000000000000000000000000000000000000000000000000000000000000000000000000000000000000000000000000000000000000000000000000000000000000000000000000000000000000000000000000000000000000000000000000000000000000000000000000000000000000000000000000000000000000000000000000000000000000000000000000000000000000000000000000000330000000000000000000000000000000000000000000000000000000000000000000000000000000000000000000000000000000000000000000000000000000000000000000000000000000000000000000000000000000000000000000000000000000000000000000000000000000000000000000000000000000000000000000000000000000000000000000000000000000000000000000000000000000000000000000000000000000000000000000000000000000000000000000000000000000000000000000000000000000000000000000000000000000000000000000000000000000000000000000000000000000000000000000000000000000000000000000000000000000000000000000000000000000000000000000000000000000000000000000000000000000000000000000000000000000000000000000000000000000000000000000000000000000000000000000000000000000000000000000000000000000000000000000000000000000000000000000000000000000000000000000000000000000000000000000000000000000000000000000000000000000000000000000000000000000000000000000000000000000000000000000000000000000000000000000000000000000000000000000000230000000000000000000000000000000000000000000000000000000000000000000000000000000000000000000000000000000000000000000000000000000000000000000000000000000000000000000000000000000000000000000000000000000000000000000000000000000000000000000000000000000000000000000000000000000000000000000000000000000000000000000000000000000000000000000000000000000000000000000000000000000000000000000000000000000000000000000000000000000000000000000000000000000000000000000000000000000000000000000000000000000000000000000000000000000000000000000000000000000000000000000000000000000000000000000000000000000000000000000000000000000000000000000000000000000000000000000000000000000000000000000000000000000000000000000000000000000000000000000000000000000000000000000000000000000000000000000000000000000000000000000000000000000000000000000000000000000000000000000000000000000000000000000000000000000000000000000000000000000000000000000000000000000000000000000000000000000000000000000000
#067330:000000000000000000000000000000000000000000000000000000000000000000000000000000000000000000000000000000000000000000000000000000000000000000000000000000000000000000000000000000000000000000000000000000000000000000000000000000000000000000000000000000000000000000000000000000000000000000000000000000000000000000000000000000000000000000000000000000000000000000000000000000000000000000000000000000000000000000000000000000000000000000000000000000000000000000000000000000000000000000000000000000000000000000000000000000000000000000000000000000000000000000000000000000000000000000000000000000000000000000000000000000000000000000000000000000000000000000000000000000000000000000000000000000000000000000000000000000000000000000000000000000000000000000000000000000000000000000000000000000000000000000000000000000000000000000000000000000000000000000000000000000000000000000000000000000000000000000000000000000000000000000000000000000000000000000000000000000000000000000000000330000000000000000000000000000000000000000000000000000000000000000000000000000000000000000000000000000000000000000000000000000000000000000000000000000000000000000000000000000000000000000000000000000000000000000000000000000000000000000000000000000000000000000000000000000000000000000000000000000000000000000000000000000000000000000000000000000000000000000000000000000000000000000000000000000000000000000000000000000000000000000000000000000000000000000000000000000000000000000000000000000000000000000000000000000000000000000000000000000000000000000000000000000000000000000000000000000000000000000000000000000000000000000000000000000000000000000000000000000000000000000000000000000000000000000000000000000000000000000000000000000000000000000000000000000000000000000000000000000000000000000000000000000000000000000000000000000000000000000000000000000000000000000000000000000000000000000000000000000000000000000000000000000000000000000000000000000000000000000000053000000000000000000000000000000000000000000000000000000000000000000000000000000000000000000000000000000000000000000000000000000000000000000000000000000000000000000000000000000000000000000000000000000000000000000000000000000000000000000000000000000000000000000000000000000000000000000000000000000000000000000000000000000000000000000000000000000000000000000000000000000000000000000000000000000000000000000000000000000000000000000000000000000000000000000000000000000000000000000000000000000000000000000000000000000000000000000000000000000000000000000000000000000000000000000000000000000000000000000000000000000000000000000000000000000000000000000000000000000000000000000000000000000000000000000000000000000000000000000000000000000000000000000000000000000000000000000000000000000000000000000000000000000000000000000000000000000000000000000000000000000000000000000000000000000000000000000000000000000000000000000000000000000000000000000000000000000000000000000000000000000000000000000000000000000000000000000000000000000000000000000000000000000000000000000000000000000000000000000000000000000000000000000000000000000000000000000000000000000000000000000000000000000000000000000000000000000000000000000000000000000000000000000000000000000000000000000000000000000000000000000000000000000000000000000000000000000000000000000000000000000000000000000000000000000000000000000000000000000000000000000000000000000000000000000000000000000000000000000000000000000000000000000000000000000000000000000000000000000000000000000000000000000000000000000000000000000000000000000000000000000000000000000000000000000000000000000000000000000000000000000000000000000000000000000000000000000000000000000000000000000000000000000000000000000000000000000000000000000000000000000000000000000000000000000000000000000000000000000000000000000000000000000000000000000000000000000000000000000000000000000000000000000000000000000000000000000000000000000000000
#0673a1:120000000000000000000000000000000000000000000000000000000000000000000000000000000000000000000000000000000000000000000000000000000000000000000000000000000000000000000000000000000000000000000000000000000000000000000000000000000000000000000000000000000000000000000000000000000000000000000000000000000000000000000000000000000000000000000000000000000000000000000000000000000000000000000000000000000000000000000000000000000000000000000000000000000000000000000000000000000000000000000000000000000000000000000000000000000000000000000000000000000000000000000000000000000000000000000000000000000000000000000000000000000000000000000000000000000000000000000000000000000000000000000000000000000000000000000000000000000000000000000000000000000000000000000000000000000000000000000000000000000000000000000000000000000000000000000000000000000000000000000000000000000000000000000000000000000000000000000000000000000000000000000000000000000000000000000000000000000000000000000000330000000000000000000000000000000000000000000000000000000000000000000000000000000000000000000000000000000000000000000000000000000000000000000000000000000000000000000000000000000000000000000000000000000000000000000000000000000000000000000000000000000000000000000000000000000000000000000000000000000000000000000000000000000000000000000000000000000000000000000000000000000000000000000000000000000000000000000000000000000000000000000000000000000000000000000000000000000000000000000000000000000000000000000000000000000000000000000000000000000000000000000000000000000000000000000000000000000000000000000000000000000000000000000000000000000000000000000000000000000000000000000000000000000000000000000000000000000000000000000000000000000000000000000000000000000000000000000000000000000000000000000000000000000000000000000000000000000000000000000000000000000000000000000000000000000000000000000000000000000000000000000000000000000000000000000000000000000000000000000053000000000000000000000000000000000000000000000000000000000000000000000000000000000000000000000000000000000000000000000000000000000000000000000000000000000000000000000000000000000000000000000000000000000000000000000000000000000000000000000000000000000000000000000000000000000000000000000000000000000000000000000000000000000000000000000000000000000000000000000000000000000000000000000000000000000000000000000000000000000000000000000000000000000000000000000000000000000000000000000000000000000000000000000000000000000000000000000000000000000000000000000000000000000000000000000000000000000000000000000000000000000000000000000000000000000000000000000000000000000000000000000000000000000000000000000000000000000000000000000000000000000000000000000000000000000000000000000000000000000000000000000000000000000000000000000000000000000000000000000000000000000000000000000000000000000000000000000000000000000000000000000000000000000000000000000000000000000000000000000000000000000000000000000000000000000000000000000000000000000000000000000000000000000000000000000000000000000000000000000000000000000000000000000000000000000000000000000000000000000000000000000000000000000000000000000000000000000000000000000000000000000000000000000000000000000000000000000000000000000000000000000000000000000000000000000000000000000000000000000000000000000000000000000000000000000000000000000000000000000000000000000000000000000000000000000000000000000000000000000000000000000000000000000000000000000000000000000000000000000000000000000000000000000000000000000000000000000000000000000000000000000000000000000000000000000000000000000000000000000000000000000000000000000000000000000000000000000000000000000000000000000000000000000000000000000000000000000000000000000000000000000000000000000000000000000000000000000000000000000000000000000000000000000000000000000000000000000000000000000000000000000000000000000000000000000000000000000000000000000000
#067351:000053000000000000000000000000000000000000000000000000000000000000000000000000000000000000000000000000000000000000000000000000000000000000000000000000000000000000000000000000000000000000000000000000000000000000000000000000000000000000000000000000000000000000000000000000000000000000000000000000000000000000000000000000000000000000000000000000000000000000000000000000000000000000000000000000000000000000000000000000000000000000000000000000000000000000000000000000000000000000000000000000000000000000000000000000000000000000000000000000000000000000000000000000000000000000000000000000000000000000000000000000000000000000000000000000000000000000000000000000000000000000000000000000000000000000000000000000000000000000000000000000000000000000000000000000000000000000000000000000000000000000000000000000000000000000000000000000000000000000000000000000000000000000000000000000000000000000000000000000000000000000000000000000000000000000000000000000000000000000000053000000000000000000000000000000000000000000000000000000000000000000000000000000000000000000000000000000000000000000000000000000000000000000000000000000000000000000000000000000000000000000000000000000000000000000000000000000000000000000000000000000000000000000000000000000000000000000000000000000000000000000000000000000000000000000000000000000000000000000000000000000000000000000000000000000000000000000000000000000000000000000000000000000000000000000000000000000000000000000000000000000000000000000000000000000000000000000000000000000000000000000000000000000000000000000000000000000000000000000000000000000000000000000000000000000000000000000000000000000000000000000000000000000000000000000000000000000000000000000000000000000000000000000000000000000000000000000000000000000000000000000000000000000000000000000000000000000000000000000000000000000000000000000000000000000000000000000000000000000000000000000000000000000000000000000000000000000000000000000000000330000000000000000000000000000000000000000000000000000000000000000000000000000000000000000000000000000000000000000000000000000000000000000000000000000000000000000000000000000000000000000000000000000000000000000000000000000000000000000000000000000000000000000000000000000000000000000000000000000000000000000000000000000000000000000000000000000000000000000000000000000000000000000000000000000000000000000000000000000000000000000000000000000000000000000000000000000000000000000000000000000000000000000000000000000000000000000000000000000000000000000000000000000000000000000000000000000000000000000000000000000000000000000000000000000000000000000000000000000000000000000000000000000000000000000000000000000000000000000000000000000000000000000000000000000000000000000000000000000000000000000000000000000000000000000000000000000000000000000000000000000000000000000000000000000000000000000000000000000000000000000000000000000000000000000000000000000000000000000000000230000000000000000000000000000000000000000000000000000000000000000000000000000000000000000000000000000000000000000000000000000000000000000000000000000000000000000000000000000000000000000000000000000000000000000000000000000000000000000000000000000000000000000000000000000000000000000000000000000000000000000000000000000000000000000000000000000000000000000000000000000000000000000000000000000000000000000000000000000000000000000000000000000000000000000000000000000000000000000000000000000000000000000000000000000000000000000000000000000000000000000000000000000000000000000000000000000000000000000000000000000000000000000000000000000000000000000000000000000000000000000000000000000000000000000000000000000000000000000000000000000000000000000000000000000000000000000000000000000000000000000000000000000000000000000000000000000000000000000000000000000000000000000000000000000000000000000000000000000000000000000000000000000000000000000000000000000000000000000000000
#0683c1:12520000
#068391:0052
#068361:00000052
#069361:22
#069320:12520000
#069350:0052
#069380:00000052
#070380:22
#0733d0:0000000000000011
#0743d0:00310000
#0743c0:0000000000000000003100000000000000000000000000000000000000000000
#0743b0:00000000003100000000000000000000
#0743a0:0000000000000000000000310000000000000000000000000000000000000000
#074390:0000003100000000
#074380:0000000000000000000000000031000000000000000000000000000000000000
#074370:00000000000000310000000000000000
#074360:0000000000000000000000000000003100000000000000000000000000000000
#074350:0031
#074320:0000000000000000000000000000000000310000000000000000000000000000
#075320:21
#075370:0000001200000000
#077330:0000002a
#079320:0000000000000000000000000000000000000000000012000000000000000000000000000000000000000000000000000000000000000000000000000000000000000000000000000000000000000000000000000000000000000000000000000000000000000000003200000000000000320000000000000032000000000000
#080350:32323200000000000000000000000000
#080390:0000000000000000000000000000000000000000000000320000000000000000000000000000000000000000000000000000000000000000000022000000000000000000000000000000000000000000000000000000000000000000000000000000000000000000000000000000000000000000000000000000000000000000
#079391:000000000000000000000000000000000000000000000000000000000000000000000000000000000000000000000000000000000000000000000000000000000000000000000000000000000000000000000000000000000000000000000000000000000000000000000000000000000000000000000000000000000000000000000000000000000000000000000000000000000000000000000000000000000000000000000000000000000000000000000000000000000000000000000000000000000000000000000000000000000000000000000000000000000000000000000000000000000000000000000000120000000000000000000000000000000000000000000000000000000000000000000000000000000000000000000000000000000000000000000000000000000000000000000000000000000000000000000000000000000000000000000000000000000000000000000000000000000000000000000000000000000000000000000000000000000000000000000052000000000000000000000000000000000000000000000000000000000000000000000000000000000000000000000000000000000000000000000000000000000000000000000000000000000000000000000000000000000000000000000000
#079351:000000000000000000000000000000000000000000000000000000000000000000000000000000000000000000000000000000000000000000000000000000000000000000000000000000000000000000000000000000000000000000000000000000000000000000000000000000000000000000000000000000000000000000000000000000000000000000000000000000000000000000000000000000000000000000000000000000000000000000000000000000000000000000000000000000000000000000000000000000000000000000000000000000000000000000000000000000000000000000000000000000000000000000000000000000000000000000000000000000000000000000000000000000000000000000000000000000000000000000000000000000000000000000000000000000000000000000000000000000000000000000000000000000000000000000000000000000000000000000000000000000000000000000000000000000000000000000000000000000000000000000000000000000000000000000000000000000000000000000000000000000000000000000000000000000000000000000000000000000000000000000000000000000000000000000000000000000000000000000000000000000000000000000000000000000000000000000000000000000000000000000000000000000000000000000000000000000000000000000000000000000000000000000000000000000000000000000000000000000000000000000000000000000000000000000000000000000000000000000000000000000000000000000000000000000000000000000000000000000000000000000000000000000000000000000000000000000000000000000000000000000000000000000000000000000000000000000000000000000000000000000000000000000000000000000000000000000000000000000000000000000000000000000000000000000000000000000000000000000000000000000000000000000000000000000000000000000000000000000000000000000000000000000000000000000000000000000000000000000000000000000000000000000000000000000000000000000000000000000000000000000000000000000000000000000000000000000000000000000000000000000000000000000000000000000000000000000000000000000000000000000000000000000000000000000000000000000000000000000000000000000000000000000000000000000000000000000000000000000000000000000000000000000000000000000000000000000000000000000000000000000000000000000000000000000000000000000000000000000000000000000000000000000000000000000000000000000000000000000000000000000000000000000000000000000000000000000000000000000000000000000000000000000000000000000000000000000000000000000000000000000000000000000000000000000000000000000000000000000000000000000000000000000000000000000000000000000000000000000000000000000000000000000000000000000000000000000000000000000000000000000000000000000000000000000000000000000000000000000000000000000000000000000000000000000000000000000000000000000000000000000000000000000000000000000000000000000000000000000000000000000000000000000000000000000000000000000000000000000000000000000000000000000000000000000000000000000000000000000000000000000000000000000000000000000000000000000000000000000000000000000000000000000000000000000000000000000000000000000000000000000000000000000000000000000000000000000000000000000000000000000000000000000000000000000000000000000000000000000000000000000000000000000000000000000000000000000000000000000000000000000000000000000000000000000000000000000000000000000000000000000005600000000000000000000000000000000000000000000000000000000000000000000000000000056320000000000000000000000000000000000000000000000000000000000000000000000000000000000000000000000000000000000000000000000000000000000000000000000000000000000000000000000000000000000000000000000000000000000000000000000000000000000000000000000000000000000000000000000000000000000000000000000000000000000000000000000000000000000000000000000000000000000000000000000000000000000000000000000000000000000000000000000000000000000000000000000000000000000000000000000000000000000000000000000000000000000000000000000000000000000000000000000000000000000000000000000000000000000000000000000000000000000000000000000000000000000000000000000000000000000000000000000000000000000000000000000000000000000000000
#0803c1:0000000000000000000000000000000000000000000000320000000000000000000000000000000000000000000000000000000000000000000022000000000000000000000000000000000000000000000000000000000000000000000000000000000000000000000000000000000000000000000000000000000000000000
#083381:13
#083321:00530000230000000000000000000000
#0833b1:0000001300000000
#083351:00000000000000530000230000000000
#084381:16
#084321:0026000000000000
#084321:00000000000000000000001600000000000000000000000000000000000000000000000000000000000000000000000000000000000000000000000000000000
#084381:00000000000000000000000000000000000000260000000000000000000000000000000000000000000000000000000000000000000000000000000000000000
#084381:0000001600002600
#084321:0056
#085361:14540000545400005454000054540000
#085321:00005454000000000000545400000000
#0853a1:00000000000054540000000000005454
#086321:00540000000000000000000000000000
#086381:00530000
#086331:00000000005400000000000000000000
#086391:0053
#086341:00000000000000000054000000000000
#0863a1:00000053
#086351:00000000000000000000000000540000
#0873b1:23
#087350:13
#0873b0:00530000230000000000000000000000
#087320:0000001300000000
#087380:00000000000000530000230000000000
#088320:16
#088380:0026000000000000
#088380:00000000000000000000001600000000000000000000000000000000000000000000000000000000000000000000000000000000000000000000000000000000
#088320:00000000000000000000000000000000000000260000000000000000000000000000000000000000000000000000000000000000000000000000000000000000
#088320:0000001600002600
#088380:0056
#0893b0:13
#089350:0053000000000000
#0903b0:23
#090381:13
#090321:0053000000000000
#091371:23
#0913a0:14
#091340:0054000000000000
#0923a0:00240000
#092320:0000000000000000000000000000000000000000000000001232323200323232
#092380:0000000000000032
#093320:22
#0933b1:13
#093361:005300000000230000000000000000000000000000000000
#093321:0013
#093371:000000000000000000000000005300000000230000000000
#0943b1:13
#094361:005300000000230000000000000000000000000000000000
#094321:0013
#094371:000000000000000000000000005300000000230000000000
#0953a1:14240000
#095341:0054000000000000
#095321:00001424
#095381:0000000000540000
#096321:0013
#096361:000000000000005200000000
#097361:22
#0963b0:0013
#096380:000000000000005200000000
#097380:22
#097330:00152500
#097320:0000000000000000000000000000000000000000000000000000000000000000005500550055005500550055005500550055005500550055005500550055005500000000000000000000000000000000000000000000000000000000000000000000000000000000000000000000000000000000000000000000000000000000
#097340:00000000000000000000000000000000005555555555555555555555555555550000000000000000000000000000000000000000000000000000000000000000
#097381:00152500
#097371:0000000000000000000000000000000000000000000000000000000000000000005500550055005500550055005500550055005500550055005500550055005500000000000000000000000000000000000000000000000000000000000000000000000000000000000000000000000000000000000000000000000000000000
#097391:00000000000000000000000000000000005555555555555555555555555555550000000000000000000000000000000000000000000000000000000000000000
#099321:122200000000
#0993a0:14
#099340:002400000000
#099320:0000000000000000000000000000000000000000000000001454545454545454
#099330:00000000000000000000000000000000000000000000000000000000000000000000000000000000000000000000000000540054005400540054005400540054
#100320:24
#1003a1:1454545424000000000000000000000000000000000000000000000000000000
#100391:00540054005400540000000000000000000000000000000000000000000000000000000000000000000000000000000000000000000000000000000000000000
#100360:0000000014545454240000000000000000000000000000000000000000000000
#100370:00000000000000000054005400540054000000000000000000000000000000000000000000000000000000000000000000000000000000000000000000000000
#1003a1:0000000000000000145454545454545424000000000000000000000000000000
#100391:00000000000000000000000000000000005400540054005400540054005400540000000000000000000000000000000000000000000000000000000000000000
#100320:0000000000000000000000001454545454545454240000000000000000000000
#100330:00000000000000000000000000000000000000000000000000540054005400540054005400540054000000000000000000000000000000000000000000000000
#100360:00000000000000000000000000000000000000000000000000000000000000000000000000000000000000000000000014000000005500000000000000000000
#100380:00000000000000000000000000000000000000000000000000000000000000000000000000000000000000000000000000550000000000000056005400000056
#100340:0000000000000000000000000000000000000000000000000055000055000055
#100370:00000000000000000000000000000000000000000000000000000000000000000000000000000000000000000000000000000055000000550000000000560000
#100320:00000000000000000000000000560057
#100330:0000000000000000000000000000000000000000000000000000005500560000
#101360:24
#101380:0013000000000000
#101360:003300000000
#101340:000000000033000000000000000000000000000000000000
#1013b0:0000002300000000
#101350:0000000000130000
#101370:000033
#101390:000000000000000000000000000000000033000000000000
#101320:0000000000000023
#102380:0013000000000000
#102360:003300000000
#102340:000000000033000000000000000000000000000000000000
#1023b0:0000002300000000
#102350:0000000000130000
#102370:000033
#102390:000000000000000000000000000000000033000000000000
#102320:0000000000000023
#104370:172700000000
#104390:000000150025000000000000
#1043b0:000000132300
#1043b0:00000013
#104350:0000000000000054
#1053a0:24
#105361:14540000545400005454000054540000
#1053a1:00005454000000000000545400000000
#105321:00000000000054540000000000005454
#1063a1:00540000000000000000000000000000
#106351:00530000
#106391:00000000005400000000000000000000
#106341:0053
#106381:00000000000000000054000000000000
#106331:00000053
#106371:00000000000000000000000000540000
#107321:23
#108321:1c2c00000000
#108371:005200000000000000000000
#108391:00000000000015353500353525000000
#108321:00000000000000000035000000000000
#108320:00000000000015353500353525000000
#108390:00000000000000000035000000000000
#1093b0:0000001300000000
#109350:0000000000230000
#1103b0:13230000
#110380:00330033000000000000000000000000
#110360:0033000000000000
#110371:00132300
#110341:00000000003300330000000000000000
#110321:0000003300000000
#110371:0000000000000013
#1113c1:00000000000000000052000000000000
#111321:0000002c
#1153b1:0000000000130000
#1153a1:000033
#115391:000000000000000000000000000000000033000000000000
#115381:00000033
#115371:000000000000000000000000000000000000003300000000
#115361:000000000033
#115351:0000000000000033
#115341:000000000000000000000033
#115331:000000000000000000000000000000000000000000000033
#116321:23
#119341:14
#119371:0034000000000000000000000000000000000000000000000000000000000000
#1193a1:00340000240000000000000000000000
#119381:0000001400000000
#119351:0000000000000000000000000034000000000000000000000000000000000000
#119321:00000000000000340000240000000000
#119381:000000000000000000000000000000000000000000000000000000000000000000000000000000000000000000000000000000000000000000000000000000000000000000000000000000000000000000000000000000000000000000000000000000000000000000000000000000000000000000000000000000000000000000000000000000000000000000000000160000560000560000560000560000560000560000560000560000560000560026000000000000000000000000000000
#119361:0000000000000000000000000000000000000000000000000000000000000000000000000000000000000000000000000000000000000000000000000000000000000000000000000000000000000000000000000000000000000000000000000057005700570057005700570057005700570057000000000000000000000000
#119320:000000000000000000000000000000000000000000000000000000000000000000000000000000000000000000000000000000000000000000000000000000000000000000000000000000000000000000000000000000000000000000000000000000000000000000000000000000000000000000000000000000000000000000000000000000000000000000000000000000000000000000000000000000000000000000000000000000000000000016000056000056000056000056000056
#119330:000000000000000000000000000000000000000000000000000000000000000000000000000000000000000000000000000000000000000000000000000000000000000000000000000000000000000000000000000000000000000000000000000000000000000000000000000000000000000000000000000000000000000000000000000000000000000000000000000000000000000000000000000000000000000000000000000000000000000000000000000000000000000000000000000000000000000000000000000000000000000000000000000000000000000000000000000000000000000000000000000000000000000000000000000000000000000000000000000000000000000000000000000000000000000000000000000000000000000000000000000000000000000000000000000000000000000000000000000000000000000000000000000000000000000000000000000000000000005700000000005700000000005700000000005700000000005700000000
#120330:005700000000005700000000005700000000005700000000005700000000000000000000000000000000000000000000000000000000000000000000000000000000000000000000000000000000000000000000000000000000000000000000000000000000000000000000000000000000000000000000000000000000000000000000000000000000000000000000000000000000000000000000000000000000000000000000000000000000000000000000000000000000000000000000000000000000000000000000000000000000000000000000000000000000000000000000000000000000000000000000000000000000000000000000000000000000000000000000000000000000000000000000000000000000000000000000000000000000000000000000000000000000000000000000000000000000000000000000000000000000000000000000000000000000000000000000000000000000000000000000000000000000000000000000000000000000000000000000
#120320:000056000056000056000056000056002600000000000000000000000000000000000000000000000000000000000000000000000000000000000000000000000000000000000000000000000000000000000000000000000000000000000000000000000000000000000000000000000000000000000000000000000000000000000000000000000000000000000000000000000000000000000000000000000000000000000000000000000000000000000000000000000000000000000000
#120381:000000000000000000000000000000001600005600005600005600005600005600005600005600005600005600005600000000000000000000000000000000000000000000000000000000000000000000000000000000000000000000000000000000000000000000000000000000000000000000000000000000000000000000000000000000000000000000000000000000000000000000000000000000000000000000000000000000000000000000000000000000000000000000000000
#120361:000000000000000000000000000000000000000000000000000000000000000000000057000000000057000000000057000000000057000000000057000000000057000000000057000000000057000000000057000000000057000000000000000000000000000000000000000000000000000000000000000000000000000000000000000000000000000000000000000000000000000000000000000000000000000000000000000000000000000000000000000000000000000000000000000000000000000000000000000000000000000000000000000000000000000000000000000000000000000000000000000000000000000000000000000000000000000000000000000000000000000000000000000000000000000000000000000000000000000000000000000000000000000000000000000000000000000000000000000000000000000000000000000000000000000000000000000000000000000000000000000000000000000000000000000000000000000000000000
#120321:0022
#120321:00000016
#120381:00000000000000000000000000560000
#123321:26
#120380:0000000000000000000000000000000000000000000000001636003636363636
#120320:00000000000000000000000000360000
#121380:3636363636363636363636363636363636363636363636363636363636363636
#122380:3636363636363636363636363636363636363636363636363636363636363636
#123380:26
