This file was generated by Ched 2.7.0.0.
#TITLE ""
#ARTIST ""
#DESIGNER ""
#DIFFICULTY 0
#PLAYLEVEL
#SONGID ""
#WAVE ""
#WAVEOFFSET 0
#JACKET ""
#REQUEST "ticks_per_beat 480"
#00002: 4
#BPM01: 195
#BPM02: 200
#BPM03: 190
#BPM04: 185
#BPM05: 183
#BPM06: 180
#BPM07: 140
#BPM08: 74
#BPM09: 120
#00008: 01
#04408: 02
#08008: 00000000000000000000000000020000
#06408: 03
#07208: 0400000500000600
#07308: 0007000000000008
#07508: 0000000900000000
#TIL00: ""
#HISPEED 00
#MEASUREHS 00
#00414:1414
#00418:00140000
#01012:00000014
#01115:00000014
#01112:34343400
#01612:14
#01618:0014
#01610:41
#01712:14
#01718:0014
#01814:14
#0181a:0014
#01914:14
#0191a:0014
#02012:14
#02018:0014
#02112:14
#02118:0014
#02214:14
#0221a:0014
#0241a:24140000
#0251a:0000000000140000
#02612:24140000
#02610:41
#03214:00141414
#03218:24
#03313:00151515
#03318:25
#03412:00161616
#03418:26
#04319:0014
#04313:0014
#04414:00140000
#04418:0014
#04412:00000014
#0441a:24
#04410:41
#0451a:14
#04514:00140000
#04518:0014
#04812:14
#04818:00140000
#04814:0014
#0481a:00000014
#04912:14
#04914:0014
#04918:00140000
#0471a:0000001400000000
#04718:14
#04719:00000034000000000000000000000000
#05214:00140014
#05218:0014
#0521a:24
#05313:00140014
#05317:0014
#0531a:24
#05412:00140014
#05416:0014
#0541a:24
#05512:00140000
#05515:0026
#0551a:24
#0651a:0014
#0681a:0014
#0681f:11
#06919:14
#07518:0000001400000000
#07618:00000000000000000000000000000000000000000000000000000000000000000000000000000000001400000000000000000000000000000000000000000000
#07614:14
#07714:0000000000000000001400000000000000000000000000000000000000000000
#08118:00140014
#08114:2414
#08214:14000024
#08218:00140000
#08514:00140000
#08512:00000014
#0851a:14
#08518:0014
#08510:41
#08614:00140000
#08618:14
#0861a:0014
#09818:1414
#09814:00140014
#09918:14
#09914:0014
#1001a:1414
#10012:00140014
#1031a:14
#10312:00140000
#10318:0014
#10314:00000014
#10418:14
#10414:00140000
#1041a:0014
#10412:00000024
#10614:1414
#10618:00140014
#10712:1414
#1071a:00140014
#10812:14
#10918:00140000
#10914:0014
#1091a:00000014
#11012:14
#11018:00140000
#1161a:14140000
#11614:00001414
#11718:14140000
#11712:00001414
#11818:14
#11814:00140000
#1181a:0014
#02712:0000000000140000
#03118:14
#03114:00140000
#0311a:0014
#03112:00000014
#05112:0000001400000000
#05114:14
#05113:00000034000000000000000000000000
#05618:14
#0561a:0014
#05714:14
#05712:0014
#06712:0014
#0641a:14
#06418:0014
#06410:41
#06612:14
#06614:0014
#07018:14
#07019:0014
#08414:0000001400000000
#08412:14
#08413:00000034000000000000000000000000
#08318:0000001400000000
#0831a:14
#0831f:21
#08818:0000001400000000
#0881a:14
#08819:00000034000000000000000000000000
#08714:0000001400000000
#08712:14
#04614:14
#04612:0000001400000000
#05018:14
#0501a:0000001400000000
#08918:00140014
#08914:0014
#08912:24
#09019:00140014
#09015:0014
#09012:24
#0911a:00140014
#09116:0014
#09112:24
#0921a:00140000
#09215:0026
#09212:24
#06314:1414
#06318:00140000
#10518:00140014
#10514:0014
#00119:24
#01219:00000024
#01213:00000024
#01212:34340000
#01419:24
#03013:24
#03019:24
#03518:26
#04014:24
#0401a:0024
#04112:24
#04118:0024
#05818:26
#05812:00000026
#05918:0026
#0951a:24
#09712:00240000
#0971a:00240000
#09710:00410000
#10118:26
#10112:0026
#10218:26
#10212:0026
#12019:00000024
#11912:26000026
#11918:0000002600000000
#0281a:00343400
#02912:00343400
#07212:0000003400003400
#07312:0034000034000000
#04214:00343434
#01155:00000024
#01052:00000064
#02354:00000014
#03558:0016
#05555:0016
#0685a:0024
#06959:54
#08254:00000014
#09454:0014
#09658:0014
#10552:14
#0475a:0000006400000000
#04758:64
#05152:0000005400000000
#05154:54
#05752:0064
#05754:24
#0565a:0064
#05658:24
#06458:0024
#0645a:64
#06652:54
#06654:0024
#07058:24
#07059:0054
#0865a:0014
#04558:0014
#04954:0014
#08454:0000006400000000
#08452:64
#08358:0000005400000000
#0835a:54
#08858:0000005400000000
#0885a:54
#08754:0000006400000000
#08752:64
#04654:64
#04652:0000006400000000
#05058:54
#0505a:0000005400000000
#09255:0016
#11054:000000000014
#001330:00140000
#002330:24
#002390:00140000
#003390:3424
#0053a0:14
#005390:0000003400000000
#005380:00000034
#006380:24
#006320:0000000000140000
#007330:34
#007340:0000003400240000
#0083a0:0000140000340000
#009380:3400003400000000
#0093a0:00000034
#0103a0:00240000
#010320:00000014
#011320:34343400
#011350:00000034
#012320:34342400
#014390:14
#015380:00000026
#023340:1434343434342400
#024340:0000000000140000
#025320:34
#025340:0000002400000000
#026380:0000000000140000
#0273a0:34
#027380:0000002400000000
#0283a0:14343400
#028380:00000024
#029320:14343400
#029340:00000024
#035380:163636363636260000000000
#036340:1424
#036320:00340000
#0373a0:1424
#037380:00340000
#038320:1424
#038340:00340000
#039380:1424
#0393a0:00340000
#042340:14343434
#043320:24
#046340:14000024
#046320:0000003400000000
#047380:14000024
#047390:00000034000000000000000000000000
#0473a0:0000003400000000
#050380:14000024
#0503a0:0000003400000000
#051340:14000024
#051330:00000034000000000000000000000000
#051320:0000003400000000
#056380:14000024
#0563a0:00343400
#057340:14000024
#057320:00343400
#058380:1600002600000000
#058320:00000016
#059320:0026000000000000
#059380:000000000000163636360000
#060380:26
#060330:00140000
#061330:24
#061390:00140000
#062390:3424
#0643a0:14
#064380:0034
#0653a0:24
#066320:14
#066340:0034
#067320:24
#0683a0:1454
#069390:54
#069380:0054
#070380:54
#070390:0054
#0713a0:5424
#072320:1400003400003400
#073320:0034000034000000
#073340:0000000000000034
#074340:00340000
#074320:00000000000000000054000000000000
#075320:24
#0773a0:0000000000000000000000000000000000000000000000000000000000140000
#078380:0000000000000000000000000000000000340000000000000000000000000000
#0793a0:000000000000000000000000000000003400000000000000000000000000000000000000000000000000000000000000000000000000000000000000000000000000000000000000000000000000003400000000000000000000000000000000
#079380:0034
#080380:00000000000000000000000054000000000000000000000000000000002400000000000000000000000000000000000000000000000000000000000000000000
#082340:00001424
#0833a0:14000024
#083380:0000003400000000
#084320:14000024
#084330:00000034000000000000000000000000
#084340:0000003400000000
#087320:14000024
#087340:0000003400000000
#0883a0:14000024
#088390:00000034000000000000000000000000
#088380:0000003400000000
#093320:14
#093340:0034
#094320:34
#094340:0024
#0953a0:14
#095380:0034
#0963a0:34
#096380:0024
#097320:00140024
#0973a1:00140024
#104321:00000014
#105321:24
#108351:0000001600000000
#109351:26
#110341:000000143424
#112381:16000036
#112361:0000003600000000
#113361:0036000000000000
#113381:0026
#114321:16000036
#114341:0000003600000000
#115341:0036000000000000
#115321:0026
#119321:000000000000000000160036
#120321:003600000000260000000000
#120391:00000014
#123381:26
