This file was generated by Ched 2.6.4.0.
#TITLE ""
#ARTIST ""
#DESIGNER ""
#DIFFICULTY 0
#PLAYLEVEL
#SONGID ""
#WAVE ""
#WAVEOFFSET 0
#JACKET ""
#REQUEST "ticks_per_beat 480"
#00002: 4
#BPM01: 192
#00008: 01
#TIL00: ""
#HISPEED 00
#MEASUREHS 00
#00119:14
#00213:14
#00319:14
#00413:14
#0051a:14
#0061a:14
#00714:14
#00814:14
#00918:14
#00910:41
#01018:14
#01112:14
#01212:14
#03818:2616
#03810:41
#03912:1616
#04018:1616
#04212:1616
#04318:1616
#04412:1616
#04618:2616
#04712:1616
#04818:16
#04812:0016
#05012:1616
#05010:41
#05118:1616
#05212:16
#05218:0016
#05418:1616
#05512:1616
#07212:0016
#07218:26
#0721f:21
#07318:16
#07312:0016
#07310:41
#07418:1616
#07612:16
#07618:0016
#07712:16
#07718:0016
#07812:1616
#08012:0016
#08018:26
#08118:16
#08112:0016
#08218:16
#08212:0016
#08412:16
#08418:0016
#08410:41
#08512:16
#08518:0016
#08612:16
#08618:0016
#08818:16
#08812:0016
#08918:16
#08912:0016
#0901a:14
#09118:14
#09212:14
#09314:14
#09418:14
#0951a:14
#09614:14
#09712:14
#0131a:14
#01412:14
#0151a:14
#01612:14
#01718:14
#01814:14
#01918:14
#02014:14
#0211a:14
#02110:41
#02214:14
#0231a:14
#02414:14
#02518:14
#02612:14
#02718:14
#02812:14
#0641f:11
#0293a0:14
#0303a0:24
#031320:14
#032320:24
#033380:14
#034380:24
#035340:14
#036340:24
#041380:1626
#045320:1626
#049380:1626
#053320:1626
#0563a0:14
#0573a0:24
#058340:14
#059340:24
#060380:14
#061380:24
#062320:14
#063320:24
#0643a0:14
#065380:24
#066320:14
#067340:24
#068380:14
#0693a0:24
#070340:14
#071320:24
#075380:1626
#079320:1626
#083380:1626
#087320:1626
#098380:1434
#099380:34003424
