This file was generated by Ched 2.6.4.0.
#TITLE ""
#ARTIST ""
#DESIGNER ""
#DIFFICULTY 0
#PLAYLEVEL
#SONGID ""
#WAVE ""
#WAVEOFFSET 0
#JACKET ""
#REQUEST "ticks_per_beat 480"
#00002: 4
#BPM01: 192
#00008: 01
#TIL00: ""
#HISPEED 00
#MEASUREHS 00
#00416:00130000
#00417:1313
#00412:1313
#0041b:00130000
#01318:0013000000130000
#01315:00131313
#01312:2300001300000013
#0131b:23000013
#01418:0013000000001300
#01412:0000000000130000
#0141b:0000000000000013
#01415:0000000000000013
#01518:0013000000130013
#01512:00130000
#01515:0000001300001300
#0151b:0000001300000000
#0161b:13000013
#01612:13
#01615:0013001300000000
#01618:00130000
#0171b:1300001300000013
#01712:13000013
#01715:0013000000130000
#01718:00131313
#01815:0013000000001300
#0181b:0000000000130000
#01812:0000000000000013
#01818:0000000000000013
#01915:0013000000130000
#0191b:00130000
#01918:0000001300001300
#01912:0000001300000000
#02118:0013001300130000
#02115:00131313
#02112:2300001300000013
#0211b:23000013
#02110:41
#0221b:0013000000130013
#02218:00000013
#02215:0000000000000013
#02219:00130000
#02217:0000001300000000
#02216:0013000000000000
#02212:0000000000130000
#02214:00330000
#0241b:13000013
#02412:1300001300000000
#02418:0013000000000000
#02415:00130000
#02318:0013000000001300
#02315:0000130000000013
#02312:0013001300000000
#0231b:0000001300130000
#02512:13000013
#0251b:1300001300000013
#02515:0013001300130000
#02518:00131313
#02612:0013000000130000
#02614:00130000
#02616:0000001300000000
#02617:0013000000000000
#02615:00000013
#02618:0000000000000013
#02619:00330000
#02716:0000000000000013
#0271b:1300001300000013
#02712:1300001300130000
#02715:00130000
#02718:0013000013000000
#0291b:00130000001300000013000000130000000000000000000000000000000000000000000000000000000000000000000000000000000000000000000000000000
#02919:00000013000000130000001300000013000000000000000000000000000000000013000000130000001300000013000000000000000000000000000000000000
#0291a:1313131313131313000000000000000000000000000000000000000000000000
#02917:00000000000000000000000000000000000000000000000000000000000000000000001300000013000000130000001300000000000000000000000000000000
#02918:0000000000000000000000000000000013131313131313130000000000000000
#02914:00000000000000000000000000000000000000130000001300000013000000130000000000000000000000000000000000130000001300000013000000130000
#02912:00000000000000000000000000000000000000000000000000000000000000000000000000000000000000000000000000000013000000130000001300000013
#02913:0000000000000000000000000000000000000000000000001313131313131313
#02916:00000000000000000000000000000000001300000013000000130000001300000000000000000000000000000000000000000000000000000000000000000000
#02915:0000000000000000131313131313131300000000000000000000000000000000
#0311b:00130000001300000013000000130000000000000000000000000000000000000013000000130000001300000013000000000000000000000000000000000000
#03119:00000013000000130000001300000013000000000000000000000000000000000000001300000013000000130000001300000000000000000000000000000000
#0311a:1313131313131313000000000000000013131313131313130000000000000000
#03116:00000000000000000000000000000000001300000013000000130000001300000000000000000000000000000000000000000000000000000000000000000000
#03114:00000000000000000000000000000000000000130000001300000013000000130000000000000000000000000000000000130000001300000013000000130000
#03115:0000000000000000131313131313131300000000000000000000000000000000
#03112:00000000000000000000000000000000000000000000000000000000000000000000000000000000000000000000000000000013000000130000001300000013
#03113:0000000000000000000000000000000000000000000000001313131313131313
#03014:00000000000000000000000000000000001300000013000000130000001300000000000000000000000000000000000000130000001300000013000000130000
#03012:00000000000000000000000000000000000000130000001300000013000000130000000000000000000000000000000000000013000000130000001300000013
#03013:0000000000000000131313131313131300000000000000001313131313131313
#03019:00000013000000130000001300000013000000000000000000000000000000000013000000130000001300000013000000000000000000000000000000000000
#03017:00000000000000000000000000000000000000000000000000000000000000000000001300000013000000130000001300000000000000000000000000000000
#03018:0000000000000000000000000000000013131313131313130000000000000000
#0301b:00130000001300000013000000130000000000000000000000000000000000000000000000000000000000000000000000000000000000000000000000000000
#0301a:1313131313131313000000000000000000000000000000000000000000000000
#03216:00130000000000130000001300001300130013001300130013001300130013001300001300000000000000000013000000000000000000000000000000000000
#03219:00000013000013001300130013000000001300000013000000130000001300000000130013000013000000130000000000000000000000000000000000000000
#03217:23000000001300000000000000000013000000130000001300000013000000130000000000130000001300000000130000000000000000000000000000000000
#0321a:00000000000000130000001300001300130013001300130013001300130013001300001300000000000000000000000000000000000000000000000000000000
#03218:00001300130000000013000000130000000000000000000000000000000000000013000000001300130013001300001300000000000000000000000000000000
#0321b:00000000000000000000000000000013000000130000001300000013000000130000000000000000000000000000000000000000000000000000000000000000
#03212:00130000000000000000000000000000000000000000000000000000000000000000000000000000000000000013000000000000000000000000000000000000
#03215:00000013000013001300130013000000001300000013000000130000001300000000130013000013000000130000000000000000000000000000000000000000
#03213:13000000001300000000000000000000000000000000000000000000000000000000000000130000001300000000130000000000000000000000000000000000
#03214:00001300130000000013000000130000000000000000000000000000000000000013000000001300130013001300001300000000000000000000000000000000
#03318:1313
#03315:0019130000191300
#03312:0000001900000019
#03512:0000131300000000
#03518:0000000000130013
#03515:00000013
#0351b:13
#03616:0014001400000000
#03612:23232300
#0361b:23232300
#03815:0013000013000013
#03818:23132313
#0381b:0000001300000000
#03812:23230000
#03810:41
#03918:1300230000000013
#0391b:0013000013000000
#03912:23132300
#03915:0000001300001300
#04012:13
#04015:0013000000130000
#04018:0000001300000013
#0411b:13
#04117:0013
#04112:0013
#0701b:1313000013130000
#07015:00130013000000000013001300000000
#07018:0000131300001313
#07012:00000000001300130000000000130013
#07116:0014001400000000
#0711a:2424
#07112:00242400
#0531b:0000000013130000
#05315:00000000000013001300001300000000
#0531a:00000013
#05314:00000000000000000000000000130000
#05319:0000000000000013
#05313:00000000000000000000000000000013
#05312:13
#05412:00130013000000000013001300000000
#05418:2313000013130000
#0541b:0000131300001313
#05415:00000000001300130000000000130013
#02818:0000000000131313
#02815:00000000000000000000001300130013
#04218:2313130000000000
#04212:1300231313000000
#0421b:0000000023131300
#04215:0000000000002313
#04315:13
#0431b:2313130023000000
#04312:0000231323000000
#04318:0000000000000013
#04518:00000000000013001300001300130013
#04512:0013
#04515:0000000000131313
#0451b:13
#05115:0000000000000013
#05118:13
#05112:2313130023000000
#0511b:0000231323000000
#05612:00130000001300000013000000130000001300000013000000130000001300000000000000000000000000000000000000000000000000000000000000000000
#05614:00000013000000130000001300000013000000130000001300000013000000130000000000000000000000000000000000130000001300000013000000130000
#05613:1313131313131313131313131313131300000000000000000000000000000000
#05618:00000000000000000000000000000000001300000013000000130000001300000013000000130000001300000013000000000000000000000000000000000000
#0561a:00000000000000000000000000000000000000130000001300000013000000130000001300000013000000130000001300000000000000000000000000000000
#05619:0000000000000000131313131313131313131313131313130000000000000000
#05616:00000000000000000000000000000000000000000000000000000000000000000000000000000000000000000000000000000013000000130000001300000013
#05615:0000000000000000000000000000000000000000000000001313131313131313
#05917:00130000000000130000001300001300130013001300130013001300130013001300001300000000000000000013000000000000000000000000000000000000
#05914:00000013000013001300130013000000001300000013000000130000001300000000130013000013000000130000000000000000000000000000000000000000
#05916:23000000001300000000000000000013000000130000001300000013000000130000000000130000001300000000130000000000000000000000000000000000
#05913:00000000000000130000001300001300130013001300130013001300130013001300001300000000000000000000000000000000000000000000000000000000
#05915:00001300130000000013000000130000000000000000000000000000000000000013000000001300130013001300001300000000000000000000000000000000
#05912:00000000000000000000000000000013000000130000001300000013000000130000000000000000000000000000000000000000000000000000000000000000
#0591b:00130000000000000000000000000000000000000000000000000000000000000000000000000000000000000013000000000000000000000000000000000000
#05918:00000013000013001300130013000000001300000013000000130000001300000000130013000013000000130000000000000000000000000000000000000000
#0591a:13000000001300000000000000000000000000000000000000000000000000000000000000130000001300000000130000000000000000000000000000000000
#05919:00001300130000000013000000130000000000000000000000000000000000000013000000001300130013001300001300000000000000000000000000000000
#05515:0000000000001313
#05518:26000000000000002600000000130013
#05512:00262600
#05714:00130000001300000013000000130000000000000000000000000000000000000000001300000013000000130000001300000013000000130000001300000013
#05716:00000013000000130000001300000013000000000000000000000000000000000000000000000000000000000000000000000000000000000000000000000000
#05715:1313131313131313000000000000000000000000000000000000000000000000
#05719:00130000001300000013000000130000001300000013000000130000001300000000000000000000000000000000000013001300130013001300130013001300
#0571b:00000013000000130000001300000013000000130000001300000013000000130000000000000000000000000000000000000000000000000000000000000000
#0571a:13001300130013001300130013001300130013001300130013001300130013000000000000000000000000000000000000000013000000130000001300000013
#05712:00000000000000000000000000000000000000000000000000000000000000000013000000130000001300000013000000130000001300000013000000130000
#05713:0000000000000000000000000000000013131313131313131313131313131313
#05718:00000000000000000000000000000000000000000000000000000000000000000000000000000000000000000000000000130000001300000013000000130000
#05818:00130000001300000013000000130000000000000000000000000000000000000000000000000000000000000000000000000000000000000000000000000000
#0581a:00000013000000130000001300000013000000000000000000000000000000001300130013001300130013001300130013001300130013001300130013001300
#05819:13001300130013001300130013001300000000000000000000000000000000000013000000130000001300000013000000130000001300000013000000130000
#0581b:00000000000000000000000000000000000000000000000000000000000000000000001300000013000000130000001300000013000000130000001300000013
#05814:00000000000000000000000000000000001300000013000000130000001300000013000000130000001300000013000000000000000000000000000000000000
#05816:00000000000000000000000000000000000000130000001300000013000000130000001300000013000000130000001300000000000000000000000000000000
#05815:0000000000000000131313131313131313131313131313130000000000000000
#0601b:00130000001300000013000000130000001300000013000000130000001300000000000000000000000000000000000000000000000000000000000000000000
#06019:00000013000000130000001300000013000000130000001300000013000000130000000000000000000000000000000000130000001300000013000000130000
#0601a:1313131313131313131313131313131300000000000000000000000000000000
#06015:00000000000000000000000000000000001300000013000000130000001300000013000000130000001300000013000000000000000000000000000000000000
#06013:00000000000000000000000000000000000000130000001300000013000000130000001300000013000000130000001300000000000000000000000000000000
#06014:0000000000000000131313131313131313131313131313130000000000000000
#06017:00000000000000000000000000000000000000000000000000000000000000000000000000000000000000000000000000000013000000130000001300000013
#06018:0000000000000000000000000000000000000000000000001313131313131313
#06316:00130000000000130000001300001300130013001300130013001300130013001300001300000000000000000013000000000000000000000000000000000000
#06319:00000013000013001300130013000000001300000013000000130000001300000000130013000013000000130000000000000000000000000000000000000000
#06317:23000000001300000000000000000013000000130000001300000013000000130000000000130000001300000000130000000000000000000000000000000000
#0631a:00000000000000130000001300001300130013001300130013001300130013001300001300000000000000000000000000000000000000000000000000000000
#06318:00001300130000000013000000130000000000000000000000000000000000000013000000001300130013001300001300000000000000000000000000000000
#0631b:00000000000000000000000000000013000000130000001300000013000000130000000000000000000000000000000000000000000000000000000000000000
#06312:00130000000000000000000000000000000000000000000000000000000000000000000000000000000000000013000000000000000000000000000000000000
#06315:00000013000013001300130013000000001300000013000000130000001300000000130013000013000000130000000000000000000000000000000000000000
#06313:13000000001300000000000000000000000000000000000000000000000000000000000000130000001300000000130000000000000000000000000000000000
#06314:00001300130000000013000000130000000000000000000000000000000000000013000000001300130013001300001300000000000000000000000000000000
#06119:00130000001300000013000000130000000000000000000000000000000000000000001300000013000000130000001300000013000000130000001300000013
#06117:00000013000000130000001300000013000000000000000000000000000000000000000000000000000000000000000000000000000000000000000000000000
#06118:1313131313131313000000000000000000000000000000000000000000000000
#06114:00130000001300000013000000130000001300000013000000130000001300000000000000000000000000000000000013001300130013001300130013001300
#06112:00000013000000130000001300000013000000130000001300000013000000130000000000000000000000000000000000000000000000000000000000000000
#06113:13001300130013001300130013001300130013001300130013001300130013000000000000000000000000000000000000000013000000130000001300000013
#0611b:00000000000000000000000000000000000000000000000000000000000000000013000000130000001300000013000000130000001300000013000000130000
#0611a:0000000000000000000000000000000013131313131313131313131313131313
#06115:00000000000000000000000000000000000000000000000000000000000000000000000000000000000000000000000000130000001300000013000000130000
#06215:00130000001300000013000000130000000000000000000000000000000000000000000000000000000000000000000000000000000000000000000000000000
#06213:00000013000000130000001300000013000000000000000000000000000000001300130013001300130013001300130013001300130013001300130013001300
#06214:13001300130013001300130013001300000000000000000000000000000000000013000000130000001300000013000000130000001300000013000000130000
#06212:00000000000000000000000000000000000000000000000000000000000000000000001300000013000000130000001300000013000000130000001300000013
#06219:00000000000000000000000000000000001300000013000000130000001300000013000000130000001300000013000000000000000000000000000000000000
#06217:00000000000000000000000000000000000000130000001300000013000000130000001300000013000000130000001300000000000000000000000000000000
#06218:0000000000000000131313131313131313131313131313130000000000000000
#06418:0000000013000000000000001313131313131313131313130000000000000000
#06415:0000130000000013
#06419:00000000000000000000000000000000000000000000000000130000001300000013000000130000001300000013000000000000000000000000000000000000
#06417:00000000000000000000000000000000000000000000000000000013000000130000001300000013000000130000001300000000000000000000000000000000
#0641f:11
#06412:23000023
#0641b:23
#06512:1300000023130000
#06518:00001300000000000013001300000000
#0651b:23000000000013000000000000130013
#06515:0000230000002313
#06615:0013000000000013
#06618:00130023
#0661b:0000000000130000
#06612:23000000000000000000000000000000000000000000000000130000001300000013000000130000001300000013000000000000000000000000000000000000
#06614:00000000000000000000000000000000000000000000000000000013000000130000001300000013000000130000001300000000000000000000000000000000
#06613:0000000000000000000000001313131313131313131313130000000000000000
#06715:00000000230000000013000023000000
#06718:0013000023130013
#0671b:23000013
#06712:0000001300000013
#06815:0000000013000000000000001313131313131313131313130000000000000000
#06818:0000130000000013
#06814:00000000000000000000000000000000000000000000000000130000001300000013000000130000001300000013000000000000000000000000000000000000
#06816:00000000000000000000000000000000000000000000000000000013000000130000001300000013000000130000001300000000000000000000000000000000
#0681b:23000023
#06812:23
#06915:0013001313002300
#06912:1300000000130000
#0691b:2300001313002300
#06918:0000230000130000
#0731b:0000230000000013
#07317:1313
#07319:0013000000000000
#07316:00130013
#07314:0000001300000000
#07312:2323
#07310:41
#07412:13
#07415:0013000000130000
#0741b:0000001300000013
#0741a:0033000000330000
#07414:0000003300000033
#07518:1313
#07512:00131300
#07515:0000001300130000
#0751b:0013000000130000
#07612:13001323
#07619:0013000000130000
#0761b:00130013
#07614:0000001300000013
#07617:2323
#07616:00230000
#07719:0013000000000000
#07714:0000001300000000
#07718:0000000000000013
#07717:00130000
#07716:1323
#0771b:2323
#07712:00230000
#07918:00000000000013001300001300130013
#07915:0000000000131313
#07912:0013
#04415:1313000000001313
#04418:00130000
#04412:0000131300130000
#0441b:13000013
#05218:1313000000001313
#05215:00130000
#0521b:0000131300130000
#05212:13000013
#07815:1300001300000000
#07818:00130000
#07812:0000000000130000
#0781b:00000013
#08012:23130013
#08014:0000001300000000
#08019:0013000000000013
#0801b:2313
#08017:00230000
#08016:0023
#08116:1313
#08114:0013000000000000
#08117:00130013
#08119:0000001300000000
#08112:0000230000000013
#0811b:2323
#0821b:13
#08218:0013000000130000
#08212:0000001300000013
#08213:0033000000330000
#08219:0000003300000033
#08315:1313
#0831b:00131300
#08318:0000001300130000
#08312:0013000000130000
#08515:0000000000000013
#08514:0013000000000000
#08519:0000001300000000
#08516:00130000
#08517:1323
#08512:2323
#0851b:00230000
#0871b:0013
#08715:0000001313000000
#08712:0000000000130000
#08718:00000000000000000000001300000000
#08713:00000013
#08719:00000000000000000000000000130000
#08714:0000000000000013
#0871a:00000000000000000000000000000013
#08618:1300001300000000
#08615:00130000
#0861b:0000000000130000
#08612:00000013
#0881b:00130013000000000013001300000000
#08815:2313000013130000
#08812:0000131300001313
#08818:00000000001300130000000000130013
#08915:00000016
#08912:2626
#08918:00262600
#0031b:0013000013000000
#00318:0000130000130000
#00315:0000001300001300
#00312:0000000000000013
#00518:0013000000130000
#00515:00130013
#00512:2300001300000013
#0051b:2313
#0061b:13
#00612:0000130000130000
#00615:13000013
#00618:0000130000000013
#00715:0013000000130000
#00718:00130013
#0071b:0000001300000013
#00712:0013
#00812:1300000000130000
#0081b:00130000
#00818:13
#00815:00130000
#00814:00000013
#00816:0000000000000013
#0101b:1300000000130000
#01018:00130013
#01015:0000000000000013
#00919:0013000000000000
#00917:00130000
#00915:0000001300000000
#00918:0013
#00916:0000000000130000
#00914:00000013
#00912:2300000000000013
#0091b:23
#00910:41
#01114:0013000000000000
#01116:00130000
#01118:0000001300000000
#01115:0013
#01117:0000000000130000
#01119:00000013
#0111b:0000000000000013
#01212:13
#01215:00130000
#0121b:0000000000130000
#01219:00000013
#01217:0000000000000013
#0901a:0013000000000000
#09019:00130000
#09018:0000001300000000
#09014:0000000000130000
#09013:00000013
#09012:0000000000000013
#09015:2313
#0901b:23
#09515:1300000000130000
#09512:0013000000000000
#0951b:13
#09518:0013000000000013
#09118:1300000000130000
#09115:0000000000000013
#09112:13
#09213:0013000000000000
#09214:00130000
#09215:0000001300000000
#09219:0000000000130000
#0921a:00000013
#0921b:0000000000000013
#09218:0013
#09718:13
#0971b:0013000000130000
#09712:1300000000000013
#09715:0013000000000000
#09312:0000000000130000
#0931b:1300000000000013
#09315:13
#09916:00120000
#09918:0000000012132600
#0991a:12
#09914:12
#0991c:00120000
#09912:0012
#09915:00000000000000000000001300000000
#09818:0012000000001200
#09816:0000120000000012
#09814:0000001200000000
#0981c:0012
#0981a:0000000000120000
#0941b:2313
#09418:0013000000130000
#09415:23130013
#09412:0000001300000013
#09612:0013
#09615:0013000000130000
#09618:00130013
#0961b:0000001300000013
#0341b:0000000000000013
#03418:1313
#03415:0019130000190000
#03412:0000001900001300
#04618:0013000013000013
#04615:23132313
#04612:0000001300000000
#0461b:23230000
#04715:1300230000000013
#04712:0013000013000000
#0471b:23132300
#04718:0000001300001300
#0481b:13
#04818:0013000000130000
#04815:0000001300000013
#04912:13
#04916:0013
#0491b:0013
#05015:2313130000000000
#0501b:1300231313000000
#05012:0000000023131300
#05018:0000000000002313
#05010:41
#0841b:13001323
#08414:0013000000130000
#08412:00130013
#08419:0000001300000013
#08416:2323
#08417:00230000
#08410:41
#0721b:23130013
#07219:0000001300000000
#07214:0013000000000013
#07212:2313
#07216:00230000
#07217:0023
#0721f:21
#02017:00000012
#0201a:24242400
#02012:24242400
#01455:0000001300000013
#0145b:0000001300000000
#01458:0053000000000000
#01352:0000000000000053
#0155b:0000001300000000
#0175b:0000000000000063
#01855:0063000000000000
#01858:0000001300000013
#01852:0000001300000000
#01952:0000001300000000
#0205a:4444
#02052:00343400
#02255:0000000000000013
#02252:0000001300000000
#02256:0063000000000000
#02152:0000000000000053
#0235b:0000001300000000
#02452:0000005300000000
#01655:0000006300000000
#0255b:0000000000000063
#02657:0053000000000000
#0265b:0000001300000000
#02756:0000000000000063
#0275b:0000000000000063
#02752:0000000000530000
#0295a:5353535353535353000000000000000000000000000000000000000000000000
#02959:00000023000000230000002300000023000000000000000000000000000000000023000000230000002300000023000000000000000000000000000000000000
#0295b:00230000002300000023000000230000000000000000000000000000000000000000000000000000000000000000000000000000000000000000000000000000
#02957:00000000000000000000000000000000000000000000000000000000000000000000002300000023000000230000002300000000000000000000000000000000
#02958:0000000000000000000000000000000053535353535353530000000000000000
#02954:00000000000000000000000000000000000000230000002300000023000000230000000000000000000000000000000000230000002300000023000000230000
#02952:00000000000000000000000000000000000000000000000000000000000000000000000000000000000000000000000000000023000000230000002300000023
#02953:0000000000000000000000000000000000000000000000005353535353535353
#02956:00000000000000000000000000000000002300000023000000230000002300000000000000000000000000000000000000000000000000000000000000000000
#02955:0000000000000000535353535353535300000000000000000000000000000000
#0315b:00230000002300000023000000230000000000000000000000000000000000000023000000230000002300000023000000000000000000000000000000000000
#03159:00000023000000230000002300000023000000000000000000000000000000000000002300000023000000230000002300000000000000000000000000000000
#0315a:5353535353535353000000000000000053535353535353530000000000000000
#03156:00000000000000000000000000000000002300000023000000230000002300000000000000000000000000000000000000000000000000000000000000000000
#03154:00000000000000000000000000000000000000230000002300000023000000230000000000000000000000000000000000230000002300000023000000230000
#03155:0000000000000000535353535353535300000000000000000000000000000000
#03152:00000000000000000000000000000000000000000000000000000000000000000000000000000000000000000000000000000023000000230000002300000023
#03153:0000000000000000000000000000000000000000000000005353535353535353
#03054:00000000000000000000000000000000002300000023000000230000002300000000000000000000000000000000000000230000002300000023000000230000
#03052:00000000000000000000000000000000000000230000002300000023000000230000000000000000000000000000000000000023000000230000002300000023
#03053:0000000000000000535353535353535300000000000000005353535353535353
#03059:00000023000000230000002300000023000000000000000000000000000000000023000000230000002300000023000000000000000000000000000000000000
#03057:00000000000000000000000000000000000000000000000000000000000000000000002300000023000000230000002300000000000000000000000000000000
#03058:0000000000000000000000000000000053535353535353530000000000000000
#0305b:00230000002300000023000000230000000000000000000000000000000000000000000000000000000000000000000000000000000000000000000000000000
#0305a:5353535353535353000000000000000000000000000000000000000000000000
#03256:00230000000000230000002300005300530053005300530053005300530053005300002300000000000000000023000000000000000000000000000000000000
#03259:00000023000053005300530053000000002300000023000000230000002300000000530053000023000000230000000000000000000000000000000000000000
#03257:53000000002300000000000000000023000000230000002300000023000000230000000000230000002300000000530000000000000000000000000000000000
#0325a:00000000000000230000002300005300530053005300530053005300530053005300002300000000000000000000000000000000000000000000000000000000
#03258:00005300530000000023000000230000000000000000000000000000000000000023000000005300530053005300002300000000000000000000000000000000
#0325b:00000000000000000000000000000023000000230000002300000023000000230000000000000000000000000000000000000000000000000000000000000000
#03252:00230000000000000000000000000000000000000000000000000000000000000000000000000000000000000023000000000000000000000000000000000000
#03255:00000023000053005300530053000000002300000023000000230000002300000000530053000023000000230000000000000000000000000000000000000000
#03253:53000000002300000000000000000000000000000000000000000000000000000000000000230000002300000000530000000000000000000000000000000000
#03254:00005300530000000023000000230000000000000000000000000000000000000023000000005300530053005300002300000000000000000000000000000000
#03355:0029530000295300
#03358:5353
#03352:0000002900000029
#0355b:63
#03552:0000005300000000
#03858:1313
#03855:0063
#03852:00130000
#04152:1353
#0415b:63000013
#04156:00000013
#04157:0053
#05558:1646
#05552:00163600
#0395b:0063
#03952:1313
#03958:00130000
#05652:00230000002300000023000000230000002300000023000000230000002300000000000000000000000000000000000000000000000000000000000000000000
#05654:00000023000000230000002300000023000000230000002300000023000000230000000000000000000000000000000000230000002300000023000000230000
#05653:6363636363636363636363636363636300000000000000000000000000000000
#05658:00000000000000000000000000000000002300000023000000230000002300000023000000230000002300000023000000000000000000000000000000000000
#0565a:00000000000000000000000000000000000000230000002300000023000000230000002300000023000000230000002300000000000000000000000000000000
#05659:0000000000000000636363636363636363636363636363630000000000000000
#05656:00000000000000000000000000000000000000000000000000000000000000000000000000000000000000000000000000000023000000230000002300000023
#05655:0000000000000000000000000000000000000000000000006363636363636363
#05957:00230000000000230000002300006300630063006300630063006300630063006300002300000000000000000023000000000000000000000000000000000000
#05954:00000023000063006300630063000000002300000023000000230000002300000000630063000023000000230000000000000000000000000000000000000000
#05956:63000000002300000000000000000023000000230000002300000023000000230000000000230000002300000000630000000000000000000000000000000000
#05953:00000000000000230000002300006300630063006300630063006300630063006300002300000000000000000000000000000000000000000000000000000000
#05955:00006300630000000023000000230000000000000000000000000000000000000023000000006300630063006300002300000000000000000000000000000000
#05952:00000000000000000000000000000023000000230000002300000023000000230000000000000000000000000000000000000000000000000000000000000000
#0595b:00230000000000000000000000000000000000000000000000000000000000000000000000000000000000000023000000000000000000000000000000000000
#05958:00000023000063006300630063000000002300000023000000230000002300000000630063000023000000230000000000000000000000000000000000000000
#0595a:63000000002300000000000000000000000000000000000000000000000000000000000000230000002300000000630000000000000000000000000000000000
#05959:00006300630000000023000000230000000000000000000000000000000000000023000000006300630063006300002300000000000000000000000000000000
#05754:00230000002300000023000000230000000000000000000000000000000000000000002300000023000000230000002300000023000000230000002300000023
#05756:00000023000000230000002300000023000000000000000000000000000000000000000000000000000000000000000000000000000000000000000000000000
#05755:6363636363636363000000000000000000000000000000000000000000000000
#05759:00230000002300000023000000230000002300000023000000230000002300000000000000000000000000000000000063006300630063006300630063006300
#0575b:00000023000000230000002300000023000000230000002300000023000000230000000000000000000000000000000000000000000000000000000000000000
#0575a:63006300630063006300630063006300630063006300630063006300630063000000000000000000000000000000000000000023000000230000002300000023
#05752:00000000000000000000000000000000000000000000000000000000000000000023000000230000002300000023000000230000002300000023000000230000
#05753:0000000000000000000000000000000063636363636363636363636363636363
#05758:00000000000000000000000000000000000000000000000000000000000000000000000000000000000000000000000000230000002300000023000000230000
#05858:00230000002300000023000000230000000000000000000000000000000000000000000000000000000000000000000000000000000000000000000000000000
#0585a:00000023000000230000002300000023000000000000000000000000000000006300630063006300630063006300630063006300630063006300630063006300
#05859:63006300630063006300630063006300000000000000000000000000000000000023000000230000002300000023000000230000002300000023000000230000
#0585b:00000000000000000000000000000000000000000000000000000000000000000000002300000023000000230000002300000023000000230000002300000023
#05854:00000000000000000000000000000000002300000023000000230000002300000023000000230000002300000023000000000000000000000000000000000000
#05856:00000000000000000000000000000000000000230000002300000023000000230000002300000023000000230000002300000000000000000000000000000000
#05855:0000000000000000636363636363636363636363636363630000000000000000
#0605b:00230000002300000023000000230000002300000023000000230000002300000000000000000000000000000000000000000000000000000000000000000000
#06059:00000023000000230000002300000023000000230000002300000023000000230000000000000000000000000000000000230000002300000023000000230000
#0605a:5353535353535353535353535353535300000000000000000000000000000000
#06055:00000000000000000000000000000000002300000023000000230000002300000023000000230000002300000023000000000000000000000000000000000000
#06053:00000000000000000000000000000000000000230000002300000023000000230000002300000023000000230000002300000000000000000000000000000000
#06054:0000000000000000535353535353535353535353535353530000000000000000
#06057:00000000000000000000000000000000000000000000000000000000000000000000000000000000000000000000000000000023000000230000002300000023
#06058:0000000000000000000000000000000000000000000000005353535353535353
#06356:00230000000000230000002300005300530053005300530053005300530053005300002300000000000000000023000000000000000000000000000000000000
#06359:00000023000053005300530053000000002300000023000000230000002300000000530053000023000000230000000000000000000000000000000000000000
#06357:53000000002300000000000000000023000000230000002300000023000000230000000000230000002300000000530000000000000000000000000000000000
#0635a:00000000000000230000002300005300530053005300530053005300530053005300002300000000000000000000000000000000000000000000000000000000
#06358:00005300530000000023000000230000000000000000000000000000000000000023000000005300530053005300002300000000000000000000000000000000
#0635b:00000000000000000000000000000023000000230000002300000023000000230000000000000000000000000000000000000000000000000000000000000000
#06352:00230000000000000000000000000000000000000000000000000000000000000000000000000000000000000023000000000000000000000000000000000000
#06355:00000023000053005300530053000000002300000023000000230000002300000000530053000023000000230000000000000000000000000000000000000000
#06353:53000000002300000000000000000000000000000000000000000000000000000000000000230000002300000000530000000000000000000000000000000000
#06354:00005300530000000023000000230000000000000000000000000000000000000023000000005300530053005300002300000000000000000000000000000000
#06159:00230000002300000023000000230000000000000000000000000000000000000000002300000023000000230000002300000023000000230000002300000023
#06157:00000023000000230000002300000023000000000000000000000000000000000000000000000000000000000000000000000000000000000000000000000000
#06158:5353535353535353000000000000000000000000000000000000000000000000
#06154:00230000002300000023000000230000002300000023000000230000002300000000000000000000000000000000000053005300530053005300530053005300
#06152:00000023000000230000002300000023000000230000002300000023000000230000000000000000000000000000000000000000000000000000000000000000
#06153:53005300530053005300530053005300530053005300530053005300530053000000000000000000000000000000000000000023000000230000002300000023
#0615b:00000000000000000000000000000000000000000000000000000000000000000023000000230000002300000023000000230000002300000023000000230000
#0615a:0000000000000000000000000000000053535353535353535353535353535353
#06155:00000000000000000000000000000000000000000000000000000000000000000000000000000000000000000000000000230000002300000023000000230000
#06255:00230000002300000023000000230000000000000000000000000000000000000000000000000000000000000000000000000000000000000000000000000000
#06253:00000023000000230000002300000023000000000000000000000000000000005300530053005300530053005300530053005300530053005300530053005300
#06254:53005300530053005300530053005300000000000000000000000000000000000023000000230000002300000023000000230000002300000023000000230000
#06252:00000000000000000000000000000000000000000000000000000000000000000000002300000023000000230000002300000023000000230000002300000023
#06259:00000000000000000000000000000000002300000023000000230000002300000023000000230000002300000023000000000000000000000000000000000000
#06257:00000000000000000000000000000000000000230000002300000023000000230000002300000023000000230000002300000000000000000000000000000000
#06258:0000000000000000535353535353535353535353535353530000000000000000
#07558:53005333
#07552:13535333
#07555:0000002300230000
#0755b:0023000000230000
#08355:63006343
#0835b:13636343
#08358:0000002300230000
#08352:0023000000230000
#0805b:0063
#08052:13
#08057:00130000
#08056:0013
#08156:0063
#0815b:1313
#08152:00130000
#08952:1636
#08958:00164600
#09555:63430000
#0955b:63430000
#09552:0023000000000000
#09558:0023000000000000
#09758:53330000
#0975b:0023000000000000
#09752:5300330000000013
#09755:0023000000000000
#0935b:6300000000000013
#09355:63
#09352:00130000
#09358:00130000
#09158:53
#09152:53
#09155:00130000
#0915b:00130000
#03458:5353
#03455:0029530000290000
#03452:0000002900000000
#06459:00000000000000000000000000000000000000000000000000230000002300000023000000230000002300000023000000000000000000000000000000000000
#06457:00000000000000000000000000000000000000000000000000000023000000230000002300000023000000230000002300000000000000000000000000000000
#06458:0000000000000000000000005353535353535353535353530000000000000000
#06652:00000000000000000000000000000000000000000000000000230000002300000023000000230000002300000023000000000000000000000000000000000000
#06654:00000000000000000000000000000000000000000000000000000023000000230000002300000023000000230000002300000000000000000000000000000000
#06653:0000000000000000000000006363636363636363636363630000000000000000
#06854:00000000000000000000000000000000000000000000000000230000002300000023000000230000002300000023000000000000000000000000000000000000
#06856:00000000000000000000000000000000000000000000000000000023000000230000002300000023000000230000002300000000000000000000000000000000
#06855:0000000000000000000000006363636363636363636363630000000000000000
#09958:00000046
#06955:00006343
#06952:0000000000230000
#0695b:00006343
#06958:0000000000230000
#04952:53000013
#04956:0063
#0495b:1363
#04957:00000013
#04658:0053
#04655:1313
#0465b:00130000
#04752:0053
#0475b:1313
#04755:00130000
#07252:0053
#0725b:13
#07256:00130000
#07257:0013
#07357:0053
#07352:1313
#0735b:00130000
#00658:00130000
#00652:00130000
#0085b:00130000
#00855:00130000
#01052:00130000
#01058:00130000
#01255:00130000
#0125b:00130000
#001320:13333333230000000000000000000000
#001381:00000000133333332300000000000000
#001350:00000000000000001333333323000000
#0013b1:00000000000000000000000013333333
#0023b1:23
#002320:13333333230000000000000000000000
#002381:00000000133333332300000000000000
#002350:00000000000000001333333323000000
#0023b1:00000000000000000000000013333323
#008371:0000000000130000
#008391:00000033
#0083b1:0000000000000023
#010351:13
#010321:00230000
#012381:13
#0123b1:00230000
#012361:0000000000130000
#012341:00000033
#012321:0000000000000023
#013321:0000000000000013
#014351:0000002300000000
#014380:0013000000000000
#0143b0:0000002300000000
#016350:0000001300000000
#016320:00000023
#0173b0:0000000000000013
#018380:0000002300000000
#018351:0013000000000000
#018321:0000002300000000
#021321:0000000000000013
#022361:0033000000000000
#022341:00330000
#022321:0000002300000000
#024321:0000001300000000
#024361:00000023
#0253b1:0000000000000013
#026371:0033000000000000
#026391:00330000
#0263b1:0000002300000000
#027321:0000000000130000
#027361:0000000000000033
#028321:0023
#0273b0:0000000000000013
#028370:0023
#0293a0:1353535353535353230000000000000000000000000000000000000000000000
#0293b0:00530000005300000053000000530000000000000000000000000000000000000000000000000000000000000000000000000000000000000000000000000000
#029390:00000053000000530000005300000053000000000000000000000000000000000000000000000000000000000000000000000000000000000000000000000000
#029351:0000000000000000135353535353535323000000000000000000000000000000
#029361:00000000000000000000000000000000005300000053000000530000005300000000000000000000000000000000000000000000000000000000000000000000
#029341:00000000000000000000000000000000000000530000005300000053000000530000000000000000000000000000000000000000000000000000000000000000
#029380:0000000000000000000000000000000013535353535353532300000000000000
#029390:00000000000000000000000000000000000000000000000000000000000000000053000000530000005300000053000000000000000000000000000000000000
#029370:00000000000000000000000000000000000000000000000000000000000000000000005300000053000000530000005300000000000000000000000000000000
#029331:0000000000000000000000000000000000000000000000001353535353535353
#029341:00000000000000000000000000000000000000000000000000000000000000000000000000000000000000000000000000530000005300000053000000530000
#029321:00000000000000000000000000000000000000000000000000000000000000000000000000000000000000000000000000000053000000530000005300000053
#030331:23
#0303a0:1353535353535353230000000000000000000000000000000000000000000000
#0303b0:00530000005300000053000000530000000000000000000000000000000000000000000000000000000000000000000000000000000000000000000000000000
#030390:00000053000000530000005300000053000000000000000000000000000000000000000000000000000000000000000000000000000000000000000000000000
#030331:0000000000000000135353535353535323000000000000000000000000000000
#030341:00000000000000000000000000000000005300000053000000530000005300000000000000000000000000000000000000000000000000000000000000000000
#030321:00000000000000000000000000000000000000530000005300000053000000530000000000000000000000000000000000000000000000000000000000000000
#030380:0000000000000000000000000000000013535353535353532300000000000000
#030390:00000000000000000000000000000000000000000000000000000000000000000053000000530000005300000053000000000000000000000000000000000000
#030370:00000000000000000000000000000000000000000000000000000000000000000000005300000053000000530000005300000000000000000000000000000000
#030331:0000000000000000000000000000000000000000000000001353535353535353
#030341:00000000000000000000000000000000000000000000000000000000000000000000000000000000000000000000000000530000005300000053000000530000
#030321:00000000000000000000000000000000000000000000000000000000000000000000000000000000000000000000000000000053000000530000005300000053
#031331:23
#0313a0:1353535353535353230000000000000000000000000000000000000000000000
#0313b0:00530000005300000053000000530000000000000000000000000000000000000000000000000000000000000000000000000000000000000000000000000000
#031390:00000053000000530000005300000053000000000000000000000000000000000000000000000000000000000000000000000000000000000000000000000000
#031351:0000000000000000135353535353535323000000000000000000000000000000
#031361:00000000000000000000000000000000005300000053000000530000005300000000000000000000000000000000000000000000000000000000000000000000
#031341:00000000000000000000000000000000000000530000005300000053000000530000000000000000000000000000000000000000000000000000000000000000
#0313a0:0000000000000000000000000000000013535353535353532300000000000000
#0313b0:00000000000000000000000000000000000000000000000000000000000000000053000000530000005300000053000000000000000000000000000000000000
#031390:00000000000000000000000000000000000000000000000000000000000000000000005300000053000000530000005300000000000000000000000000000000
#031331:0000000000000000000000000000000000000000000000001353535353535353
#031341:00000000000000000000000000000000000000000000000000000000000000000000000000000000000000000000000000530000005300000053000000530000
#031321:00000000000000000000000000000000000000000000000000000000000000000000000000000000000000000000000000000053000000530000005300000053
#032331:53000000005300000000000000000000000000000000000000000000000000000000000000530000005300000000530000000000000000000000000000000000
#032321:00530000000000000000000000000000000000000000000000000000000000000000000000000000000000000053000023000000000000000000000000000000
#032341:00005300530000000053000000530000000000000000000000000000000000000053000000005300530053005300005300000000000000000000000000000000
#032351:00000053000053005300530053000000005300000053000000530000005300000000530053000053000000530000000000000000000000000000000000000000
#032361:00000000000000530000005300005300530053005300530053005300530053005300005300000000000000000000000000000000000000000000000000000000
#032371:00000000000000000000000000000053000000530000005300000053000000530000000000000000000000000000000000000000000000000000000000000000
#032370:13000000005300000000000000000000000000000000000000000000000000000000000000530000005300000000530023000000000000000000000000000000
#032360:00530000000000000000000000000000000000000000000000000000000000000000000000000000000000000053000000000000000000000000000000000000
#032380:00005300530000000053000000530000000000000000000000000000000000000053000000005300530053005300005300000000000000000000000000000000
#032390:00000053000053005300530053000000005300000053000000530000005300000000530053000053000000530000000000000000000000000000000000000000
#0323a0:00000000000000530000005300005300530053005300530053005300530053005300005300000000000000000000000000000000000000000000000000000000
#0323b0:00000000000000000000000000000053000000530000005300000053000000530000000000000000000000000000000000000000000000000000000000000000
#033380:13230000
#033350:0059000000000000
#033351:00132300
#033321:0000005900000000
#033380:00001323
#033350:0000000000590000
#033351:00000013
#033321:0000000000000059
#034351:23
#034380:13230000
#034350:0059000000000000
#034351:00132300
#034321:0000005900000000
#034380:00001323
#034350:0000000000590000
#0353b0:13
#035380:00230000
#035320:0000001300000000
#035350:0000000000230000
#038350:0013
#038320:00000023
#0393b0:0013
#039380:00000023
#0403b0:1333230000000000
#040321:0000133323000000
#0403b0:0000000013332300
#040321:0000000000001333
#041321:23
#0413b0:13
#041370:00230000
#041321:00133300
#041361:00000023
#041370:0013
#0413b0:00000023
#044380:0000001300000000
#0443b0:0000000000230000
#045350:13
#045320:0000002300000000
#046380:0013
#0463b0:00000023
#047320:0013
#047350:00000023
#048320:1333230000000000
#0483b1:0000133323000000
#048320:0000000013332300
#0483b1:0000000000001333
#0493b1:23
#049320:13
#049360:00230000
#0493b1:00133300
#049371:00000023
#049360:0013
#049320:00000023
#052350:0000001300000000
#052320:0000000000230000
#053380:13
#0533b0:0000002300000000
#056330:1353535353535353535353535353535323000000000000000000000000000000
#056320:00530000005300000053000000530000005300000053000000530000005300000000000000000000000000000000000000000000000000000000000000000000
#056340:00000053000000530000005300000053000000530000005300000053000000530000000000000000000000000000000000000000000000000000000000000000
#056391:0000000000000000135353535353535353535353535353532300000000000000
#056381:00000000000000000000000000000000005300000053000000530000005300000053000000530000005300000053000000000000000000000000000000000000
#0563a1:00000000000000000000000000000000000000530000005300000053000000530000005300000053000000530000005300000000000000000000000000000000
#056350:0000000000000000000000000000000000000000000000001353535353535353
#056340:00000000000000000000000000000000000000000000000000000000000000000000000000000000000000000000000000530000005300000053000000530000
#056360:00000000000000000000000000000000000000000000000000000000000000000000000000000000000000000000000000000053000000530000005300000053
#057350:5353535353535353230000000000000000000000000000000000000000000000
#057340:00530000005300000053000000530000000000000000000000000000000000000000000000000000000000000000000000000000000000000000000000000000
#057360:00000053000000530000005300000053000000000000000000000000000000000000000000000000000000000000000000000000000000000000000000000000
#0573a1:1353535353535353535353535353535323000000000000000000000000000000
#057391:00530000005300000053000000530000005300000053000000530000005300000000000000000000000000000000000000000000000000000000000000000000
#0573b1:00000053000000530000005300000053000000530000005300000053000000530000000000000000000000000000000000000000000000000000000000000000
#057330:0000000000000000000000000000000013535353535353535353535353535353
#057320:00000000000000000000000000000000000000000000000000000000000000000053000000530000005300000053000000530000005300000053000000530000
#057340:00000000000000000000000000000000000000000000000000000000000000000000005300000053000000530000005300000053000000530000005300000053
#058330:23
#057391:0000000000000000000000000000000000000000000000001353535353535353
#057381:00000000000000000000000000000000000000000000000000000000000000000000000000000000000000000000000000530000005300000053000000530000
#0573a1:00000000000000000000000000000000000000000000000000000000000000000000000000000000000000000000000000000053000000530000005300000053
#058391:5353535353535353230000000000000000000000000000000000000000000000
#058381:00530000005300000053000000530000000000000000000000000000000000000000000000000000000000000000000000000000000000000000000000000000
#0583a1:00000053000000530000005300000053000000000000000000000000000000000000000000000000000000000000000000000000000000000000000000000000
#058350:0000000000000000135353535353535353535353535353532300000000000000
#058340:00000000000000000000000000000000005300000053000000530000005300000053000000530000005300000053000000000000000000000000000000000000
#058360:00000000000000000000000000000000000000530000005300000053000000530000005300000053000000530000005300000000000000000000000000000000
#0583a1:0000000000000000000000000000000013535353535353535353535353535353
#058391:00000000000000000000000000000000000000000000000000000000000000000053000000530000005300000053000000530000005300000053000000530000
#0583b1:00000000000000000000000000000000000000000000000000000000000000000000005300000053000000530000005300000053000000530000005300000053
#0593a1:53000000005300000000000000000000000000000000000000000000000000000000000000530000005300000000530000000000000000000000000000000000
#0593b1:00530000000000000000000000000000000000000000000000000000000000000000000000000000000000000053000023000000000000000000000000000000
#059391:00005300530000000053000000530000000000000000000000000000000000000053000000005300530053005300005300000000000000000000000000000000
#059381:00000053000053005300530053000000005300000053000000530000005300000000530053000053000000530000000000000000000000000000000000000000
#059371:00000000000000530000005300005300530053005300530053005300530053005300005300000000000000000000000000000000000000000000000000000000
#059361:00000000000000000000000000000053000000530000005300000053000000530000000000000000000000000000000000000000000000000000000000000000
#059360:13000000005300000000000000000000000000000000000000000000000000000000000000530000005300000000530023000000000000000000000000000000
#059370:00530000000000000000000000000000000000000000000000000000000000000000000000000000000000000053000000000000000000000000000000000000
#059350:00005300530000000053000000530000000000000000000000000000000000000053000000005300530053005300005300000000000000000000000000000000
#059340:00000053000053005300530053000000005300000053000000530000005300000000530053000053000000530000000000000000000000000000000000000000
#059330:00000000000000530000005300005300530053005300530053005300530053005300005300000000000000000000000000000000000000000000000000000000
#059320:00000000000000000000000000000053000000530000005300000053000000530000000000000000000000000000000000000000000000000000000000000000
#0603a0:1353535353535353535353535353535323000000000000000000000000000000
#0603b0:00530000005300000053000000530000005300000053000000530000005300000000000000000000000000000000000000000000000000000000000000000000
#060390:00000053000000530000005300000053000000530000005300000053000000530000000000000000000000000000000000000000000000000000000000000000
#060341:0000000000000000135353535353535353535353535353532300000000000000
#060351:00000000000000000000000000000000005300000053000000530000005300000053000000530000005300000053000000000000000000000000000000000000
#060331:00000000000000000000000000000000000000530000005300000053000000530000005300000053000000530000005300000000000000000000000000000000
#060380:0000000000000000000000000000000000000000000000001353535353535353
#060390:00000000000000000000000000000000000000000000000000000000000000000000000000000000000000000000000000530000005300000053000000530000
#060370:00000000000000000000000000000000000000000000000000000000000000000000000000000000000000000000000000000053000000530000005300000053
#061380:5353535353535353230000000000000000000000000000000000000000000000
#061390:00530000005300000053000000530000000000000000000000000000000000000000000000000000000000000000000000000000000000000000000000000000
#061370:00000053000000530000005300000053000000000000000000000000000000000000000000000000000000000000000000000000000000000000000000000000
#061331:1353535353535353535353535353535323000000000000000000000000000000
#061341:00530000005300000053000000530000005300000053000000530000005300000000000000000000000000000000000000000000000000000000000000000000
#061321:00000053000000530000005300000053000000530000005300000053000000530000000000000000000000000000000000000000000000000000000000000000
#0613a0:0000000000000000000000000000000013535353535353535353535353535353
#0613b0:00000000000000000000000000000000000000000000000000000000000000000053000000530000005300000053000000530000005300000053000000530000
#061390:00000000000000000000000000000000000000000000000000000000000000000000005300000053000000530000005300000053000000530000005300000053
#0623a0:23
#061341:0000000000000000000000000000000000000000000000001353535353535353
#061351:00000000000000000000000000000000000000000000000000000000000000000000000000000000000000000000000000530000005300000053000000530000
#061331:00000000000000000000000000000000000000000000000000000000000000000000000000000000000000000000000000000053000000530000005300000053
#062341:5353535353535353230000000000000000000000000000000000000000000000
#062351:00530000005300000053000000530000000000000000000000000000000000000000000000000000000000000000000000000000000000000000000000000000
#062331:00000053000000530000005300000053000000000000000000000000000000000000000000000000000000000000000000000000000000000000000000000000
#062380:0000000000000000135353535353535353535353535353532300000000000000
#062390:00000000000000000000000000000000005300000053000000530000005300000053000000530000005300000053000000000000000000000000000000000000
#062370:00000000000000000000000000000000000000530000005300000053000000530000005300000053000000530000005300000000000000000000000000000000
#062331:0000000000000000000000000000000013535353535353535353535353535353
#062341:00000000000000000000000000000000000000000000000000000000000000000053000000530000005300000053000000530000005300000053000000530000
#062321:00000000000000000000000000000000000000000000000000000000000000000000005300000053000000530000005300000053000000530000005300000053
#063331:53000000005300000000000000000000000000000000000000000000000000000000000000530000005300000000530000000000000000000000000000000000
#063321:00530000000000000000000000000000000000000000000000000000000000000000000000000000000000000053000023000000000000000000000000000000
#063341:00005300530000000053000000530000000000000000000000000000000000000053000000005300530053005300005300000000000000000000000000000000
#063351:00000053000053005300530053000000005300000053000000530000005300000000530053000053000000530000000000000000000000000000000000000000
#063361:00000000000000530000005300005300530053005300530053005300530053005300005300000000000000000000000000000000000000000000000000000000
#063371:00000000000000000000000000000053000000530000005300000053000000530000000000000000000000000000000000000000000000000000000000000000
#063370:13000000005300000000000000000000000000000000000000000000000000000000000000530000005300000000530023000000000000000000000000000000
#063360:00530000000000000000000000000000000000000000000000000000000000000000000000000000000000000053000000000000000000000000000000000000
#063380:00005300530000000053000000530000000000000000000000000000000000000053000000005300530053005300005300000000000000000000000000000000
#063390:00000053000053005300530053000000005300000053000000530000005300000000530053000053000000530000000000000000000000000000000000000000
#0633a0:00000000000000530000005300005300530053005300530053005300530053005300005300000000000000000000000000000000000000000000000000000000
#0633b0:00000000000000000000000000000053000000530000005300000053000000530000000000000000000000000000000000000000000000000000000000000000
#064380:0000000000000000000000001353535353535353535353532300000000000000
#064390:00000000000000000000000000000000000000000000000000530000005300000053000000530000005300000053000000000000000000000000000000000000
#064370:00000000000000000000000000000000000000000000000000000053000000530000005300000053000000530000005300000000000000000000000000000000
#066330:0000000000000000000000001353535353535353535353532300000000000000
#066320:00000000000000000000000000000000000000000000000000530000005300000053000000530000005300000053000000000000000000000000000000000000
#066340:00000000000000000000000000000000000000000000000000000053000000530000005300000053000000530000005300000000000000000000000000000000
#068350:0000000000000000000000001353535353535353535353532300000000000000
#068340:00000000000000000000000000000000000000000000000000530000005300000053000000530000005300000053000000000000000000000000000000000000
#068360:00000000000000000000000000000000000000000000000000000053000000530000005300000053000000530000005300000000000000000000000000000000
#069350:00001323
#069320:0000000000530000
#0693b1:00001323
#069381:0000000000530000
#072321:0013
#072361:00000023
#073371:0013
#0733b1:00000023
#0743b1:13
#0743a1:0033000000000000
#074381:00230000
#074350:00130000
#074340:0000003300000000
#074320:0023
#0743b1:0013
#0743a1:0000000000330000
#074381:00000023
#074350:00000013
#074340:0000000000000033
#075320:23
#075381:13230000
#0753b1:0053000000000000
#075320:00133323
#075350:0000005300530000
#075381:00001323
#0753b1:0000000000530000
#0783b1:1323000000000000
#078320:0013230000000000
#078380:0000001300000000
#0783b0:0000000000230000
#078350:0000000000001323
#078381:0000000000000013
#079381:23
#079350:13
#079320:0000002300000000
#0803b0:0013
#080370:00000023
#081360:0013
#081320:00000023
#082320:13
#082330:0033000000000000
#082350:00230000
#082381:00130000
#082391:0000003300000000
#0823b1:0023
#082320:0013
#082330:0000000000330000
#082350:00000023
#082381:00000013
#082391:0000000000000033
#0833b1:23
#083350:13230000
#083320:0053000000000000
#0833b1:00133323
#083381:0000005300530000
#083350:00001323
#083320:0000000000530000
#086320:1323000000000000
#0863b1:0013230000000000
#086351:0000001300000000
#086321:0000000000230000
#086381:0000000000001323
#086350:0000000000000013
#087350:23
#087381:13
#0873b1:0000002300000000
#090341:0013000000000000
#090331:00330000
#090321:0000002300000000
#0903b1:0013
#0903a1:0000000000330000
#090391:00000033
#090381:0000000000000023
#091381:13
#0913b1:00230000
#091320:13
#091350:00230000
#091320:0000000000130000
#091350:00000023
#091381:00000013
#0913b1:0000000000000023
#092391:0013000000000000
#0923a1:00330000
#0923b1:0000002300000000
#092321:0013
#092331:0000000000330000
#092341:00000033
#092351:0000000000000023
#093351:13
#093321:00230000
#0933b0:13
#093380:00230000
#093380:0000000000130000
#0933b0:00000023
#093321:00000013
#093351:0000000000000023
#094381:0000132300000000
#094351:0000000013230000
#094381:0000000000001323
#0953b1:13230000
#095381:0053000000000000
#095350:13230000
#095320:0053000000000000
#0953b0:0000000000130000
#095380:00000023
#095351:00000013
#095321:0000000000000023
#096351:0000132300000000
#096381:0000000013230000
#096351:0000000000001323
#097321:13230000
#097351:0053000000000000
#097380:13230000
#0973b0:0053000000000000
#097350:0000000000130000
#097320:00000023
#0973b1:00000013
#097381:0000000000000023
