This file was generated by Ched 2.6.4.0.
#TITLE ""
#ARTIST ""
#DESIGNER ""
#DIFFICULTY 0
#PLAYLEVEL
#SONGID ""
#WAVE ""
#WAVEOFFSET 0
#JACKET ""
#REQUEST "ticks_per_beat 480"
#00002: 4
#BPM01: 192
#00008: 01
#TIL00: ""
#HISPEED 00
#MEASUREHS 00
#00412:1313
#0041b:00130000
#00418:1313
#00415:00130000
#01318:0013000000130000
#01312:23130013
#0131b:0000001300000013
#01315:0013
#01412:0000000000130000
#01418:0013000000001300
#01415:0000000000000013
#01518:0013000000130000
#01512:00130000
#0151b:0000001300000000
#01515:00000013
#0161b:13
#01612:0013000000000000
#01618:00130000
#01615:0000001300000000
#03415:0000000000000013
#03412:13
#0341b:0013
#03518:13000013
#03515:0000001300000013
#02712:1313
#02715:00130000
#0271b:0000001300000013
#02718:0013000000130000
#0391b:0013000000000013
#03918:0000001300000000
#03912:23
#03915:00230000
#04012:13000013
#0401b:0000001300000013
#04018:0013000000130000
#04015:00131300
#04115:13
#04118:0013
#0701b:1313000000000000
#07015:0000131300000000
#07018:0000000013130000
#07012:0000000000001313
#07114:0014001400000000
#07118:24240000
#0711a:0024
#07112:0024
#05315:0000000013000013
#0531b:0013
#05412:0013000000130000
#0541b:00130013
#05415:0000001300000013
#05418:2313
#0431b:0000000000000013
#0431a:0013000000000000
#04319:0000001300000000
#04314:23
#04313:00230000
#04312:0023
#04518:0013
#04512:0013
#06418:0013000000000000
#06415:00130000
#0641f:11
#0641b:23
#06918:0000001300000000
#06915:0013
#06912:00000023
#04415:13
#04418:0013000000000013
#04412:00130013
#08916:00000014
#08914:2424
#08918:00240000
#0891a:2424
#08912:00240000
#0031b:0013
#00315:0013000000130000
#00318:00130013
#00312:0000001300000013
#00515:0013001300000000
#0051b:23130000
#00518:00001313
#00512:0000000000130013
#0061b:13130000
#00615:0000130000000013
#00612:0000000000130000
#00618:00000013
#00818:0000130000131300
#00815:0000000000000013
#00812:13130000
#00918:0013001300000013
#00912:23130013
#00915:0013
#0091b:0000000000130000
#00910:41
#09916:00120000
#09918:1212
#09914:1212
#0991a:00120000
#09915:00000026
#09818:0012001200000012
#09816:00121200
#0981a:0000000000120000
#09814:00000012
#00718:0013001300000000
#00712:00130000
#00715:00001313
#0071b:0000000000130013
#01015:13130013
#0101b:0000130000130000
#01018:0000000000000013
#01115:0013001300000013
#0111b:00130013
#01118:0013
#01112:0000000000130000
#01218:1300130000000013
#01212:00130000
#01215:0000000000131300
#01715:0013000000130000
#0171b:00130013
#01712:0000001300000013
#01718:0013
#0181b:0000000000130000
#01815:0013000000001300
#01818:0000000000000013
#01915:0013000000130000
#0191b:00130000
#01912:0000001300000000
#01918:00000013
#02118:0013000000130000
#02115:00130013
#0211b:0000001300000013
#02112:2313
#02110:41
#02212:0000000000130000
#02215:00130013
#02218:0000000000000013
#0221b:0000001300000000
#0231b:0013000000130000
#02315:0000001300001300
#02318:0000130000000013
#02412:13
#02418:0013000000000000
#02415:00130000
#02515:0013000000130000
#02518:00130013
#02512:0000001300000013
#0251b:0013
#02618:0000130000000013
#02612:0000001300000000
#0261b:0000000000130000
#02615:00000013
#02812:0000000000130000
#02818:00000013
#02815:0000000000000013
#0301b:13000013
#03012:0013
#03018:0013
#03015:00000013
#03115:00130013
#03112:1313
#0311b:00130013
#03118:1313
#03212:13
#03215:0000001300000000
#03218:13
#0321b:0000001300000000
#03812:2300001300000000
#03815:0013000000000013
#03818:23230013
#0381b:0023
#03810:41
#03612:0000001400000000
#03614:0014000000000000
#0361a:24
#03618:00240000
#03616:0024
#0561b:13
#05615:13
#05612:0013
#05618:0013
#0571b:13
#05715:13
#05712:0013
#05718:0013
#05812:13
#05818:13
#0581b:0013
#05815:0013
#05912:13
#05918:13
#0591b:0000001300000000
#05915:0000001300000000
#0601b:1313
#06015:1313
#06012:00130000
#06018:00130000
#06112:1313
#06118:1313
#0611b:00130000
#06115:00130000
#0621b:1313
#06215:1313
#06212:00130000
#06218:00130000
#0631b:13
#06315:13
#06312:0000001300000000
#06318:0000001300000000
#06812:13
#06815:0013000000000000
#06818:00130000
#07318:0000230000000013
#0731b:0000001300000000
#07312:0013000000000000
#07315:23
#07310:41
#07415:1300000013000013
#0741b:0013000000000000
#07418:0000001300000000
#07412:00130000
#07515:0013
#07512:0000000000130000
#0751b:0013
#07518:1300000000130000
#07215:0000001300000000
#07218:0013000023000013
#07212:23230013
#0721b:23
#0721f:21
#07718:0000000000000013
#07714:0013000000000000
#07716:0000001300000000
#07717:23
#07719:00230000
#0771b:0023
#0791b:0013
#07915:1313
#07912:00000013000000000000000000000000
#07812:13000013
#0781b:0013000013000013
#07815:00130000
#07818:0000001300000000
#0801b:23130013
#08018:0000001300000000
#08015:0013000023000013
#08012:23
#08112:0000001300000000
#0811b:0013000000000000
#08115:0000230000000013
#08118:23
#08515:0000000000000013
#08519:0013000000000000
#08517:0000001300000000
#08516:23
#08514:00230000
#08512:0023
#08712:0013
#08718:1300000013000013
#0871b:00000013000000000000000000000000
#0861b:13000013
#08612:0013000013000013
#08618:00130000
#08615:0000001300000000
#0881b:0013000000130000
#08812:00130013
#08818:0000001300000013
#08815:2313
#09015:0013000000130000
#09018:00130013
#09012:0000001300000013
#0901b:2313
#0911b:1300000000000013
#09112:0000130000000013
#09115:0000000000130000
#09118:00130013
#09315:00130013
#09318:0000000000000013
#09312:1300000000130000
#0931b:00130000
#09718:00130013
#09715:1300000000000013
#09715:13
#0971b:0000000000130000
#09712:00130000
#09412:0013000000130000
#09418:00130013
#09415:0000001300000013
#0941b:2313
#09518:1300000000130000
#09515:00130013
#0951b:0000130000000013
#09512:0000000000000013
#0011b:0013000000130000
#00118:0000001300000013
#00112:2323
#00115:00230023
#00218:0013000000130000
#0021b:0000001300000013
#00212:2323
#00215:00230023
#04712:0013000000000013
#04715:0000001300000000
#0471b:23
#04718:00230000
#0481b:13000013
#04812:0000001300000013
#04815:0013000000130000
#04818:00131300
#04918:13
#04915:0013
#05112:0000000000000013
#05113:0013000000000000
#05114:0000001300000000
#05119:23
#0511a:00230000
#0511b:0023
#05218:13
#05215:0013000000000013
#0521b:00130013
#02912:0013
#0291b:13
#03312:13
#0331b:0013
#06515:0013
#06518:0000001300000000
#0651b:0000000000130000
#06615:13
#06618:0013000000000000
#06612:0000131300000000
#06616:00000000000000000000000000130000
#06617:0000001300000000
#0661b:00000000000000000000000000130000
#0421b:0000000000130013
#0421a:0000001300000000
#04219:0013000000000000
#04212:23
#04213:00230000
#04214:0023
#04215:00000023
#07616:0013000000000000
#07614:0000001300000000
#07612:0000000000130013
#0761b:23
#07619:00230000
#07617:00002323
#09218:0013000000130000
#09215:00130013
#0921b:0000001300000013
#09212:0013
#0961b:0013000000130000
#09615:00130013
#09618:0000001300000013
#09612:0013
#08218:1300000013000013
#08212:0013000000000000
#08215:0000001300000000
#0821b:00130000
#08318:0013
#0831b:0000000000130000
#08312:0013
#08315:1300000000130000
#05012:0000000000130013
#05013:0000001300000000
#05014:0013000000000000
#0501b:23
#0501a:00230000
#05019:0023
#05018:00000023
#05010:41
#0461b:2300001300000000
#04618:0013000000000013
#04615:23230013
#04612:0023
#08417:0013000000000000
#08419:0000001300000000
#0841b:0000000000130013
#08412:23
#08414:00230000
#08416:00002323
#08410:41
#0201a:24242400
#02012:24242400
#05518:2424
#05514:00240000
#05512:2424
#0551a:00240000
#01455:0000000000000013
#0145b:0000001300000000
#01458:0053000000000000
#0155b:0000001300000000
#01655:0000006300000000
#0415b:00000013
#04155:63
#04158:0053
#0135b:0000000000000063
#01858:0000000000000013
#01855:0063000000000000
#01852:0000001300000000
#01952:0000001300000000
#01752:0000000000000053
#02258:0000000000000013
#0225b:0000001300000000
#0215b:0000000000000063
#02355:0000001300000000
#02552:0000000000000053
#02652:0000001300000000
#0275b:0000000000000063
#02758:0000000000530000
#0305b:63000063
#03055:00000063
#03155:00630063
#03152:5353
#0315b:00630063
#03158:5353
#03252:53
#03255:0000002300000000
#03258:53
#0325b:0000002300000000
#03452:53
#0345b:0023
#03558:53
#03555:0000006300000000
#0565b:63
#05655:63
#05652:0053
#05658:0053
#0575b:23
#05755:23
#05752:0053
#05758:0053
#05852:53
#05858:53
#0585b:0063
#05855:0063
#05952:53
#05958:53
#0595b:0000002300000000
#05955:0000002300000000
#0605b:6363
#06055:6363
#06052:00530000
#06058:00530000
#06152:5353
#06158:5353
#0615b:00630000
#06155:00630000
#0625b:6363
#06255:6363
#06252:00530000
#06258:00530000
#0635b:63
#06355:63
#06352:0000002300000000
#06358:0000002300000000
#06955:0063
#06952:00000013
#07555:00005343
#07552:0000000000230000
#0755b:00005343
#07558:5300000000230000
#07455:0063
#07858:0000006300000000
#0785b:0023
#07955:53
#07952:00000023000000000000000000000000
#08655:0000005300000000
#08652:0023
#08758:63
#0875b:00000023000000000000000000000000
#09955:00000016
#04958:53
#04955:0063
#04952:00000013
#02952:0053
#0295b:23
#03352:23
#0335b:0063
#0655b:0000000000630000
#06652:0000005300000000
#06656:00000000000000000000000000230000
#06657:0000005300000000
#0665b:00000000000000000000000000230000
#08358:00006333
#0835b:0000000000230000
#08352:00006333
#08355:6300000000230000
#08258:0053
#0385b:0013
#04652:0013
#07258:0013
#08055:0013
#0133b0:0000000000000013
#014380:0033000000000000
#0143b0:0000002300000000
#016350:0000001300000000
#016320:00000023
#017320:0000000000000013
#018350:0033000000000000
#018320:0000002300000000
#0213b0:0000000000000013
#022380:0023000000000000
#024380:0000001300000000
#0243b0:00000023
#025320:0000000000000013
#026350:0023000000000000
#027380:0000000000130000
#0273b0:0000000000000033
#028370:0023
#0293b0:13
#029380:00230000
#029320:0013
#029350:00000023
#0303b0:13
#030380:00230000
#030350:00000013
#031320:3333
#031350:00330033
#032320:33000023
#032350:0000005300000000
#0303b1:00000013
#031381:3333
#0313b1:00330033
#032381:33000023
#0323b1:0000005300000000
#033321:13
#033351:00230000
#0333b1:0013
#033381:00000023
#034321:13
#034351:00230000
#0343b1:0013
#034381:00000023
#035381:13
#0353b1:00230000
#035351:0000001300000000
#035321:0000000000230000
#039321:0013
#039351:00000023
#041351:13
#041321:00230000
#041381:0013
#0413b1:00000023
#044381:0000001300000000
#0443b1:0000000000230000
#045351:13
#045321:0000002300000000
#0473b1:0013
#047381:00000023
#049381:13
#0493b1:00230000
#049351:0013
#049321:00000023
#052351:0000001300000000
#052321:0000000000230000
#053381:13
#0533b1:0000002300000000
#0563b1:13
#056381:00230000
#056350:13
#056320:00230000
#056320:0013
#056350:00000023
#056381:0013
#0563b1:00000023
#0573b1:13
#057381:00230000
#057350:13
#057320:00230000
#057320:0013
#057350:00000023
#057381:0013
#0573b1:00000023
#058321:13
#058351:00230000
#058380:13
#0583b0:00230000
#0583b0:0013
#058380:00000023
#058351:0013
#058321:00000023
#059321:13000023
#059351:0000005300000000
#059380:13000023
#0593b0:0000005300000000
#0603b0:1333
#060380:00330023
#060351:1333
#060321:00330023
#061321:1333
#061351:00330023
#061380:1333
#0613b0:00330023
#0623b0:1333
#062380:00330023
#062351:1333
#062321:00330023
#0633b1:13000023
#063381:0000005300000000
#063350:13000023
#063320:0000005300000000
#064320:0000001300000000
#065350:23
#0653b0:0000000000130000
#065380:0000000000000023
#066320:0000001300000000
#066360:00000000000000000000000000530000
#067320:00230000
#066371:0000001300000000
#0663b1:00000000000000000000000000530000
#067371:00230000
#0683b1:0000001300000000
#069381:23
#069351:0013
#069321:00000023
#073351:0013
#073321:00000023
#074351:0013
#074321:00000023
#075381:13
#0753b1:00230000
#075351:00001323
#075321:0000000000530000
#0753b0:00001323
#075380:0000000000530000
#078380:0000001300230000
#0783b0:0053
#079350:1300002300000000
#079320:00000053000000000000000000000000
#081380:0013
#0813b0:00000023
#082380:0013
#0823b0:00000023
#083350:13
#083320:00230000
#083380:00001323
#0833b0:0000000000530000
#083321:00001323
#083351:0000000000530000
#086351:0000001300230000
#086321:0053
#087381:1300002300000000
#0873b1:00000053000000000000000000000000
