This file was generated by Ched 2.6.4.0.
#TITLE ""
#ARTIST ""
#DESIGNER ""
#DIFFICULTY 0
#PLAYLEVEL
#SONGID ""
#WAVE ""
#WAVEOFFSET 0
#JACKET ""
#REQUEST "ticks_per_beat 480"
#00002: 4
#BPM01: 192
#00008: 01
#TIL00: ""
#HISPEED 00
#MEASUREHS 00
#00417:12121200
#00412:1212
#0041c:00120000
#01319:0013000000130000
#01312:2300131300000012
#01317:0000130013000013
#0131b:23000013
#01316:00000013
#01515:0000000000130013
#01512:00000013
#01518:0012141600001300
#01618:13000000000000000000000000000013
#01612:13
#0161b:00001300000000000013000000000000
#01615:0000000000000013
#01619:00130000
#01617:0000001300000000
#02512:13
#0251b:1300000000000013
#02516:0000000000000013
#02517:0000001300001300
#0361a:0014001424000000
#03612:0014001424000000
#03618:24240000
#03614:24240000
#02614:00000013
#02616:0000000000000013
#02612:0000000000130000
#02617:0013001300000000
#0261b:00130000
#0271b:1300001300130000
#02712:1300131300130000
#02718:0013
#02716:0013000000001300
#02717:0000000000000013
#04013:13
#04016:0013000000001300
#0401a:0013
#04019:0000130000000013
#04014:00130000
#04017:0000001300000000
#04018:1300000000130000
#0401b:00000013
#04015:0013
#0411b:1300001300130000
#04116:1313000000000000
#04112:00131300
#04117:0000001313131300
#04118:00000000000000000000000000000013
#04115:0000000000000013
#0451b:0000130013000013
#04516:13000000000000001300000000000013
#04517:0013001300130000
#04512:00001300000013000000001300000000
#04519:00000013
#04514:00000000000000000000000000130000
#06418:0000000013000000000000001313131313131313000000000000000000000000
#06418:0013000000000000
#06412:23000013000023000000000013000000
#06415:00000000001300000000130000001300
#0641b:23130023
#06419:00000000000000000000000000000000000000000000000000130000001300000013000000130000000000000000000000000000000000000000000000000000
#06417:00000000000000000000000000000000000000000000000000000013000000130000001300000013000000000000000000000000000000000000000000000000
#0641f:11
#06512:13000000130000000013000000130000
#06515:00001300000013000000001300000013
#06518:2300000023130013
#0651b:00230023
#0671b:00001212
#0671c:0000000000120000
#0671a:0000001200000012
#06719:12120000
#06718:00001200000000000012000000000000
#06715:2323
#06712:00230023
#06812:00000013000023000000000000000000
#0681b:00000000000000001300000000000000000000000000000000130000001300000013000000130000000000000000000000000000000000000000000000000000
#06818:23130023
#06815:00130000001300000000130000001300
#06819:00000000000000000000000000000000000000000000000000000013000000130000001300000013000000000000000000000000000000000000000000000000
#0681a:0000000000000000000000001313131313131313000000000000000000000000
#06915:00001300000013000000001300000000
#06912:13130023
#06918:00000000230000130000130000000000
#0691b:2323
#04412:0000130000130013
#04416:00000013
#04417:00000013000000000000130000000000
#0441b:00130000
#08915:00000016
#08918:2616260000000000
#08912:2600001626000000
#00319:0012000000000000
#00317:00120000
#00315:0000001200000000
#0031a:0012
#00318:0000000000120000
#00316:00000012
#00314:0000000000000012
#00516:0000000000131300
#00512:2300000013000013
#0051b:0013001300000000
#00517:23130000
#0061b:1300000000000013
#00612:0000000000130000
#00614:00000013
#00616:1300000000000013
#00617:0000130000130000
#00619:00000013
#09917:12121200
#09912:1200122c
#0991c:00120000
#09916:0000000000140000
#09914:00000000000000000000001800000000
#09818:0012000000120000
#0981a:00121200
#0981c:0000001200000000
#09816:00000012
#09814:0000000000000012
#02017:00000012
#0201b:23232300
#02012:23232300
#00115:0013001323002300
#00112:2300230000130013
#0011b:00130000001300000013000000130000
#00118:00000013000000130000001300000013
#03915:2600000026000013
#03912:00260013
#0391b:1313000013000000
#03918:0000131300000000
#0481a:13
#04817:0013000000001300
#04813:0013
#04814:0000130000000013
#04819:00130000
#04816:0000001300000000
#04815:1300000000130000
#04812:00000013
#04818:0013
#04912:13000000000013000000130000000013
#04917:1313000000000000
#0491b:00131300
#04916:0000001313131300
#04918:0000000000000013
#04718:0000260000000013
#0471b:0013000000001300
#04712:13131300
#04715:2600001326000000
#04212:0000231600002316
#04218:0016000000160000
#04215:16161616
#0421b:2323
#04318:0016000000130000
#04312:0000231600000000
#04315:16161613
#04317:0000000000000013
#04316:00000000000000000000000000000015
#0431b:2323
#05316:0013001300130000
#0531b:00001300000013000000001300000000
#05314:00000013
#05319:00000000000000000000000000130000
#05312:0000130013000013
#05317:13000000000000001300000000000013
#0541b:00130000000000000013001300000000
#05415:00001300001300001300000013000013
#05418:00000013000000130000130000130000
#05412:2300131300000013
#0521b:1300130000130013
#05217:00000013
#05216:0000000000130000
#05218:0013001300000000
#05212:0000001300000000
#05215:13130000
#03316:00160000000022000000000000160000
#03318:22000000001600000016000022000000
#03312:00000016000000000000001600000000
#03314:00002200000000160000220000000000
#0331a:00222200
#05512:2616260000000013
#05518:26000000000016002600000000130000
#05515:00000000000000000000000013000013
#05614:00000000000000001400000000000000000000000000000000000000000000000000000000000000000000000000000000000000000000130000130013000000
#05618:16000000000000000000000000000000000000130000130013000000001300000000000000000000140000000000000000130000000000000000000000000000
#05612:00000000000000000000000000000000120000000000000000000000000000001600000000000000000000000000000000000000000000000000000000000013
#05615:00000000000000000000000000000000001300000000000000000000000000000000000000000000000000000000000000000013000013001300000000130000
#05617:00000000000000000000000000000000000013001300000000130000000000000000000000000000000000000000000013000000001300000000000000000000
#05616:00000000000000000000000000000000130000000013000000000000000000000000000000000000000000000000000000001300130000000013000000000000
#05613:00000000000000000000000000000000000000000000000000000000000000000000000000000000000000000000000000000000000000000000001300001300
#05619:00000000000000000000000000000000000000000000001300001300130000000000000000000000000000000000000000000000000000000000000000000000
#0561a:00000000000000000000000000000000000000000000000000000013000013000000000000000000000000000000000000000000000000000000000000000000
#0561b:00000000000000000000000000000000000000000000000000000000000000130000000000000000000000000000000000000000000000000000000000000000
#0561c:00000012
#05714:00000000000000001400000000000000000000000000000000000000000000000000000000000000000000000000000000000000000000130000130013000000
#05718:16000000000000000000000000000000000000130000130013000000001300000000000000000000140000000000000000130000000000000000000000000000
#05712:00000000000000000000000000000000120000000000000000000000000000001600000000000000000000000000000000000000000000000000000000000013
#05715:00000000000000000000000000000000001300000000000000000000000000000000000000000000000000000000000000000013000013001300000000130000
#05717:00000000000000000000000000000000000013001300000000130000000000000000000000000000000000000000000013000000001300000000000000000000
#05716:00000000000000000000000000000000130000000013000000000000000000000000000000000000000000000000000000001300130000000013000000000000
#05713:00000000000000000000000000000000000000000000000000000000000000000000000000000000000000000000000000000000000000000000001300001300
#05719:00000000000000000000000000000000000000000000001300001300130000000000000000000000000000000000000000000000000000000000000000000000
#0571a:00000000000000000000000000000000000000000000000000000013000013000000000000000000000000000000000000000000000000000000000000000000
#0571b:00000000000000000000000000000000000000000000000000000000000000130000000000000000000000000000000000000000000000000000000000000000
#0571c:00000012
#05814:00000000000000001400000000000000000000000000000000000000000000000000000000000000140000000000000000001300130000000013000000000000
#05818:16000000000000000000000000000000000000130000130013000000001300000000000000000000000000000000000016000000000000000000000000000013
#05812:00000000000000000000000000000000120000000000000000000000000000001200000000000000000000000000000000130000000000000000000000000000
#0581b:00000000000000000000000000000000001300000000000000000000000000000000000000000000000000000000000000000000000000000000000000000000
#0581a:00000000000000000000000000000000130000000013000000000000000000000000000000000000000000000000000000000000000000000000000000000000
#05817:00000000000000000000000000000000000000000000001300001300130000000000000000000000000000000000000000000000000000000000001300001300
#05819:00000000000000000000000000000000000013001300000000130000000000000000000000000000000000000000000000000000000000000000000000000000
#05816:00000000000000000000000000000000000000000000000000000013000013000000000000000000000000000000000000000000000000130000130013000000
#05815:00000000000000000000000000000000000000000000000000000000000000130000000000000000000000000000000000000013000013001300000000130000
#05813:00000000000000000000000000000000000000000000000000000000000000000000000000000000000000000000000013000000001300000000000000000000
#0591b:00000000000000000000000000000000001300000000000000000000000000000000000000000000000000000000000000000000000000000000000000000000
#05918:00000000000000001400000000000000000000130000130013000000001300000000000000000000000000000000000016000000000000000000000000000000
#0591a:00000000000000000000000000000000130000000013000000000000000000000000000000000000000000000000000000000000000000000000000000000000
#05917:00000000000000000000000000000000000000000000001300001300130000000000000000000000000000000000000000000000000000000000000000000000
#05919:00000000000000000000000000000000000013001300000000130000000000000000000000000000000000000000000000000000000000000000000000000000
#05916:00000000000000000000000000000000000000000000000000000013000013000000000000000000000000000000000000000000000000000000000000000000
#05915:00000000000000000000000000000000000000000000000000000000000000130000000000000000000000000000000000000000000000000000000013000000
#0591c:12
#05912:0000160012000013
#05914:0000000000140000
#03112:13131300
#03117:13131300
#03116:0013001300000000
#0311b:0013001300000000
#02912:15151500
#02919:0015001500000000
#02917:0015
#02918:15150000
#02913:0015001500000000
#03012:14141400
#03017:14141400
#03015:0014001400000000
#0301a:0014001400000000
#03213:12121200
#03217:1212121212000000
#0321b:0012001200000000
#06018:160000000000000000000000000000000000000000000000000000130013000000001300000013000000001300130000000000000000000000000000140000000000000000000000000000000000000000000000000000000000000000000000
#06012:00121613
#06014:000000000000000000000000140000000000000000000000000000000000000000000000000000000000000000000000000000000000000000000000000000000000000000000000001300000000130000000000000000000000130000000013
#0601c:00000012
#06019:000000000000000000000000000000000000000000000000001300000000130000000000000000000000130000000013000000000000000000000000000000000000000000000000000000000000000000000000000000000000000000000000
#0601a:000000000000000000000000001300000000000000000013000000000000000000000000000000000000000000000000
#06017:000000000000000000000000000000000000000000000000000000001300001300130013001300130013000013000000000000000000000000000000000000000000000000000000000000000000000013000000130000001300000000000000
#06016:000000000000000000000000000000000000000000000000000000000000000013000000130000001300000000000000000000000000000000000000000000000000000000000000000000001300001300130013001300130013000013000000
#0601b:00130000
#06013:000000000000000000000000000000000000000000000000000000000000000000000000001300000000000000000013
#06015:000000000000000000000000000000000000000000000000000000000000000000000000000000000000000000000000000000000000000000000000000000000000000000000000000000130013000000001300000013000000001300130000
#06118:160000000000000000000000000000000000000000000000000000130013000000001300000013000000001300130000000000000000000000000000140000000000000000000000000000000000000000000000000000000000000000000000
#06114:000000000000000000000000140000000000000000000000000000000000000000000000000000000000000000000000000000000000000000000000000000000000000000000000001300000000130000000000000000000000130000000013
#06112:00121613
#0611c:00000012
#06119:000000000000000000000000000000000000000000000000001300000000130000000000000000000000130000000013000000000000000000000000000000000000000000000000000000000000000000000000000000000000000000000000
#0611a:000000000000000000000000001300000000000000000013000000000000000000000000000000000000000000000000
#06117:000000000000000000000000000000000000000000000000000000001300001300130013001300130013000013000000000000000000000000000000000000000000000000000000000000000000000013000000130000001300000000000000
#06116:000000000000000000000000000000000000000000000000000000000000000013000000130000001300000000000000000000000000000000000000000000000000000000000000000000001300001300130013001300130013000013000000
#0611b:00130000
#06113:000000000000000000000000000000000000000000000000000000000000000000000000001300000000000000000013
#06115:000000000000000000000000000000000000000000000000000000000000000000000000000000000000000000000000000000000000000000000000000000000000000000000000000000130013000000001300000013000000001300130000
#0621c:12
#06215:000000000000000000000000160000000000000000000000000000000000000000000000000000000000000000000000000000000000000000000000160000000000000000000000001300000000130000000000000000000000130000000013
#06212:000000000000140000000000120000000000000013131300
#0621a:000000000000000000000000000000000000000000000000000000001300001300130013001300130013000013000000000000000000000000000000000000000000000000000000140000000000000000000000000000000000000000000000
#06218:000000000000000000000000000000000000000000000000001300000000130000000000000000000000130000000013000000000000000000000000000000000000000000000000000000000000000000000000000000000000000000000000
#06217:000000000000000000000000001300000000000000000013000000000000000000000000130000000000000000000000
#06219:000000000000000000000000000000000000000000000000000000130013000000001300000013000000001300130000000000000000000000000000000000000000000000000000000000000000000000000000000000000000000000000000
#0621b:000000000000000013131300000000000000000000000000
#06216:000000000000000000000000130000000000000000000000000000000000000000000000001300000000000000000013
#06213:000000000000000000000000000000000000000000000000000000000000000000000000000000000000000000000000000000000000000000000000000000000000000000000000000000001300001300130013001300130013000013000000
#06214:000000000000000000000000000000000000000000000000000000000000000000000000000000000000000000000000000000000000000000000000000000000000000000000000000000130013000000001300000013000000001300130000
#0631c:12
#06312:00141200
#06315:00001600000000000000160000000013
#0631a:000000000000000000000000000000000000000000000000000000001300001300130013001300130013000013000000000000000000000000000000000000000000000000000000140000000000000000000000000000000000000000000000
#06318:000000000000000000000000000000000000000000000000001300000000130000000000000000000000130000000013000000000000000000000000000000000000000000000000000000000000000000000000130000000000000000000000
#06317:000000000000000000000000001300000000000000000013000000000000000000000000000000000000000000000000
#06319:000000000000000000000000000000000000000000000000000000130013000000001300000013000000001300130000000000000000000000000000000000000000000000000000000000000000000000000000000000000000000000000000
#0631b:000000000000000013131300000000000000000000000000
#06316:00130000
#07118:0000000000001313
#07115:00000000000000000000000000130013
#07116:0014001400000000
#07112:2424
#0711a:00242400
#07012:00000013000000130000001300000013
#07018:0013001300130013
#07015:00130000001300000013000000130000
#0701b:13131313
#00215:0013001323002300
#00212:2300230000130013
#00218:00130000001300000013000000130000
#0021b:00000013000000130000001300000013
#05118:1600230016000013
#05112:0000160000130013
#0511b:00000013
#05115:2316001623000000
#02819:00000013
#0281b:1300000000000013
#02816:13000000000013000000000000000013
#02812:00000000000000001300001300000000
#02817:0013130000130000
#02814:00000000000000000000000000130000
#06615:0000000013000000000000001313131313131313000000000000000000000000
#06615:0013000000000000
#0661b:23000013000023000000000012000000
#0661a:0000000000000012
#0661c:0000000000120000
#06612:23130023
#06618:00000000001300000000000000000000
#06614:00000000000000000000000000000000000000000000000000130000001300000013000000130000000000000000000000000000000000000000000000000000
#06616:00000000000000000000000000000000000000000000000000000013000000130000001300000013000000000000000000000000000000000000000000000000
#0721b:00130013
#07212:1300260013000013
#07218:2600001326000013
#07216:0000000000130000
#07215:0013000000000000
#0721f:21
#07414:1300000013000013
#07417:0013001300001300
#07419:1313
#07416:00130000
#07415:0000000000130000
#0741b:00130000
#07412:00000013
#07816:0000000000130013
#07812:00130013
#0781b:0000130000130000
#07817:00000013000000000000000000000000
#07315:0000001300000013
#07312:26132613
#0731b:1313
#07317:0000000000130000
#07318:0013260000000000
#07310:41
#07717:0000000000000013
#07716:00000000000000000000000000000015
#07718:0016231600130000
#07712:16161600
#07715:00000013
#0771b:2323
#0791b:0000000000130000
#07916:00000000130000000000001300000000
#07919:00000013000013000000000013000000
#07914:00001300000000130000000000130000
#07917:00130000000000001300000000001300
#07912:13000000000000000000000000000013
#07517:00131300
#07512:0000001300130000
#0751b:13001313
#07518:00000000000013000000130000000013
#07516:1313000000000000
#07515:0000000000000013
#07618:0016231600162316
#07612:16161616
#0761b:2323
#08016:00000013
#08017:0000000000130013
#08012:2600000026130013
#0801b:1313
#08018:0013261300000000
#08015:00130000
#08219:1300000013000013
#08216:0013001300001300
#08214:1313
#08217:00130000
#08218:0000000000130000
#08212:00130000
#0821b:00000013
#08118:2600130026000013
#08117:00000013
#08112:13261300
#08116:0000000000130000
#0811b:0000000000130000
#08115:0013001300000000
#08316:00130000
#0831b:00001300000013000000001300000013
#08315:0000001300130013
#08312:13001313
#08317:1313000000000000
#08318:00000000000000000013000000130000
#08412:2316001623160016
#08418:16161616
#08415:00230023
#08410:41
#08512:2316001623000000
#08518:16161613
#08515:0000230000130013
#0851b:0000000000000013
#08717:0013001300130000
#08712:00001300000013000000001300000000
#08719:00000013
#08714:00000000000000000000000000130000
#0871b:0000130013000013
#08716:13000000000000001300000000000013
#08812:00130000000000000013001300000000
#08818:00001300001300001300000013000013
#08815:00000013000000130000130000130000
#0881b:2300131300000013
#08612:1300130000130013
#08616:00000013
#08617:0000000000130000
#08615:0013001300000000
#0861b:0000001300000000
#08618:13130000
#00717:0000000000131300
#0071b:0000000013000013
#00712:0013001300000000
#00716:00130000
#00812:1300000000131300
#00816:0000130000000013
#00817:13000013
#0081b:0000000000130013
#0101b:1300000000130000
#01019:00000013
#01017:0000000000000013
#01016:1313000000130000
#01014:00000013
#01012:0000130000000013
#0091b:0000000000131300
#00917:2300000013000013
#00916:0013001300000000
#00912:23130000
#00910:41
#01112:0000000000131300
#01116:0000000013000013
#01117:0013001300000000
#0111b:00130000
#01212:1300000000130013
#01216:00000013
#0121b:0000130000131300
#01217:1313000000000013
#01417:0012000000000000
#0141b:13
#01412:0000130000000016
#01416:0000001300120000
#01414:00000014
#01714:0013000000130000
#0171b:1300131300000000
#01716:0000130013000013
#01712:13000013
#01717:00000013
#01812:13
#0181b:00130000
#01817:0000001300000000
#01818:0000000000121416
#01916:0012000000000000
#01914:00140000
#01912:00000000000016000000000000130000
#0191b:00000013
#01918:0000000000130013
#01915:00000000000000000000000000000013
#0241b:13000013
#02412:13131300
#02417:0013131300000000
#02415:000000000000000000000000000000000000000000000000000000000000000000000000000012000000000000130000
#02418:0000000000000013
#02416:0000000000120000
#02413:000000000000000000000000000000000012000000000000
#02414:00000012
#02212:0000130000161412
#02216:0013001300000000
#02312:0012141600000000
#02318:0000000000130013
#0231b:00000013
#02315:00000013
#02112:2300000000000013
#02117:0000000000000013
#02116:0000001300001300
#0211b:23
#02110:41
#09012:2319161300000000
#09018:0000001300160000
#09015:0019
#0901c:0000000000000012
#0901a:00000014
#0901b:23
#09116:0000000000140000
#0911a:0000000000000014
#09117:13
#09112:13
#09215:0019001300000000
#0921b:0000001300000000
#09212:0000000019161412
#09218:00160000
#09316:1300000000000014
#0931b:13
#0931a:0000000000140000
#09415:0019161300160000
#0941b:2300001300000000
#09412:2319
#09419:0000000000000012
#09417:00000014
#09516:1300000000140000
#09512:0013000000000014
#0951b:13130000
#09517:0013000000000000
#09712:1300130000140000
#09716:0013000000000014
#09717:13
#0971b:0013000000000000
#09612:0019001300000000
#09615:0000160019161412
#09618:0000001300000000
#03812:1313000013000013
#03815:2600131326000000
#0381b:00000013
#03817:0000000000000013
#03818:00260000
#03810:41
#04612:0013260000001300
#0461b:1300130013000013
#04618:0000001300000000
#04616:0000000000000013
#04615:2626
#0341b:0000000000001313
#03412:0000000000001313
#03419:12140000000000001214000000000000
#03417:12000000121400001200000000000000
#03415:00140000120000000014000000000000
#03413:00000000001400000000000000000000
#03512:00000013000000000000001600000000
#03515:00000000001400000013000000000000
#03513:00000000000000120000000000000000
#03514:0000001500000000000000000000000000000000000000000000001500000000
#03517:0000000000000000000000000000000000150000000000000000000000000000
#0351a:0014000000240000
#0351c:0000000000000012
#03518:22000023
#0351b:0000002300000000
#03519:00222100
#03516:00210000000000000000000000210000
#05012:00160016
#05018:16231623
#05015:2316001623160016
#05010:41
#01455:0012000000000000
#01457:0052000000000000
#0145a:0000001200000000
#01452:0000000000000016
#01352:0000000000000052
#0415b:63
#04156:3323000000000000
#04152:00535333
#04157:0000002300233300
#09952:0000004c
#02752:0000000000530000
#02756:00000023
#04556:63
#04552:0023000000000000
#04952:53
#04957:4323000000000000
#0495b:00636343
#04956:0000002300234300
#04255:36463646
#04355:36463600
#04357:0000000000000063
#04356:00000000000000000000000000000025
#0535b:0023000000000000
#05357:53
#05558:6600462646000000
#05552:3626560036000000
#05452:13
#04455:0000004300000000
#04458:0000003300000000
#0445b:00230000
#04457:00000053000000000000000000000000
#04452:00230000
#03356:00260000000052000000000000260000
#03358:52000000002600000026000052000000
#0335a:00525200
#03352:00000026000000000000002600000000
#03354:00005200000000260000520000000000
#03658:44
#0365a:0044
#03654:00340000
#03652:0034
#05658:00000000000000000000000000000000000000230000630063000000002300000000000000000000000000000000000000230000000000000000000000000000
#05655:00000000000000000000000000000000002300000000000000000000000000000000000000000000000000000000000000000023000053005300000000230000
#05657:00000000000000000000000000000000000063006300000000230000000000000000000000000000000000000000000053000000002300000000000000000000
#05654:00000000000000000000000000000000000000000000000000000000000000000000000000000000000000000000000000000000000000230000530053000000
#05656:00000000000000000000000000000000630000000023000000000000000000000000000000000000000000000000000000005300530000000023000000000000
#05653:00000000000000000000000000000000000000000000000000000000000000000000000000000000000000000000000000000000000000000000002300005300
#05652:00000000000000000000000000000000000000000000000000000000000000000000000000000000000000000000000000000000000000000000000000000023
#05659:00000000000000000000000000000000000000000000002300006300630000000000000000000000000000000000000000000000000000000000000000000000
#0565a:00000000000000000000000000000000000000000000000000000023000063000000000000000000000000000000000000000000000000000000000000000000
#0565b:00000000000000000000000000000000000000000000000000000000000000230000000000000000000000000000000000000000000000000000000000000000
#05758:00000000000000000000000000000000000000230000630063000000002300000000000000000000000000000000000000230000000000000000000000000000
#05755:00000000000000000000000000000000002300000000000000000000000000000000000000000000000000000000000000000023000053005300000000230000
#05757:00000000000000000000000000000000000063006300000000230000000000000000000000000000000000000000000053000000002300000000000000000000
#05754:00000000000000000000000000000000000000000000000000000000000000000000000000000000000000000000000000000000000000230000530053000000
#05756:00000000000000000000000000000000630000000023000000000000000000000000000000000000000000000000000000005300530000000023000000000000
#05753:00000000000000000000000000000000000000000000000000000000000000000000000000000000000000000000000000000000000000000000002300005300
#05752:00000000000000000000000000000000000000000000000000000000000000000000000000000000000000000000000000000000000000000000000000000023
#05759:00000000000000000000000000000000000000000000002300006300630000000000000000000000000000000000000000000000000000000000000000000000
#0575a:00000000000000000000000000000000000000000000000000000023000063000000000000000000000000000000000000000000000000000000000000000000
#0575b:00000000000000000000000000000000000000000000000000000000000000230000000000000000000000000000000000000000000000000000000000000000
#0585b:00000000000000000000000000000000002300000000000000000000000000000000000000000000000000000000000000000000000000000000000000000000
#05858:00000000000000000000000000000000000000230000530053000000002300000000000000000000000000000000000000000000000000000000000000000023
#0585a:00000000000000000000000000000000530000000023000000000000000000000000000000000000000000000000000000000000000000000000000000000000
#05857:00000000000000000000000000000000000000000000002300005300530000000000000000000000000000000000000000000000000000000000002300006300
#05859:00000000000000000000000000000000000053005300000000230000000000000000000000000000000000000000000000000000000000000000000000000000
#05856:00000000000000000000000000000000000000000000000000000023000053000000000000000000000000000000000000000000000000230000630063000000
#05855:00000000000000000000000000000000000000000000000000000000000000230000000000000000000000000000000000000023000063006300000000230000
#05852:00000000000000000000000000000000000000000000000000000000000000000000000000000000000000000000000000230000000000000000000000000000
#05853:00000000000000000000000000000000000000000000000000000000000000000000000000000000000000000000000063000000002300000000000000000000
#05854:00000000000000000000000000000000000000000000000000000000000000000000000000000000000000000000000000006300630000000023000000000000
#0595b:00000000000000000000000000000000002300000000000000000000000000000000000000000000000000000000000000000000000000000000000000000000
#05958:00000000000000000000000000000000000000230000530053000000002300000000000000000000000000000000000000000000000000000000000000000000
#0595a:00000000000000000000000000000000530000000023000000000000000000000000000000000000000000000000000000000000000000000000000000000000
#05957:00000000000000000000000000000000000000000000002300005300530000000000000000000000000000000000000000000000000000000000000000000000
#05959:00000000000000000000000000000000000053005300000000230000000000000000000000000000000000000000000000000000000000000000000000000000
#05956:00000000000000000000000000000000000000000000000000000023000053000000000000000000000000000000000000000000000000000000000000000000
#05955:00000000000000000000000000000000000000000000000000000000000000230000000000000000000000000000000000000000000000000000000000000000
#03157:0023
#03152:0023
#03156:00000043
#0315b:00000043
#02957:0025
#02959:00000045
#02952:0025
#02954:00000045
#03052:0024
#03057:0024
#0305a:00000044
#03055:00000044
#03253:0022
#03257:00002242
#0325b:00000042
#05252:0000003300000000
#05258:0000004300000000
#06059:000000000000000000000000000000000000000000000000002300000000230000000000000000000000230000000023000000000000000000000000000000000000000000000000000000000000000000000000000000000000000000000000
#0605a:000000000000000000000000002300000000000000000023000000000000000000000000000000000000000000000000
#06057:000000000000000000000000000000000000000000000000000000002300005300530053005300530053000023000000000000000000000000000000000000000000000000000000000000000000000023000000230000002300000000000000
#06058:000000000000000000000000000000000000000000000000000000530053000000005300000023000000005300530000000000000000000000000000000000000000000000000000000000000000000000000000000000000000000000000000
#06056:000000000000000000000000000000000000000000000000000000000000000023000000230000002300000000000000000000000000000000000000000000000000000000000000000000002300006300630063006300630063000023000000
#0605b:00530000
#06054:000000000000000000000000000000000000000000000000000000000000000000000000000000000000000000000000000000000000000000000000000000000000000000000000002300000000230000000000000000000000230000000023
#06053:000000000000000000000000000000000000000000000000000000000000000000000000002300000000000000000023
#06055:000000000000000000000000000000000000000000000000000000000000000000000000000000000000000000000000000000000000000000000000000000000000000000000000000000630063000000006300000023000000006300630000
#06052:00000063
#06159:000000000000000000000000000000000000000000000000002300000000230000000000000000000000230000000023000000000000000000000000000000000000000000000000000000000000000000000000000000000000000000000000
#0615a:000000000000000000000000002300000000000000000023000000000000000000000000000000000000000000000000
#06157:000000000000000000000000000000000000000000000000000000002300005300530053005300530053000023000000000000000000000000000000000000000000000000000000000000000000000023000000230000002300000000000000
#06158:000000000000000000000000000000000000000000000000000000530053000000005300000023000000005300530000000000000000000000000000000000000000000000000000000000000000000000000000000000000000000000000000
#06156:000000000000000000000000000000000000000000000000000000000000000023000000230000002300000000000000000000000000000000000000000000000000000000000000000000002300006300630063006300630063000023000000
#0615b:00530000
#06154:000000000000000000000000000000000000000000000000000000000000000000000000000000000000000000000000000000000000000000000000000000000000000000000000002300000000230000000000000000000000230000000023
#06153:000000000000000000000000000000000000000000000000000000000000000000000000002300000000000000000023
#06155:000000000000000000000000000000000000000000000000000000000000000000000000000000000000000000000000000000000000000000000000000000000000000000000000000000630063000000006300000023000000006300630000
#06152:00000063
#06258:000000000000000000000000000000000000000000000000002300000000230000000000000000000000230000000023000000000000000000000000000000000000000000000000000000000000000000000000000000000000000000000000
#06257:000000000000000000000000002300000000000000000023000000000000000000000000530000000000000000000000
#0625a:000000000000000000000000000000000000000000000000000000002300006300630063006300630063000023000000000000000000000000000000000000000000000000000000000000000000000000000000000000000000000000000000
#06259:000000000000000000000000000000000000000000000000000000630063000000006300000023000000006300630000000000000000000000000000000000000000000000000000000000000000000000000000000000000000000000000000
#0625b:000000000000000023232300000000000000000000000000
#06256:000000000000000000000000630000000000000000000000000000000000000000000000002300000000000000000023
#06255:000000000000000000000000000000000000000000000000000000000000000000000000000000000000000000000000000000000000000000000000000000000000000000000000002300000000230000000000000000000000230000000023
#06253:000000000000000000000000000000000000000000000000000000000000000000000000000000000000000000000000000000000000000000000000000000000000000000000000000000002300005300530053005300530053000023000000
#06254:000000000000000000000000000000000000000000000000000000000000000000000000000000000000000000000000000000000000000000000000000000000000000000000000000000530053000000005300000023000000005300530000
#06252:000000000000000000000000000000000000000023232300
#06358:000000000000000000000000000000000000000000000000002300000000230000000000000000000000230000000023000000000000000000000000000000000000000000000000000000000000000000000000000000000000000000000000
#06357:000000000000000000000000002300000000000000000023000000000000000000000000000000000000000000000000
#0635a:000000000000000000000000000000000000000000000000000000002300006300630063006300630063000023000000000000000000000000000000000000000000000000000000000000000000000000000000000000000000000000000000
#06359:000000000000000000000000000000000000000000000000000000630063000000006300000023000000006300630000000000000000000000000000000000000000000000000000000000000000000000000000000000000000000000000000
#0635b:000000000000000023232300000000000000000000000000
#06356:00630000
#02857:00530000
#02856:63
#06459:00000000000000000000000000000000000000000000000000230000002300000023000000230000000000000000000000000000000000000000000000000000
#06457:00000000000000000000000000000000000000000000000000000023000000230000002300000023000000000000000000000000000000000000000000000000
#06458:0000000000000000000000005353535353535353000000000000000000000000
#06452:0000003300000000
#06654:00000000000000000000000000000000000000000000000000230000002300000023000000230000000000000000000000000000000000000000000000000000
#06656:00000000000000000000000000000000000000000000000000000023000000230000002300000023000000000000000000000000000000000000000000000000
#06655:0000000000000000000000006363636363636363000000000000000000000000
#0665b:0000004300000000
#0685b:00000000000000000000000000000000000000000000000000230000002300000023000000230000000000000000000000000000000000000000000000000000
#06859:00000000000000000000000000000000000000000000000000000023000000230000002300000023000000000000000000000000000000000000000000000000
#0685a:0000000000000000000000005353535353535353000000000000000000000000
#06852:0000003300000000
#06952:00000033
#07252:00365300
#07258:4646
#07256:0000000000230000
#0785b:00230000
#07857:00000053000000000000000000000000
#07852:00230000
#07855:0000004300000000
#07858:0000003300000000
#07757:0000000000000063
#07756:00000000000000000000000000000025
#07752:36463600
#07557:00636343
#07552:0000002300230000
#0755b:63000043
#07556:3323000000000000
#07652:36463646
#0735b:0063
#07357:0000000000230000
#07352:3636
#07358:00460000
#08356:00530000
#0835b:0000002300000000
#08352:53
#08357:4323000000000000
#08458:46364636
#08558:46364600
#08052:3636
#0805b:0063
#08057:0000000000230000
#08058:00460000
#08152:00365300
#08156:0000000000230000
#08158:4646
#08752:0023000000000000
#08756:63
#08655:0000003300000000
#0865b:0000004300000000
#08958:4626660046000000
#08952:5600362636000000
#0885b:13
#00656:63
#00652:00130000
#00657:00130000
#00857:53
#0085b:00130000
#00856:00130000
#0105b:63430000
#01056:0023000000000000
#01052:00330000
#01558:0000001600000000
#01858:0000000000000016
#0185b:0013000000000000
#01852:0000001500000000
#01952:0000001600000000
#02258:0000000000000016
#02256:0000001300000000
#02352:0000001600000000
#02157:0000000000000053
#02556:0000000000000063
#02657:0000001300000000
#02457:0000005300000000
#02455:000000000000000000000000000000000000002200000000
#02456:0000000000620000
#02453:000000000000000000000000000000000022000000000000
#02454:00000062
#09157:53
#09152:53
#0915b:00330000
#09156:00330000
#09356:63
#0935b:63
#09352:00430000
#09357:00430000
#09556:63430000
#09552:0023000000000000
#0955b:00430000
#01252:53330000
#01257:0023000000000000
#0125b:00430000
#09757:53330000
#0975b:0023000000000000
#09752:00330000
#03852:0053
#03858:00360000
#03855:4646
#0465b:0063
#04655:3636
#04652:00460000
#04752:0053
#04755:4646
#04758:00360000
#03554:0000002500000000000000000000000000000000000000000000002500000000
#03557:0000000000000000000000000000000000250000000000000000000000000000
#03556:00510000000000000000000000510000
#03559:0061
#03459:52240000000000005224000000000000
#03457:62000000522400006200000000000000
#03455:00240000620000000024000000000000
#03453:00000000002400000000000000000000
#0395b:0063
#03952:00460000
#03955:3636
#01657:0000005300000000
#0165b:00000000000000000023000000000000
#05152:00360000
#05158:4646
#05052:00360036
#05058:4646
#005360:0013002300000000
#005320:00330000
#005370:0000000013000023
#0053b0:0000000000333300
#006360:13
#006320:00230000
#007370:0013002300000000
#0073b0:00330000
#007360:0000000013000023
#007320:0000000000333300
#008370:13
#0083b0:00230000
#0093b0:0013002300000000
#009370:00330000
#009320:0000000013000023
#009360:0000000000333300
#0103b0:13230000
#010360:0053000000000000
#011320:0013002300000000
#011360:00330000
#0113b0:0000000013000023
#011370:0000000000333300
#012320:13230000
#012370:0053000000000000
#013320:0000000000000012
#014350:000000000000000000000000000000000000000000000000000000000000000000000000000000000000000000000000000000000000000000000052000000000000000000000000000000000000000000000000000000000000000000000000000000000000000000000000000000000000000000000000220000000000000000000000000000000000000000000000000000000000000000000000000000000000000000000000000000000000000000000000000000000000000000000000000000000000000000000000000000000000000000000000000000000000000000000000000000000000000000000000000000000000000000000000000000000000000000000000000000000000000000000000000000000000000000000000000000000000000000000000000000000000000000000000000000000000000000000000000000000000000000000000000000000000000000000000000000000000000000000000000000000000000000000000000000000000000000000000000000000000000000000000000000000000000000000000000000000000000000000000000000000000000000000000000000000000000000000000000000000000000000000000000000000000000000000000000000000000000000000000000000000000000000000000000000000000000000000000000000000000000000000000000000000000000000000000000000000000000000000000000000000000000000000000000000000000000000000000000000000000000000000000000000000000000000000000000000000000000000000000000000000000000000000000000000000000000000000000000000000000000000000000000000000000000000000000000000000000000000000000000000000000000000000000000000000000000000000000000000000000000000000000000000000000000000000000000000000000000000000000000000000000000000000000000000000000000000000000000000000000000000000000000000000000000000000000000000000000000000000000000000000000000000000000000000000000000000000000000000000000000000000000000000000000000000000000000000000000000000000000000000000000000000000000000000000000000000000000000000000000000000000000000000000000000000000000000000000000000000000000000000000000000000000000000000000000000000000000000000000000000000000000000000000000000000000000000000000000000000000000
#014330:00560000000000000000000000000000
#014371:0012000000000000
#0143a1:000000000000000000000000000000000000000000000000000000000000000000000000000000000000000000000000000000000000000000000000000000000000000000000000000000000000000000000000000000000000000000000000000000000000000000000000000000000000000000000000000000000000000000000000000000000000000000000000000000000000000000000000000000000000000000000000000000000000000000000000000000000000000000000000000000000000000000000000000000000000000000000000000000000000000000000000000000000000000000000000000000000000000000000000000000000000000000000000000000000000000000000000000000000000000000000000000000000000000000000052000000000000000000000000000000000000000000000000000000000000000000000000000000000000000000000000000000000000000000000000220000000000000000000000000000000000000000000000000000000000000000000000000000000000000000000000000000000000000000000000000000000000000000000000000000000000000000000000000000000000000000000000000000000000000000000000000000000000000000000000000000000000000000000000000000000000000000000000000000000000000000000000000000000000000000000000000000000000000000000000000000000000000000000000000000000000000000000000000000000000000000000000000000000000000000000000000000000000000000000000000000000000000000000000000000000000000000000000000000000000000000000000000000000000000000000000000000000000000000000000000000000000000000000000000000000000000000000000000000000000000000000000000000000000000000000000000000000000000000000000000000000000000000000000000000000000000000000000000000000000000000000000000000000000000000000000000000000000000000000000000000000000000000000000000000000000000000000000000000000000000000000000000000000000000000000000000000000000000000000000000000000000000000000000000000000000000000000000000000000000000000000000000000000000000000000000000000000000000000000000000000000000000000000000000000000000000000000000000000000000000000000000000000000000000000000000000000000000000000000000
#014381:00000000005600000000000000000000
#014381:0000000000120026
#015321:0016000000000000
#015361:0000002200000000
#016361:0012320000000000
#016341:0000003232000000
#016321:0000000000322200
#016370:0000001300002300
#0163b0:00000000000000000053000000000000
#017390:00000000000000000000000000001555
#0173b0:000000000000000000000000000000000000000000000000000000000000000000000000000000000000000000000000000000000000000000000000000000000000000000000000000000000000000000000000000000000000000000000000000000000000000000000000000000000000000000000000000000000000000000000000000000000000000000000000000000000000000000000000000000000000000000000000000000000000000000000000000000000000000000000000000000000000000000000000000000000000000000000000000000000000000000000000000000000000000000000000000000000000000000000000000000000000000000000000000000000000000000000000000000000000000000000000000000000000000000000000000000000000000000000000000000000000000000000000000000000000000000000000000000000000000000000000000000000000000000000000000000000000000000000000000000000000000000000000000000000000000000000000000000000000000000000000000000000000000000000000000000000000000000000000000000000000000000000000000000000000000000000000000000000000000000000000000000000000000000000000000000000000000000000000000000000000000000000000000000000000000000000000000000000000000000000000000000000000000000000000000000000000000000000000000000000000000000000000000000000000000000000000000000000000000000000000000000000000000000000000000000000000000000000000000000000000000000000000000000000000000000000000000000000000000000000000000000000000000000000000000000000000000000000000000000000000000000000000000000000000000000000000000000000000000000000000000000000000000000000000000000000000000000000000000000000000000000000000000000000000000000000000000000000000000000000000000000000000000000000000000000000000000000000000000000000000000000000000000000000000000000000000000000000000000000000000000000000000000000000000000000000000000000000000000000000000000000000000000000000000000000000000000000000000000000000000000000000000000000000000005300000000000000000000000000000000000000000000000000000000000000000000000000000000000000000000000000000000000000000000
#0183b0:0023000000000000
#018321:000000000000000000000000000000000000000000000000000000000000000000000000000000000000000000000000000000000000000000000000000000000000000000000000000000000000000000000000000000000000000000000000000000000000000000000000000000000000000000000000130000000000000000000000000000000000000000000000000000000000000000000000000000000000000000000000000000000000000000000000000000000000000000000000000000000000000000000000000000000000000000000000000000000000000000000000000000000000000000000000000000000000000000000000000000000000000000000000000000000000000000000000000000000000000000000000000000000000000000000053550000000000000000000000000000000000000000000000000000000000000000000000000000000000000000000000000000000000000000000000250000000000000000000000000000000000000000000000000000000000000000000000000000000000000000000000000000000000000000000000000000000000000000000000000000000000000000000000000000000000000000000000000000000000000000000000000000000000000000000000000000000000000000000000000000000000000000000000000000000000000000000000000000000000000000000000000000000000000000000000000000000000000000000000000000000000000000000000000000000000000000000000000000000000000000000000000000000000000000000000000000000000000000000000000000000000000000000000000000000000000000000000000000000000000000000000000000000000000000000000000000000000000000000000000000000000000000000000000000000000000000000000000000000000000000000000000000000000000000000000000000000000000000000000000000000000000000000000000000000000000000000000000000000000000000000000000000000000000000000000000000000000000000000000000000000000000000000000000000000000000000000000000000000000000000000000000000000000000000000000000000000000000000000000000000000000000000000000000000000000000000000000000000000000000000000000000000000000000000000000000000000000000000000000000000000000000000000000000000000000000000000000000000000000000000000000000000000000000000000000
#018361:0000000000120000
#018321:0000000000000026
#019381:0016002200000000
#020321:13
#0203b1:0023000000000000
#0203b0:13
#020320:0023000000000000
#0203b0:00130000
#020320:0000002300000000
#020321:00130000
#0203b1:0000002300000000
#0203b1:0013
#020321:0000000000230000
#020320:0013
#0203b0:0000000000230000
#021320:0013000000000000
#021360:00230000
#0213b1:0000132300000000
#021321:0000000013230000
#021370:0000000000130000
#0213b0:00000023
#021370:0000000000000013
#0223b0:0033002300000000
#022370:00330000
#0223c0:0000000000120000
#022380:0000000000000026
#023380:0016000000000000
#0233c0:0000002200000000
#024370:0000001300000000
#0243b0:0000000000230000
#024361:0000000000120000
#024331:000000000000000000000000000000000052000000000000
#024341:00000052
#024351:000000000000000000000000000000000000005200000000
#024321:0000000000000022
#0253b1:0013000000000000
#025371:00230000
#025320:0000132300000000
#0253b0:0000000013230000
#025361:0000000000130000
#025321:00000023
#025361:0000000000000013
#026321:0033002300000000
#026361:00330000
#026371:0000000000130000
#026391:00000033
#0263b1:0000000000000023
#0273b1:0013000000000000
#027371:00230000
#027321:0000000000130023
#027361:00000053
#028361:13
#028321:00230000
#028370:00130000
#0283b0:0023
#029370:0015
#029390:00000025
#029321:0015
#029341:00000025
#030371:0014
#0303a1:00000024
#030320:0014
#030350:00000024
#031370:0013
#0313b0:00000023
#031321:0013
#031361:00000023
#032371:0012
#0323b1:00000022
#032330:0012
#032370:00000022
#033380:1222000000000000
#033360:00560000000000000000000000000000
#033341:0012220000000000
#033321:00000056000000000000000000000000
#0333a0:0000122200000000
#033380:00000000005600000000000000000000
#033361:0000001222000000
#033341:00000000000000560000000000000000
#0333a0:0000000012220000
#033380:00000000000000000056000000000000
#033341:0000000000122200
#033321:00000000000000000000005600000000
#033380:0000000000001222
#033360:00000000000000000000000000560000
#034390:12542200000000000000000000000000
#034371:1222000000000000
#034351:00540000000000000000000000000000
#034351:0000122200000000
#034331:00000000005400000000000000000000
#034370:00000000125422000000000000000000
#034390:00000000000000001254220000000000
#034371:0000000012220000
#034351:00000000000000000054000000000000
#035361:00112100000000000000000000000000
#035341:0000005500000000000000000000000000000000000000000000000000000000
#035391:00000000000000001121000000000000
#035371:0000000000000000000000000000000000550000000000000000000000000000
#035361:00000000000000000000000000112100
#035341:0000000000000000000000000000000000000000000000000000005500000000
#038321:0013
#038361:00000023
#0393b1:0013
#039371:00000023
#0413b1:13230000
#041361:0053000000000000
#041320:00133323
#041370:0000005300530000
#043370:0000000000000013
#043360:00000000000000000000000000000055
#044370:23
#044370:00001353000000000000000000000000
#0443b0:00530000
#044380:0000002300000000
#044321:00130000
#044351:0000002300000000
#0443b1:00000013
#044371:0000000000000053
#0453b1:23
#045360:13230000
#045320:0053000000000000
#0463b0:0013
#046370:00000023
#047320:0013
#047360:00000023
#049320:13230000
#049370:0053000000000000
#0493b1:00133323
#049361:0000005300530000
#052321:00000013
#052361:0000000000000053
#053321:23
#053370:13230000
#0533b0:0053000000000000
#055380:16260000
#055320:0056000000000000
#055321:00162600
#055381:0000005600000000
#056361:00000000000000000000000000000000130000000053000000000000000000000000000000000000000000000000000000000000000000000000000000000000
#056351:00000000000000000000000000000000005300000000000000000000000000000000000000000000000000000000000000000000000000000000000000000000
#056371:00000000000000000000000000000000000053005300000000530000000000000000000000000000000000000000000000000000000000000000000000000000
#056381:00000000000000000000000000000000000000530000530053000000005300000000000000000000000000000000000000000000000000000000000000000000
#056391:00000000000000000000000000000000000000000000005300005300530000000000000000000000000000000000000000000000000000000000000000000000
#0563a1:00000000000000000000000000000000000000000000000000000053000053002300000000000000000000000000000000000000000000000000000000000000
#0563b1:00000000000000000000000000000000000000000000000000000000000000530000000000000000000000000000000000000000000000000000000000000000
#056371:00000000000000000000000000000000000000000000000000000000000000000000000000000000000000000000000013000000005300000000000000000000
#056381:00000000000000000000000000000000000000000000000000000000000000000000000000000000000000000000000000530000000000000000000000000000
#056361:00000000000000000000000000000000000000000000000000000000000000000000000000000000000000000000000000005300530000000053000000000000
#056351:00000000000000000000000000000000000000000000000000000000000000000000000000000000000000000000000000000053000053005300000000530000
#056341:00000000000000000000000000000000000000000000000000000000000000000000000000000000000000000000000000000000000000530000530053000000
#056331:00000000000000000000000000000000000000000000000000000000000000000000000000000000000000000000000000000000000000000000005300005300
#056321:00000000000000000000000000000000000000000000000000000000000000000000000000000000000000000000000000000000000000000000000000000053
#057331:23
#057361:00000000000000000000000000000000130000000053000000000000000000000000000000000000000000000000000000000000000000000000000000000000
#057351:00000000000000000000000000000000005300000000000000000000000000000000000000000000000000000000000000000000000000000000000000000000
#057371:00000000000000000000000000000000000053005300000000530000000000000000000000000000000000000000000000000000000000000000000000000000
#057381:00000000000000000000000000000000000000530000530053000000005300000000000000000000000000000000000000000000000000000000000000000000
#057391:00000000000000000000000000000000000000000000005300005300530000000000000000000000000000000000000000000000000000000000000000000000
#0573a1:00000000000000000000000000000000000000000000000000000053000053002300000000000000000000000000000000000000000000000000000000000000
#0573b1:00000000000000000000000000000000000000000000000000000000000000530000000000000000000000000000000000000000000000000000000000000000
#057371:00000000000000000000000000000000000000000000000000000000000000000000000000000000000000000000000013000000005300000000000000000000
#057381:00000000000000000000000000000000000000000000000000000000000000000000000000000000000000000000000000530000000000000000000000000000
#057361:00000000000000000000000000000000000000000000000000000000000000000000000000000000000000000000000000005300530000000053000000000000
#057351:00000000000000000000000000000000000000000000000000000000000000000000000000000000000000000000000000000053000053005300000000530000
#057341:00000000000000000000000000000000000000000000000000000000000000000000000000000000000000000000000000000000000000530000530053000000
#057331:00000000000000000000000000000000000000000000000000000000000000000000000000000000000000000000000000000000000000000000005300005300
#057321:00000000000000000000000000000000000000000000000000000000000000000000000000000000000000000000000000000000000000000000000000000053
#058331:23
#0583a1:00000000000000000000000000000000130000000053000000000000000000000000000000000000000000000000000000000000000000000000000000000000
#0583b1:00000000000000000000000000000000005300000000000000000000000000000000000000000000000000000000000000000000000000000000000000000000
#058391:00000000000000000000000000000000000053005300000000530000000000000000000000000000000000000000000000000000000000000000000000000000
#058381:00000000000000000000000000000000000000530000530053000000005300000000000000000000000000000000000000000000000000000000000000000000
#058371:00000000000000000000000000000000000000000000005300005300530000000000000000000000000000000000000000000000000000000000000000000000
#058361:00000000000000000000000000000000000000000000000000000053000053002300000000000000000000000000000000000000000000000000000000000000
#058351:00000000000000000000000000000000000000000000000000000000000000530000000000000000000000000000000000000000000000000000000000000000
#058331:00000000000000000000000000000000000000000000000000000000000000000000000000000000000000000000000013000000005300000000000000000000
#058321:00000000000000000000000000000000000000000000000000000000000000000000000000000000000000000000000000530000000000000000000000000000
#058341:00000000000000000000000000000000000000000000000000000000000000000000000000000000000000000000000000005300530000000053000000000000
#058351:00000000000000000000000000000000000000000000000000000000000000000000000000000000000000000000000000000053000053005300000000530000
#058361:00000000000000000000000000000000000000000000000000000000000000000000000000000000000000000000000000000000000000530000530053000000
#058371:00000000000000000000000000000000000000000000000000000000000000000000000000000000000000000000000000000000000000000000005300005300
#058381:00000000000000000000000000000000000000000000000000000000000000000000000000000000000000000000000000000000000000000000000000000053
#059371:23
#0593a1:00000000000000000000000000000000130000000053000000000000000000000000000000000000000000000000000000000000000000000000000000000000
#0593b1:00000000000000000000000000000000005300000000000000000000000000000000000000000000000000000000000000000000000000000000000000000000
#059391:00000000000000000000000000000000000053005300000000530000000000000000000000000000000000000000000000000000000000000000000000000000
#059381:00000000000000000000000000000000000000530000530053000000005300000000000000000000000000000000000000000000000000000000000000000000
#059371:00000000000000000000000000000000000000000000005300005300530000000000000000000000000000000000000000000000000000000000000000000000
#059361:00000000000000000000000000000000000000000000000000000053000053002300000000000000000000000000000000000000000000000000000000000000
#059351:00000000000000000000000000000000000000000000000000000000000000530000000000000000000000000000000000000000000000000000000000000000
#0603b1:00132300
#060391:000000000000000000000000000000000000000000000000005300000000530000000000000000000000530000000053000000000000000000000000000000000000000000000000000000000000000000000000000000000000000000000000
#0603a1:000000000000000000000000005300000000000000000053000000000000000000000000000000000000000000000000
#060381:000000000000000000000000000000000000000000000000000000530053000000005300000053000000005300530000000000000000000000000000000000000000000000000000000000000000000000000000000000000000000000000000
#060371:000000000000000000000000000000000000000000000000000000005300005300530053005300530053000053000000000000000000000000000000000000000000000000000000000000000000000000000000000000000000000000000000
#060361:000000000000000053535300000000000000000000000000
#060321:00000013
#060341:000000000000000000000000000000000000000000000000000000000000000000000000000000000000000000000000000000000000000000000000000000000000000000000000005300000000530000000000000000000000530000000053
#060331:000000000000000000000000000000000000000000000000000000000000000000000000005300000000000000000053
#060351:000000000000000000000000000000000000000000000000000000000000000000000000000000000000000000000000000000000000000000000000000000000000000000000000000000530053000000005300000053000000005300530000
#060361:000000000000000000000000000000000000000000000000000000000000000000000000000000000000000000000000000000000000000000000000000000000000000000000000000000005300005300530053005300530053000053000000
#060371:000000000000000000000000000000000000000053535300
#061321:23
#0613b1:00132300
#061391:000000000000000000000000000000000000000000000000005300000000530000000000000000000000530000000053000000000000000000000000000000000000000000000000000000000000000000000000000000000000000000000000
#0613a1:000000000000000000000000005300000000000000000053000000000000000000000000000000000000000000000000
#061381:000000000000000000000000000000000000000000000000000000530053000000005300000053000000005300530000000000000000000000000000000000000000000000000000000000000000000000000000000000000000000000000000
#061371:000000000000000000000000000000000000000000000000000000005300005300530053005300530053000053000000000000000000000000000000000000000000000000000000000000000000000000000000000000000000000000000000
#061361:000000000000000053535300000000000000000000000000
#061321:00000013
#061341:000000000000000000000000000000000000000000000000000000000000000000000000000000000000000000000000000000000000000000000000000000000000000000000000005300000000530000000000000000000000530000000053
#061331:000000000000000000000000000000000000000000000000000000000000000000000000005300000000000000000053
#061351:000000000000000000000000000000000000000000000000000000000000000000000000000000000000000000000000000000000000000000000000000000000000000000000000000000530053000000005300000053000000005300530000
#061361:000000000000000000000000000000000000000000000000000000000000000000000000000000000000000000000000000000000000000000000000000000000000000000000000000000005300005300530053005300530053000053000000
#061371:000000000000000000000000000000000000000053535300
#062321:23
#062361:00132300
#062381:000000000000000000000000000000000000000000000000005300000000530000000000000000000000530000000053000000000000000000000000000000000000000000000000000000000000000000000000000000000000000000000000
#062371:000000000000000000000000005300000000000000000053000000000000000000000000000000000000000000000000
#062391:000000000000000000000000000000000000000000000000000000530053000000005300000053000000005300530000000000000000000000000000000000000000000000000000000000000000000000000000000000000000000000000000
#0623a1:000000000000000000000000000000000000000000000000000000005300005300530053005300530053000053000000000000000000000000000000000000000000000000000000000000000000000000000000000000000000000000000000
#0623b1:000000000000000053535300000000000000000000000000
#062371:00000013
#062351:000000000000000000000000000000000000000000000000000000000000000000000000000000000000000000000000000000000000000000000000000000000000000000000000005300000000530000000000000000000000530000000053
#062361:000000000000000000000000000000000000000000000000000000000000000000000000005300000000000000000053
#062341:000000000000000000000000000000000000000000000000000000000000000000000000000000000000000000000000000000000000000000000000000000000000000000000000000000530053000000005300000053000000005300530000
#062331:000000000000000000000000000000000000000000000000000000000000000000000000000000000000000000000000000000000000000000000000000000000000000000000000000000005300005300530053005300530053000053000000
#062321:000000000000000000000000000000000000000053535300
#063371:23
#063361:00132300
#063381:000000000000000000000000000000000000000000000000005300000000530000000000000000000000530000000053000000000000000000000000000000000000000000000000000000000000000000000000000000000000000000000000
#063371:000000000000000000000000005300000000000000000053000000000000000000000000000000000000000000000000
#063391:000000000000000000000000000000000000000000000000000000530053000000005300000053000000005300530000000000000000000000000000000000000000000000000000000000000000000000000000000000000000000000000000
#0633a1:000000000000000000000000000000000000000000000000000000005300005300530053005300530053000053000000000000000000000000000000000000000000000000000000000000000000000000000000000000000000000000000000
#0633b1:000000000000000053535300000000000000000000000000
#064381:0000000000000000000000001353535353535353230000000000000000000000
#064391:00000000000000000000000000000000000000000000000000530000005300000053000000530000000000000000000000000000000000000000000000000000
#064371:00000000000000000000000000000000000000000000000000000053000000530000005300000053000000000000000000000000000000000000000000000000
#066351:0000000000000000000000001353535353535353230000000000000000000000
#066341:00000000000000000000000000000000000000000000000000530000005300000053000000530000000000000000000000000000000000000000000000000000
#066361:00000000000000000000000000000000000000000000000000000053000000530000005300000053000000000000000000000000000000000000000000000000
#0683a1:0000000000000000000000001353535353535353230000000000000000000000
#0683b1:00000000000000000000000000000000000000000000000000530000005300000053000000530000000000000000000000000000000000000000000000000000
#068391:00000000000000000000000000000000000000000000000000000053000000530000005300000053000000000000000000000000000000000000000000000000
#0713a1:1424000000000000
#071321:0000142400000000
#072321:00001323
#072361:0000000000530000
#0733b1:00001323
#073371:0000000000530000
#0753b1:13230000
#075361:0053000000000000
#075370:00133323
#075320:0000005300530000
#077370:0000000000000013
#077360:00000000000000000000000000000055
#078370:23
#078370:00001353000000000000000000000000
#0783b0:00530000
#078380:0000002300000000
#078321:00130000
#078351:0000002300000000
#078371:00000013
#0783b1:0000000000000053
#079371:23
#0803b1:00001323
#080371:0000000000530000
#081321:00001323
#081361:0000000000530000
#083321:13230000
#083371:0053000000000000
#083360:00132300
#0833b0:0000005300000000
#0863b0:00000013
#086370:0000000000000053
#0873b0:23
#087361:13230000
#087321:0053000000000000
#089321:16260000
#089381:0056000000000000
#089380:00162600
#089320:0000005600000000
#0903b0:0013230000000000
#090320:0000000013230000
#090350:0000000000001323
#091370:13
#0913b0:0053230000000000
#091321:13
#091361:0053230000000000
#0913a1:0000000000140000
#091361:00000024
#091320:00000014
#091360:0000000000000024
#092320:0013230000000000
#0923b0:0000000013230000
#092380:0000000000001323
#093360:13
#093320:0053230000000000
#0933b1:13
#093371:0053230000000000
#093361:0000000000140000
#093321:00000024
#093360:00000014
#0933a0:0000000000000024
#094320:0013230000000000
#0943b0:0000000013230000
#094320:0000000000001323
#095360:13230000
#095320:0053000000000000
#095320:0000000000140000
#095360:00000024
#0953a1:00000014
#095361:0000000000000024
#0963b1:0013230000000000
#096321:0000000013230000
#0963b1:0000000000001323
#097371:13230000
#0973b1:0053000000000000
#097361:0000000000140000
#0973a1:00000024
#097360:00000014
#097320:0000000000000024
