This file was generated by Ched 2.6.4.0.
#TITLE ""
#ARTIST ""
#DESIGNER ""
#DIFFICULTY 0
#PLAYLEVEL
#SONGID ""
#WAVE ""
#WAVEOFFSET 0
#JACKET ""
#REQUEST "ticks_per_beat 480"
#00002: 4
#BPM01: 192
#00008: 01
#TIL00: ""
#HISPEED 00
#MEASUREHS 00
#00112:00140014
#00118:1414
#00214:00140014
#0021a:1414
#00314:00001414
#00318:14140000
#00416:00140000
#0041a:14
#00412:0014
#00518:1414
#00512:00140014
#00612:00140000
#00618:14
#00614:00000014
#00714:00140014
#0071a:1414
#00814:00140000
#0081a:14
#00818:00000014
#00919:00000014
#00913:0014
#00918:00140000
#00912:14
#00910:41
#0101a:00140000
#01014:14000014
#03814:00140014
#0381a:2414
#03810:41
#03918:1414
#03912:00140000
#04012:1414
#04012:0014
#04018:00140014
#04212:1414
#04212:0014
#04218:00140014
#04314:1414
#04314:0014
#0431a:00140000
#0441a:1414
#0441a:0014
#04414:00140014
#04612:00140014
#04618:2414
#0471a:1414
#04714:00140000
#04814:1414
#04814:0014
#0481a:00140014
#05014:1414
#05014:0014
#0501a:00140014
#05010:41
#05112:1414
#05112:0014
#05118:00140000
#05218:1414
#05218:0014
#05212:00140014
#05418:1414
#05418:0014
#05414:00140014
#02118:1414
#02114:00140000
#02110:41
#02412:0014
#02418:00140000
#02414:14
#02518:0014
#02512:00140000
#0251a:14
#02214:1414
#02218:00140000
#0231a:0014
#02314:00140000
#02318:14
#02614:0014
#0261a:00140000
#02612:14
#0271a:0014
#02712:00140000
#02718:14
#02812:0014
#0281a:00140000
#02814:14
#0561a:14
#05618:00140000
#05712:14
#05714:00140000
#0581a:14
#05818:00140000
#05912:14
#05914:00140000
#06018:14
#0601a:00140000
#06114:14
#06112:00140000
#06218:14
#0621a:00140000
#06314:14
#06312:00140000
#06512:0014
#06518:00000014
#06912:0014
#0691a:00000014
#0641a:0000001400000000
#0641f:11
#06612:0000001400000000
#0681a:0000001400000000
#06817:00000000000000000000001400000000
#07014:14
#07018:00140000
#07012:0014
#0701a:00000014
#07118:0014001400000000
#07114:24242400
#07214:00140000
#07218:0014
#07212:00000014
#0721a:24
#0721f:21
#07318:14
#07314:00140000
#0731a:0014
#07310:41
#07414:14
#07412:0014
#07412:0014
#07418:00000014
#0741a:00140000
#07612:14
#07618:00140000
#07614:0014
#0761a:00000014
#08012:00140000
#08018:0014
#08014:00000014
#0801a:24
#0811a:14
#08112:00140000
#08118:0014
#08212:14
#08214:0014
#08214:0014
#0821a:00000014
#08218:00140000
#08412:14
#0841a:00140000
#08414:0014
#08418:00000014
#08410:41
#08818:1414
#08818:0014
#08814:00140014
#07714:14
#07718:00140000
#07712:0014
#07818:14
#0781a:0014
#0781a:0014
#07814:00000014
#07812:00140000
#08512:14
#0851a:00140000
#08514:0014
#0861a:14
#08618:0014
#08618:0014
#08612:00000014
#08614:00140000
#09018:0014
#09014:00140000
#0901a:14
#09012:00000014
#09114:00140000
#0911a:14000014
#09814:00140000
#0981a:14
#09819:0014
#09813:00000014
#09912:00140026
#09918:14
#09917:0014
#01113:00000014
#01119:0014
#01114:00140000
#0111a:14
#01212:00140000
#01218:14000014
#01312:1414
#01318:00140000
#0161a:1414
#01614:00140000
#01714:0014
#01718:00140000
#01712:14
#01418:1414
#01412:00140000
#01514:1414
#0151a:00140000
#01818:0014
#01814:00140000
#0181a:14
#01912:0014
#01918:00140000
#01914:14
#09214:0014
#09218:00140000
#09212:14
#0921a:00000014
#09318:00140000
#09312:14000014
#09412:0014
#09416:00140014
#0941a:14
#09512:00140000
#0951a:14000014
#0961a:0014
#09616:00140014
#09612:14
#0971a:00140000
#09712:14000014
#05519:24242400
#05513:24242400
#03612:24
#03616:00240000
#0361a:0024
#08919:24242400
#08913:24242400
#0201a:2424
#02012:00242400
#09952:00000016
#0565a:64
#05658:00240000
#05752:54
#05754:00240000
#0585a:64
#05858:00240000
#05952:54
#05954:00240000
#06058:54
#0605a:00240000
#06154:64
#06152:00240000
#06258:54
#0625a:00240000
#06354:64
#06352:00240000
#0645a:0000006400000000
#06652:0000005400000000
#0685a:0000006400000000
#06857:00000000000000000000002400000000
#0385a:14
#04658:14
#0725a:14
#0805a:14
#0293a0:1424
#030320:1424
#031380:1424
#032340:1424
#0333a0:14
#033380:0024
#034320:14
#034340:0024
#0353a0:14
#035380:0024
#041340:14240000
#0413a0:00001424
#045380:14240000
#045320:00001424
#049320:14240000
#049380:00001424
#0533a0:14240000
#053340:00001424
#0563a0:1424
#056380:00540000
#057320:1424
#057340:00540000
#0583a0:1424
#058380:00540000
#059320:1424
#059340:00540000
#060380:1424
#0603a0:00540000
#061340:1424
#061320:00540000
#062380:1424
#0623a0:00540000
#063340:1424
#063320:00540000
#0643a0:1400343400000000
#065370:24
#066320:1434343400000000
#067350:24
#0683a0:1400343400000000
#068370:00000000000000000000005400000000
#0693a0:24
#075320:14
#075340:00240000
#075380:0014
#0753a0:00000024
#0793a0:14
#079380:00240000
#079340:0014
#079320:00000024
#083340:14
#083320:00240000
#0833a0:0014
#083380:00000024
#087380:14
#0873a0:00240000
#087320:0014
#087340:00000024
