This file was generated by Ched 2.7.0.0.
#TITLE ""
#ARTIST ""
#DESIGNER ""
#DIFFICULTY 0
#PLAYLEVEL
#SONGID ""
#WAVE ""
#WAVEOFFSET 0
#JACKET ""
#REQUEST "ticks_per_beat 480"
#00002: 4
#BPM01: 131
#00008: 01
#TIL00: ""
#HISPEED 00
#MEASUREHS 00
#00219:14
#00119:14
#00313:14
#00310:41
#00413:14
#00612:14
#0071a:14
#00812:14
#01814:14
#01810:41
#01718:14
#01612:14
#0151a:14
#0121a:14
#01112:14
#01110:41
#0191a:14
#02012:14
#0221a:14
#02314:14
#02418:14
#02410:41
#02512:14
#02814:14
#02918:14
#03212:0016
#03218:26
#0321f:21
#03318:1616
#03310:41
#03618:0016
#03612:26
#03712:1616
#04018:1616
#04112:1616
#0471a:14
#04812:14
#0491a:14
#05012:14
#0501a:00000024
#0261f:11
#0051a:24
#02115:26
#04218:26
#04212:0026
#04318:26
#04310:41
#04512:26
#009380:14
#010380:24
#013340:14
#014340:24
#021350:1626
#0263a0:14
#0273a0:24
#030320:14
#031320:24
#034320:1626
#035380:1626
#038380:1626
#039320:1626
#043380:16
#044380:26
#045320:16
#046320:26
