This file was generated by Ched 2.7.0.0.
#TITLE ""
#ARTIST ""
#DESIGNER ""
#DIFFICULTY 0
#PLAYLEVEL
#SONGID ""
#WAVE ""
#WAVEOFFSET 0
#JACKET ""
#REQUEST "ticks_per_beat 480"
#00002: 4
#BPM01: 131
#00008: 01
#TIL00: ""
#HISPEED 00
#MEASUREHS 00
#00118:00120000000000001200000000000000
#0011a:00000012000000000000000000000000
#00114:0012000000000000
#0011c:00000000001200000000000000000000
#00116:00120000
#00112:22000000000000120000000000000000
#0011b:0000000000130000
#0051b:00001300130013000013001300000000
#00516:0000000014000000000000000000140000000000000000000000001400000000
#00512:00000000130000000013001300000000
#0051a:24
#00712:13001300130000000013000000130013
#00716:00001400001400140014001400000000
#0071b:00000000000000130000001300000000
#00718:0000000000000013
#0071a:24
#0081b:1313000000000000
#00819:00000000131300000000000000001200
#00814:00000000131300000000000000000000
#00812:00000000000000130000000000000000
#00817:00000000000000130000000012000000
#00815:0000000000120000
#00816:1313000000000000
#0091c:0012000000000000
#0091b:0000001300000000
#0091a:0000000000140000
#00918:0000000000000016
#01012:0012001300140016
#01115:00001300000013000000000000130000
#01118:00000000000000000000001300001300
#01112:00000000230000002300000000000013
#0111b:00232300
#01110:41
#01214:0013000000000000
#01216:24000000001300000000000000000000
#01215:0000000000130000
#01218:0000000000002400000000000000000000130000000000001300000000000000
#01212:00000000000000130000000000001300
#0121b:00000000000000130000000000000000
#0131b:00001300000013000000130000130000
#01315:00001300000013000000001300001300
#01318:00000000130000001300000000000013
#01312:00000000130000130000000000000000
#0141b:00001313000000000000130000001300
#01416:00000013000000000000000000000000
#01412:1300000000141414
#01417:00000000001313000000000013000000
#01512:14232300
#01518:00001300000013000000000000130000
#01515:00000000000000000000001300001300
#0151b:00000000230000002300000000000013
#01615:0000000000000000000000000000000000130000000000000000000013000000
#01619:0013000000000000
#01617:00000000001300000000000000000000
#01618:0000000000131300
#01612:24000024000000130000000000000000
#0161a:00000000000000240000000000000000
#00317:13
#0031b:0000130000131313
#00316:00000000000000000000001300000000
#00312:0000000013000013
#00310:41
#00216:1300000000130000
#00219:0013000000000000
#00217:00130000
#00214:0013000000000000
#00212:00130000
#0021b:0013
#00415:00130000
#00418:00130000
#00412:13000000000000000000000000000024
#0041a:0000000000242424
#00416:00000000000000000000002400000000
#00414:00000000000000000000000000240000
#0041b:23
#01714:00001300000000141400000000000000
#01716:00000000001300000000000000001400
#01712:00000013
#01718:00000000000000242400000000140014
#0171a:24000024000000000000000024000000
#01812:1323132313231323
#0181b:00001300000000130000000000000000
#01817:00000000000000000000001300000000
#01819:00000000000000000013000000000000
#01810:41
#01912:13002300000000130000000000000000
#01917:0013000000000000
#0191b:13000000000000130000000000000000
#02115:0000001300000000
#02112:00150015001500150015001500150015000000000000000000000000000000000000000000000000000000000000000000000000000000000000000000000000
#02113:1313131313131313130000000000000000000000000000000000000000000000
#02118:0000001300000000
#02119:00150015001500150015001500150015000000000000000000000000000000000000000000000000000000000000000000000000000000000000000000000000
#0211a:2313131313131313130000000000000000000000000000000000000000000000
#0221b:13131300
#02212:00001300000013000000001300130000
#02218:0000000000130013
#02215:00000000000000000013000000000013
#02216:00130000
#02217:0013001300000000
#0231b:13000000001300000000000013000000
#02318:00001300000000000000000000130000
#02315:00000013000000000000000000001300
#02312:00000000001300000000000013000000
#02412:13000000130000001300000000000013
#0241b:00001300000013000000130000000013
#02417:00130000
#02416:0013001300130000
#02418:00000013
#02415:00000000000000000000000000130000
#02419:00000000003300330000000000000000
#02414:00000000000000000033003300000000
#02410:41
#0261c:0012
#02618:0012001200000012
#02612:00120000
#02616:0000000000120000
#0261a:00000000000000000000001200000000
#02614:00000000000000000000000000120012
#0261f:11
#02716:001400001400000000000000
#0271a:241400240000
#02712:000000240014240000130000
#0271b:00000013
#02714:0000000000000013
#02719:0000000000000013
#02816:14
#02812:0013131313131313
#0281b:0013000000000000
#02819:00130000
#02817:00000000000013002300000000130000
#02916:14000000000013002300000000130000
#0291b:0013131313131313
#02912:0013000000000000
#02914:00130000
#03016:00001400000000000000001400000000
#03015:0000001300000000
#03018:0000000013000013
#03012:0013
#03212:24001300130013000013000000000000
#0321b:00000000000000001300000000130000
#03218:00000000000000000000130000000013
#03215:0000000000000013
#0321f:21
#0341b:1300001313000013
#03412:1300001313000013
#03414:0000240000240000
#03418:0024000000002400
#0361b:0013131300000000
#03612:00000000000000001300000000130000
#03618:0000000013000013
#03615:00000000000000000000130000000013
#0361a:24
#03712:1313130013002300
#0371b:1300131313002313
#03716:00000000000000000000140000000014
#0391b:13130000
#03918:0013001300000000
#03916:000000000000001400001400
#0391a:000000241400
#03912:000000130000000000000000000000130000000000000000000000000000000000000000240000000000000014000000
#03915:00000013000000130000000000000000
#04019:15
#04014:0015000000000000
#04017:0000000000130013
#0401b:00000013
#04012:00150000
#0411b:0000131300001300
#04115:00000013
#04118:0000000000000013
#04112:1313000014000000
#04116:00130000
#04117:13
#0411a:0014
#04618:0013000000000013
#0461b:00000000001300000000000013000000
#04612:1313000000130000
#04615:00000000000000130000000000000000
#0471b:23130000
#04718:00001300000013000013000000000000
#04712:000013001300001300002c0000000000
#04715:13000000001300000000000000000000
#0481b:00001300000000000013000000000000
#04818:0000131300000000
#04812:00001300000000130000002300000000
#04815:00000000001300000000000000000000
#04816:00000000000000000013000000000000
#04817:00000000000000000000002300000000
#02012:13000000000000130000000000000000
#02016:00001300000000000000001300000000
#02014:00000000000000000013000000000000
#0201b:1323132313231323
#03112:240000000000000000000000000000002400000000000000240000000000000000000000000000002400000000000000260000000000000000000000260000000000000000000000140000340000340000340000000000340000340000340000
#03112:00000000000000000000000000340000
#03116:0000000000000014
#03118:0000000026260000
#0311a:240024240024000000000000
#0381b:13
#0381a:00000000000013000000002300000000
#03813:00000000000000130000230000000000
#03816:00000024000000001400000024000000
#03819:0000000000000013
#03814:0000000000000013
#03812:0023230000000000
#04217:0000000000130013
#0421b:00000013
#04212:24
#04214:0024000000000000
#04216:00240000
#04218:0000002400000000
#0421a:0024
#00616:00001400000000140000000000001400
#00612:24001300130013000013001300130000
#0061b:00000000130000000013001300000000
#02512:0013000013000000
#02515:0000131300130000
#02518:00000013000000130000001300000000
#0251b:00000000001300000013000000000000
#05015:00001300001300000000000000000000
#05018:1300131300000000
#0501a:0000000000000000000000000000240000000000000000320000000000000000
#05012:00000000000000240000000000000000
#05019:00000000000000000000003200000000
#04912:13000000130000130000001300000000
#04918:13000000001300000000000000001300
#0491b:00001300130000130000001300000000
#04915:00001300000013000000000000130013
#04914:00000000000000000013000000000000
#04919:00000000000000000013000000000000
#03317:0000130000130000
#03316:0023000000001300
#03312:2300130013130000
#0331b:2323000013001300
#03310:41
#03512:0024000000140014
#0351a:0000002414001400
#03516:1400140024242424
#0431b:1313131313130000
#04316:12000000000012120000001200000000
#0431a:0013001300130013001300130013001300130013001300000000000000000000
#04319:00130013001300130013000000000000
#04314:00001200000000000012000000001200
#04312:00120000
#04318:00000000000000000000000000120000
#04310:41
#0441a:1200000000000012
#04416:00001200000000000000001200000000
#04412:00000000120000000000000000000013
#04419:0000001200000000
#04415:00000000000000120000000000000000
#04418:00000000000000000012000000000000
#04414:00000000000000000000000000120000
#0441c:00000012
#04413:0000000000000000000000000000000000000000000000000000000000000013
#04518:12000000000012120000001200000000
#0451a:00001200000000000012000000001200
#0451c:00120000
#04516:00000000000000000000000000120000
#04514:1313131313130000
#04513:0013001300130013001300130013001300130013001300000000000000000000
#04512:00130013001300130013000000000000
#0055a:14
#00556:0000000000000000000000000000000000000000000000000000002400000000
#00552:00000000000000000000005300000000
#00852:00000000000000130000000000000000
#00857:00000000000000130000000000000000
#01258:0000000000001400000000000000000000230000000000000000000000000000
#01256:14
#0125b:00000000000000530000000000000000
#01552:14530000
#0155b:0063
#00252:00630000
#00357:63
#0035b:00230000
#00455:00230000
#00458:00230000
#0045b:5343
#00452:6333
#0115b:00630000
#01152:0053
#0115a:14
#02155:0000002300000000
#02153:5353535353535353530000000000000000000000000000000000000000000000
#02152:00250025002500250025002500250025000000000000000000000000000000003300000000000000000000000000000000000000000000000000000000000000
#02158:0000002300000000
#02159:00250025002500250025002500250025000000000000000000000000000000000000000000000000000000000000000000000000000000000000000000000000
#0215a:6363636363636363630000000000000000000000000000000000000000000000
#0215b:0043
#02856:14
#0285b:00000000000000000000001300000000
#02956:14
#0295b:0000000000000063
#02952:00000000000000000000001300000000
#03056:00002400000000000000002400000000
#03052:0053
#03152:0000000036365400
#03158:0000000046460000
#03156:0000000000000024
#03458:0014000000001400
#03454:0000140000140000
#04059:65450000
#04054:0025000000000000
#04052:00350000
#0475b:13
#0175a:14000014000000000000000024000000
#01758:00000000000000000000000000540054
#01756:0000000000000024
#03252:34
#0385b:13
#03856:00001414
#03852:00130000
#04156:00530000
#04157:53
#0415a:0014
#04152:0014
#00656:0000000000000024
#0065b:00000000000000000000006300000000
#00652:34
#01452:5300001300000000
#01456:00000053000000000000000000000000
#0165a:00000000000000140000000000000000
#01652:14000014000000530000000000000000
#01655:0000000000000000000000000000000000230000000000000000000013000000
#01658:00000013
#02452:00000000000000006300000000000013
#0245b:00000000000023000000000000000013
#02457:00630000
#02456:0000000000230000
#0505c:00000042
#05052:00000000000000140000000000000000
#0505a:00000000000000140000000000000000
#05055:0033000000000000
#05058:43
#0225b:13
#02256:00530000
#02252:0000002300000000
#0335b:0053004300002300
#03352:0000230000530033
#03356:0053004300002300
#03357:0000230000530033
#0355a:0014000014001400
#03552:0000001400140014
#0365a:14
#0375b:5313
#03752:00631300
#0425a:0014
#04952:00000000000000000000001300000000
#0495b:00000000000000000000001300000000
#04852:1c000000000000530000003300000000
#0485b:00000000000000000023000000000000
#04856:00000000000000000023000000000000
#04858:0000005300000000
#04857:00000000000000000000003300000000
#02555:0000000000530000
#02558:00000000000000000000005300000000
#02552:00000000000000000000000000130000
#0255b:00000000000000000000000000130000
#0075a:44
#0435b:2323232323230000
#0435a:0063006300630063006300630063006300630063006300000000000000000000
#04359:00230023002300230023000000000000
#04452:00000000000000000000000000000023
#04453:0000000000000000000000000000000000000000000000000000000000000053
#04554:2323232323230000
#04553:0053005300530053005300530053005300530053005300000000000000000000
#04552:00230023002300230023000000000000
#0185a:14
#000360:00000000000000000000000014342400
#000350:0000000000000000000000000000000000000000000000000034003400000000
#001320:0000000000130023
#001360:00000033
#0013b1:00000013
#001371:0000000000000033
#0023b1:23
#002321:00130000
#002361:0023
#0023b1:0000000000130023
#002371:00000033
#002320:00000013
#002360:0000000000000033
#003320:23
#003371:1323
#0033b1:00530000
#004321:1323
#004351:00530000
#0043b0:1323
#004380:00530000
#005320:00000000000000000000001300000000
#005360:0000000000000000000000000000000000000000000000000000005400000000
#006320:24
#0063b0:00000000000000000000001300000000
#006360:00000000000000000000000000240000
#006360:0000000000000014
#0073a0:24
#009340:1400000000000000000000000000005400000000000000000000000000000000
#009320:000000000000000000000000000000000000000000000000000000000000000000000000000000000000000000000000000000000000000000000000000000000000000000000000000000000000000000000000000000000000000000000000000000000000000000000000000000000000000000000000000000000000000000000000000000000000000000000000000000000000000000000000000000000000000000000000000000000000000000000000000000000000000000000000000000000000000000000000000000000000000000000000000000000000000000000000000000000000000000000000000000000000000000000000000000000000000000000000000000000000000000000000000000000000000000000000000000000000000000000000000000000000000000000000000000000000000000000000000000000000000000000000000000000000000000000000000000000000000000000000000000000000000000000000000000000000000000000000000000000000000000000000000000000000000000000000000000000000000000000000000000000000000000000000000000000000000000000000000000000000000000000000000000000000000000000000000000000000000000000000000000000000000000000000000000000000000000000000000000000000000000000000000000000000000000000000000000000000000000000000000000000000000000000000000000000000000000000000000000000000000000000000000000000000000000000000000000000000000000000000000000000000000000000000000000000000000000000000000000000000000000000000000000000000000000000000000000000000000000000000000000000000000000000000000000000000000000000000000000000000000000000000000000000000000000000000000000000000000000000000000000000000000000000000000000000000000000000000000000000000000000000000000000000000000000000000000000000000000000000000000000000000000000000000000000000000000000000000000000000000000000000000000000000000000000000000000000000000000000000000000000000000000000000000000000000000000000000000000000000000000000000000000000000000000000000000000000000000000000000000000000000000000000000000000000000000000000000000000000000056000000000000000000000000000000000000000000000000000000000000360000000000000000000000000000000000000000000000000000000000560000000000000000000000000000000000000000000000000000000000540000000000000000000000000000000000000000000000000000000000000000000000000000000000000000000000000000000000000000000000000000000000000000000000000000000000000000000000000000000000000000000000000000000000000000000000000000000000000000000000000000000000000000000000000000000000000000000000000000000000000000000000000000000000000000000000000000000000000000000000000000000000000000000000000000000000000000000000000000000000000000000000000000000000000000000000000000000000000000000000000000000000000000000000000000000000000000000000000000000000000000000000000000000000000000000000000000000000000000000000000000000000000000000000000000000000000000000000000000000000000000000000000000000000000000000000000000000000000000000000000000000000000000000000000000000000000000000000000000000000000000000000000000000000000000000000000000000000000000000000000000000000000000000000000000000000000000000000000000000000000000000000000000000000000000000000000000000000000000000000000000000000000000000000000000000000000000000000000000000000000000000000000000000000000000000000000000000000000000000000000000000000000000000000000000000000000000000000000000000000000000000000000000000000000000000000000000000000000000000000000000000000000000000000000000000000000000000000000000000000000000000000000000000000000000000000000000000000000000000000000000000000000000000000000000000000000000000000000000000000000000000000000000000000000000000000000000000000000000000000000000000000000000000000000000000000000000000000000000000000000000000000000000000000000000000000000000000000000000000000000000000000000000000000000000000000000000000000000000000000000000000000000000000000000000000000000000000000000000000000000000000000000000000000000000000000000000000000000000000000000000000000000000000000000000000000000000000000000000000000
#010320:24
#010381:140000000000000000000000000000000000000000000000000000000000000000000000000000000000000000000000000000000000000000000000000000000000000000000000000000000000000000000000000000000000000000000000000000000000000000000000000000000000000000000000000000000000000000000000000000000000000000000000000000000000000000000000000000000000000000000000000000000000000000000000000000000000000000000000000000000000000000000000000000000000000000000000000000000000000000000000000000000000000000000000000000000000000000000000000000000000000000000000000000000000000000000000000000000000000000000000000000000000000000000000000000000000000000000000000000000000000000000000000000000000000000000000000000000000000000000000000000000000000000000000000000000000000000000000000000000000000000000000000000000000000000000000000000000000000000000000000000000000000000000000000000000000000000000000000000000000000000000000000000000000000000000000000000000000000000000000000000000000000000000000000000000000000000000000000000000000000000000000000000000000000000000000000000000000000000000000000000000000000000000000000000000000000000000000000000000000000000000000000000000000000000000000000000000000000000000000000000000000000000000000000000000000000000000000000000000000000000000000000000000000000000000000000000000000000000000000000000000000000000000000000000000000000000000000000000000000000000000000000000000000000000000000000000000000000000000000000000000000000000000000000000000000000000000000000000000000000000000000000000000000000000000000000000000000000000000000000000000000000000000000000000000000000000000000000000000000000000000000000000000000000000000000000000000000000000000000000000000000000000000000000000000000000000000000000000000000000000000000000000000000000000000000000000000000000000000000000000000000000000000000540000000000000000000000000000000000000000000000000000000056000000000000000000000000000000000000000000000000000000000000360000000000000000000000000000000000000000000000000000000000560000000000000000000000000000000000000000000000000000000000000000000000000000000000000000000000000000000000000000000000000000000000000000000000000000000000000000000000000000000000000000000000000000000000000000000000000000000000000000000000000000000000000000000000000000000000000000000000000000000000000000000000000000000000000000000000000000000000000000000000000000000000000000000000000000000000000000000000000000000000000000000000000000000000000000000000000000000000000000000000000000000000000000000000000000000000000000000000000000000000000000000000000000000000000000000000000000000000000000000000000000000000000000000000000000000000000000000000000000000000000000000000000000000000000000000000000000000000000000000000000000000000000000000000000000000000000000000000000000000000000000000000000000000000000000000000000000000000000000000000000000000000000000000000000000000000000000000000000000000000000000000000000000000000000000000000000000000000000000000000000000000000000000000000000000000000000000000000000000000000000000000000000000000000000000000000000000000000000000000000000000000000000000000000000000000000000000000000000000000000000000000000000000000000000000000000000000000000000000000000000000000000000000000000000000000000000000000000000000000000000000000000000000000000000000000000000000000000000000000000000000000000000000000000000000000000000000000000000000000000000000000000000000000000000000000000000000000000000000000000000000000000000000000000000000000000000000000000000000000000000000000000000000000000000000000000000000000000000000000000000000000000000000000000000000000000000000000000000000000000000000000000000000000000000000000000000000000000000000000000000000000000000000000000000000000000000000000000000000000000000000000000000000000000000000000000000000000000000000000000000000000000000000000000000000000000000000000000000000000000
#0103a1:0000000000000000000000000000000000540000000000000000000000000000
#0113a1:24
#0113b1:00130000
#011381:00000000005323000000000000000000
#011321:0013
#011351:00000000000000000053002300000000
#0123b1:00000000000000130000230000000000
#012381:0000000000000000000000000000000000530000000000000000000000000000
#014321:13000000003323000000000000000000
#014361:00003333000000000000000000000000
#015321:00130000
#015351:00000000005323000000000000000000
#0153b1:0013
#015381:00000000000000000033002300000000
#016321:00000000000000130000230000000000
#016351:0000000000000000000000000000000000530000000000000000000000000000
#0173a1:00000014
#017381:00000000000000000000000000540054
#017361:0000000000000054
#0183a1:24
#018371:00130000
#0183b1:0000002300000000
#018371:0000000000001323
#019361:00130000
#019321:0000002300000000
#0193b0:0000132300000000
#020360:00130000
#020320:0000002300000000
#020360:0000000000001323
#021330:1333333333333333330000000000000000000000000000000000000000000000
#021320:00550055005500550055005500550055000000000000000000000000000000002300000000000000000000000000000000000000000000000000000000000000
#021350:0000005300000000
#0213a1:1333333333333333330000000000000000000000000000000000000000000000
#021391:00550055005500550055005500550055000000000000000000000000000000000000000000000000000000000000000000000000000000000000000000000000
#021381:0000005300000000
#0213b1:0023
#022361:00132300
#022321:0000003300000000
#0233b1:00000000000000130000230000000000
#023381:0000000000000000000000000000000000530000000000000000000000000000
#023320:00000000000000130000230000000000
#023350:0000000000000000000000000000000000530000000000000000000000000000
#024370:00132300
#024390:00000000003300330000000000000000
#0243b0:0000003300000000
#024321:00001323
#024341:00000000000000000033003300000000
#024361:0000000000330000
#025351:0000000000130000
#025321:00000000000000000000000000230000
#025380:00000000000000000000001300000000
#0253b0:00000000000000000000000000230000
#0273a0:0000000000000000000000000000000014545454240000000000000000000000
#027390:00000000000000000000000000000000000000000000000000000000000000000054005400540054000000000000000000000000000000000000000000000000
#027321:0000000000000000000000000000000014545454240000000000000000000000
#027331:00000000000000000000000000000000000000000000000000000000000000000054005400540054000000000000000000000000000000000000000000000000
#028371:0013
#0283b1:00000000000000000000332300000000
#029361:0013
#029321:00000000000000000000332300000000
#0293b1:0000000000000013
#030361:0054000000000000
#0303a1:0000002400000000
#030321:0000000013000024
#030361:00000000000000000000005400000000
#031321:0000000000000000000000000000000000000000000000001434343400343434
#031361:0000000000000034
#032321:24
#0323b0:13
#032370:0023000000000000
#0323b0:00130000
#032370:0000002300000000
#032350:00000000000000000000001300230000
#0333b0:0013002300000000
#033370:00530000
#033361:0013002300000000
#033321:00530000
#033321:0000000000130023
#033361:00000053
#033370:0000000000130023
#0333b0:00000053
#0353a0:1424000000000000
#035320:0000142400000000
#036320:13
#036360:0023000000000000
#036320:00130000
#036360:0000002300000000
#036380:00000000000000000000001300230000
#0373b0:13
#037370:0023000000000000
#037320:00130000
#037360:0000002300000000
#040390:15250000
#040340:0055000000000000
#040320:0000000000130023
#040370:00000033
#041370:13
#0413b0:0023000000000000
#041360:00130000
#041320:0000002300000000
#0423b0:1323000000000000
#042320:0000132300000000
#042360:00001333
#042320:0000000000330023
#0433b0:1353535353530000
#0433a0:0053005300530053005300530053005300530053005300000000000000000000
#043390:00530053005300530053002300000000
#044320:00000000000000000000000000000013
#044330:0000000000000000000000000000000000000000000000000000000000000053
#045340:5353535353530000
#045330:0053005300530053005300530053005300530053005300000000000000000000
#045320:00530053005300530053002300000000
#046350:00000000132300000000000000000000
#0463b0:00000000000000130000230000000000
#046320:0000000000001323
#047320:00000000000000000000000000000000000000001c5c5c5c5c5c5c5c5c5c5c5c
#047340:00000000000000000000000000000000000000000000000000000000000000000000000000000000005500000000000000000000005500000000000000000000
#047350:00000000000000000000000000000000000000000000000000000000000000000000000000000000000000550000000000000055000000550000000000000055
#047360:00000000000000000000000000000000000000000000000000000000000000000000000000000000000000000055000000550000000000000055000000550000
#047370:00000000000000000000000000000000000000000000000000000000000000000000000000000000000000000000005500000000000000000000005500000000
#048320:2c
#048380:0000001300000000
#0483b0:00000000000000000053000000000000
#048370:00000000000000000000002300000000
#048321:00000000000000130000002300000000
#048361:00000000000000000053000000000000
#050381:0000000000000000000000000000000000000000001200000000000000000000
#050391:00000000000000000000003200000000
#0503a1:0000000000000000000000000000000000000000000000320000000000000000
#0503c1:00000022
