This file was generated by Ched 2.7.0.0.
#TITLE ""
#ARTIST ""
#DESIGNER ""
#DIFFICULTY 0
#PLAYLEVEL
#SONGID ""
#WAVE ""
#WAVEOFFSET 0
#JACKET ""
#REQUEST "ticks_per_beat 480"
#00002: 4
#BPM01: 131
#00008: 01
#TIL00: ""
#HISPEED 00
#MEASUREHS 00
#0081b:1313000000131313
#00815:00130000
#00818:00000000001300000000000000000000
#00812:00000000000000130000000000000000
#0131b:0013
#01312:00000000130000000000000000130000
#01315:00000000000000130000130000000000
#01318:00001300000013000000001300000000
#0141b:0000000000130000
#01418:00000013
#01415:1300000000000013
#01412:00000013000000000000000000000000
#0031b:1300000000000013
#00315:0000000000131300
#00318:00000000000000000000001300000000
#00317:00130000
#00310:41
#01812:0013000000000000
#01815:00000000000000130013001300000000
#01810:41
#02215:00000000130000000000000000130013
#02218:0000001300000013
#02212:0013000000000000
#02318:1300000000001300000000000000000000130000000000000000130000000000
#02312:0013000000000013
#02315:00000000001300000000000013000000
#0231b:00000000000000130000000000000000
#0281b:0013000023000000
#02818:00130000
#02815:0000001300000000
#02812:0013000000000000
#02817:0000000000330000
#0291a:0000000000000014
#02912:0013000023000000
#02915:00130000
#02918:0000001300000000
#0291b:0013000000000000
#02916:0000000000330000
#03016:0014000000000000
#03012:0014
#03015:00000000000000000000001400000000
#03218:00000000000013000013001300000013
#03215:0000130000130000
#03212:2413
#0321b:0013000000000000
#0321f:21
#03415:13
#03418:0000001313000000
#0341b:0023000000002300
#03412:0000230000230000
#03612:0013000000000000
#03618:0000130000130013
#03615:00000000000013000000001300000013
#0361b:2313
#04118:1300000000000013
#04115:00130013
#04112:0013
#0411b:0013
#04215:0000000000000013
#04212:2400000000130000
#04218:0000002400001300
#04214:0024000000000000
#04216:00240000
#0421a:0024
#04612:0013000000000000
#04618:00130013
#04615:00000000001300000000000000001300
#0461b:0013000000000000
#0471b:0013000000000000
#04718:00000000130000130000000000000000
#04715:00000000001300000000000000000000
#04712:23000000000000000013000000000000
#04716:0000000000280000
#02515:00000000000013000000000000130000
#02518:00130000
#02512:0013000000000000
#04812:00001300000000140000002400000000
#04816:00000000000000000014000000000000
#04815:00130000
#04818:00000000001300000000000000000000
#03112:2400000000000000000000000000000026000000000000001434343400343434
#03112:00000000000000000000000000340000
#03116:0000000000000014
#03118:000000002400000000002400000000260000000000000000
#0311a:24
#03114:00240000
#0371a:0000000000000014
#03715:00000000000000000000000000000014
#0371b:0013
#03712:00000024
#0381a:1400001414000000
#03815:00000000000000140000000000000000
#03812:0024240000242400
#03817:00000024000000000000002400000000
#04018:0000000000130000
#04015:00000013
#04012:0000000000000013
#0401a:14
#04017:0014000000000000
#00516:0000000000000000000000000000000000000000000000000000001400000000
#00512:00001300000000000000001400000000
#00515:00000000130000130000000000000000
#00518:00000000000000000013000000000000
#0051b:00000000001300000000000000000000
#0051a:24
#01512:1300000023000013
#0151b:00000000230000000000000000130000
#01518:00000000000000000000000000000013
#01513:00000000000000000033000000000000
#01618:00001300001300000000000000001300
#01615:23000023000000000000000013000000
#05018:00130000
#05015:00000000001300000000000000000000
#0501b:1313000000000000
#05012:00000000000000240000000000000000
#0501a:00000000000000240000000000000000
#02118:00140000
#02114:00140000
#02112:14
#0211a:24
#00412:13
#00416:00130000
#0041a:0000000000242424
#00414:00000000000000000000002400240024
#00616:00000000000000000000000000341400
#0061b:0013000000000000
#00618:00000000130000130000000000000000
#00615:00000000000000000013000000000000
#00612:24000000001300000000000000000000
#0061a:00000000000000000000001400000000
#01218:23000023000000000000000013000000
#01215:00001300001300000000000000001300
#0111b:0000000023000013
#01112:00000000230000000000000000130000
#01115:00000000000000000000000000000013
#01110:41
#01715:0013000000000000
#01718:00000023000000240000000000140014
#01712:00000000001300000000000000000000
#01716:0000000000000014
#0171b:23
#01714:0024
#0171a:00000024
#01917:13
#01914:0013000000000000
#01912:13
#01919:0013000000000000
#0201b:0013000000000000
#02018:00000000000000130013001300000000
#02012:13
#0241b:0013000000000000
#02418:00000000000013000000000000000013
#02412:0000000000000000000000000000000000000000001300000000000000000000
#02415:00000000130000001333333333000000
#02410:41
#03519:0000000013231323
#03512:13
#03518:00130000
#03514:0000000023132313
#03515:0023000000000000
#0351b:0000002300000000
#04418:00000000000000000000000000130000
#0441b:0000000000130000
#04415:00000013
#04413:0000000000000000000000000000000000000000000000000000000000000014
#04412:00000000000000000000000000000014
#04918:00001300001300000000000000001300
#04915:00000000130000000000000000130000
#0491b:13000000000000000000001300000000
#04912:00000000000000000000001300000013
#0021b:13130000
#00212:0000000000130000
#00218:0013000000000000
#00216:00000033
#00114:00000000000000130000000000000000
#0011b:1313
#00112:0000000000130000
#00115:00000013
#0011a:00330000000000000000000000000000
#00119:0033000000000000
#00118:00000033000000000000000000000000
#00117:00330000
#00712:0013000000000000
#00715:00000000130000130000000000130013
#0071b:00000000001300000000001300000000
#00718:00000000000000000013000000001300
#0071a:24
#04513:0014001400140014001400140014001400140014000000000000000000000000
#04514:1414141414000000
#04512:00140014001400140014000000000000
#02615:00000000000000000000130000130000
#02618:00000000000000000000001300001300
#0261f:11
#02619:0000003300000000
#0271a:0000000000000014
#02712:0024
#0391b:13
#03915:0013000000000000
#03918:000000130000000014000000
#03912:000000000000000000130000000014000000000000000000
#03914:000000000000000000000014
#03919:000000000014
#03917:0024
#03913:00000024
#03316:00130000
#03317:00000013
#0331b:0000000013130000
#03312:2323000000000000
#03310:41
#04319:0014001400140014001400140014001400140014001400000000000000000000
#04318:00140014001400140014000000000000
#0431a:1414141414140000
#04310:41
#0055a:14
#00556:0000000000000000000000000000000000000000000000000000002400000000
#00552:00000000000000000000005400000000
#00852:00000000000000130000000000000000
#0035b:63
#00357:00230000
#01152:00530000
#0115b:0063
#0115a:14
#02358:0000000000000000000000000000000000230000000000000000000000000000
#0235b:00000000000000530000000000000000
#03056:0024000000000000
#03052:0054
#03055:00000000000000000000002400000000
#0295a:0000000000000064
#02956:00000000000000000000001300000000
#02952:0063
#03452:0000130000130000
#0345b:0013000000001300
#04752:13
#0155b:00630000
#01552:0053
#04852:00000000000000540000003400000000
#04856:18000000000000000024000000000000
#03156:0000000000000024
#03152:00001654
#03158:0000000000160000
#04155:00530000
#04158:53
#04152:0013
#0415b:0013
#02555:00000000000000000000000000130000
#02158:00240000
#02154:00240000
#02152:6434
#0215a:5444
#0505b:00000043
#00452:53
#00456:00230000
#01455:6300001300000000
#01452:00000063000000000000000000000000
#01352:00000000000000000000000000630000
#01758:00000000000000000000000000540054
#01756:0000000000000024
#0175a:00000024
#02458:00000000000000000000000000000013
#02452:0000000000000000000000000000000000000000002300000000000000000000
#02455:0063
#02752:0064
#0025b:63630000
#00252:0000000000530000
#00258:0023000000000000
#0015b:63
#00152:0000000000630000
#00155:00000023
#02857:00000000000000000000001300000000
#0285b:0053
#03258:00000000000000000000006300000000
#03252:34
#04553:0054005400540054005400540054005400540054000000000000000000000000
#04554:2424242424000000
#04552:00240024002400240024000000000000
#04453:0000000000000000000000000000000000000000000000000000000000000054
#04452:00000000000000000000000000000024
#0065a:00000000000000000000006400000000
#00656:0000000000000064
#00652:14
#03655:00000000000000000000005300000000
#0365b:13
#0405a:64440000
#04057:0024000000000000
#0075a:14
#03356:00230000
#03357:00000023
#0335b:0000000000630043
#03352:0063003300000000
#0375b:0013
#04359:0064006400640064006400640064006400640064006400000000000000000000
#04358:00240024002400240024000000000000
#0435a:2424242424240000
#0185a:14
#0013b0:13
#0013a0:00330000000000000000000000000000
#001390:0033000000000000
#001380:00000033000000000000000000000000
#001370:00000000332300000000000000000000
#001320:0000000000130023
#001350:00000033
#0023b0:13330000
#002380:0033000000000000
#002370:0023
#002320:0000000000130000
#002360:0000000000003323
#0033b0:1323
#003370:00530000
#004320:1323
#004360:00530000
#005320:00000000000000000000001400000000
#005360:0000000000000000000000000000000000000000000000000000005400000000
#006320:24
#0063a0:00000000000000000000001400000000
#006360:00000000000000000000000000343400
#0073a0:24
#009340:14003400000034540000000000000000
#009320:0000000000000000000000000000005636565400340000000000000024000000
#010380:1400000034000000000000003400545636560000000000000000000000000000
#0103a0:00000000000000000054340000003400
#0113a0:24
#011320:00130000
#011350:0000002300000000
#0113b0:0013
#011380:00000000000000000000002300000000
#0123b0:00000000000000130000230000000000
#013320:00000000000000000000000000130000
#013350:00000000000000000000000000000033
#014350:33000000003323000000000000000000
#014320:00003333000000000000000000000000
#0153b0:00130000
#015380:0000002300000000
#015320:0013
#015330:00000000000000000033000000000000
#015350:00000000000000000000002300000000
#016320:00000000000000130000230000000000
#0173a0:00000014
#017380:00000000000000000000000000540054
#017360:0000000000000054
#0183a0:24
#018380:0000132300000000
#018380:0000000000001323
#0193b0:00130000
#019370:00000000000000230000000000000000
#019361:00130000
#019321:00000000000000230000000000000000
#020351:0000132300000000
#020351:0000000000001323
#0213a1:1424
#021381:00540000
#021320:1424
#021340:00540000
#0223b0:0013
#0223a0:00000000000000000033000000000000
#022390:0000000000330000
#022380:00000000000000000000002300000000
#0233b0:00000000000000130000230000000000
#023380:0000000000000000000000000000000000530000000000000000000000000000
#024350:00000000000000001333333333230000
#024320:0000000000000000000000000000000000000000005300000000000000000000
#025380:0013
#025390:00000000000000000033000000000000
#0253a0:0000000000330000
#0253b0:00000000000000000000002300000000
#0263b0:0013000023000000
#026380:00330000
#026390:0000003300000000
#027320:14
#027340:003400000000000000000000
#027360:002400000000
#0273a0:00140000
#027380:003400
#027360:000000000024000000000000
#027320:0014
#027360:00000024
#0283b0:0013
#028370:00000000000000000000332300000000
#029320:0013
#029360:00000000000000000000332300000000
#0293a0:0000000000000014
#030360:0054000000000000
#0303a0:0000002400000000
#030320:0000000014000024
#030350:00000000000000000000005400000000
#031320:0000000000000000000000000000000000000000000000001434343400343434
#031360:0000000000000034
#032320:24
#032380:00000000000000000000001300000000
#0323b0:00000000000000000000000000230000
#033320:0013002300000000
#033360:00530000
#0333b0:0000000000130023
#033370:00000053
#036350:00000000000000000000001300000000
#036320:00000000000000000000000000230000
#037380:1323000000000000
#037350:0000132300000000
#0403a0:14240000
#040370:0054000000000000
#041380:13
#0413b0:0023000000000000
#041350:00130000
#041320:0000002300000000
#0433a0:1454545454540000
#043390:0054005400540054005400540054005400540054005400000000000000000000
#043380:00540054005400540054002400000000
#044320:00000000000000000000000000000014
#044330:0000000000000000000000000000000000000000000000000000000000000054
#045340:5454545454240000
#045330:0054005400540054005400540054005400540054000000000000000000000000
#045320:00540054005400540054000000000000
#0463b0:00000000000000130000230000000000
#047360:0000000000000000000000000000000000000000185858585858585858585858
#047380:00000000000000000000000000000000000000000000000000000000000000000000000000000000005400540054005400540054005400540054005400540054
#048360:28
#048320:00000000000000140000002400000000
#048360:00000000000000000054000000000000
#049320:00000000000000130000000000000000
#049350:00000000000000000023000000000000
#0493b1:00000000000000130000000000000000
#049381:00000000000000000023000000000000
#050381:0000000000000000000000000000000000000000001300000000000000000000
#050391:00000000000000000000003300000000
#0503a1:0000000000000000000000000000000000000000000000330000000000000000
#0503b1:00000023
