This file was generated by Ched 2.7.0.0.
#TITLE ""
#ARTIST ""
#DESIGNER ""
#DIFFICULTY 0
#PLAYLEVEL
#SONGID ""
#WAVE ""
#WAVEOFFSET 0
#JACKET ""
#REQUEST "ticks_per_beat 480"
#00002: 4
#BPM01: 131
#00008: 01
#TIL00: ""
#HISPEED 00
#MEASUREHS 00
#0051b:00001300130000000013001300000000
#00516:00001400140014140000140000000000
#00512:2c000000001300130013000000000000
#00514:0000000000000000000000000000000000000000000000000000001400000000
#00712:26001300131300130000001300130013
#0071b:13000000130000130013001300130000
#00716:0024002400240024
#0081a:1414000000000024
#00818:00000000141400000000000000000000
#00814:00000000141400000000000000000000
#00812:00000000000000140000240000000000
#00816:140000000000000000000000140000000000000000000000000000000000000000000000000000000000140000000000000000000000000000000000000000000000000000000000241200000014000000000000000000000000000000000000
#00912:0012000000120000
#00917:0000001200000012
#00915:13
#0111a:14
#01112:0000231323000000
#01114:00000000000000000000001300130000
#0111b:0000230023000013
#01118:00001300000000000000000000000013
#01115:0013000000000000
#01110:41
#01215:00001300001300000000130000000000
#01218:00000000130000000000000000000000000000000000000013000000000000000000000000000000000000000000000000220000000000000000000000000000
#01214:0000000000000012
#0121b:00000000000000130000000000000000
#01217:0000000000000000000000000000000000130000000000000000000000000000
#01216:00000012
#0121a:00000024000000000000000000001200
#01212:24000000000000240000000000000000
#01312:1200120000120000
#01318:12000000120000000000000000120012
#01315:0000000000000012
#0131c:00001200000012001200001200000000
#01316:00001200000000121200001200000000
#0141c:0012001200120000
#01412:12000012000000000000140014001400
#01418:12000012000000000000000000001200
#01416:00000000001212000000000000000000
#0141a:00000012
#01618:00001300001300000000130013001300
#01615:00130000000013000000000013001300
#01612:00000024000000130000000000000000
#01616:0000000000000000000000000000000000130000000000000000000000000000
#0161a:24000000000000240000000000000000
#0181b:00001300000000130000001313000000
#01817:00000000130000000013000000000000
#01812:2c14141414141414
#01810:41
#01912:1414141400000000
#01917:00001300001300170000000000000000
#0191b:13130000
#00612:13001300130000000013001300000000
#0061b:00000000001300130013000000131300
#00616:00001400140014140000140000000000
#00617:0000000000000014
#00618:26
#0101c:0012000000120000
#01017:0000001200000012
#0151b:1300231323000000
#01512:14000000230000002313000000001300
#01512:0000000000000013
#01515:00001300000000000000000000000013
#01518:0013000000000000
#01519:00000000000000000000001300130000
#02812:1300130023230013
#0281b:0013001323000013
#02815:0013001300000000
#02818:00000013001300000000000000130000
#02817:00000000000000000000002300000000
#02312:13000000000000001300000000000000000000001300000000000000000000000000130000000000000000000000000022150000000000000000000000000000
#02319:00000000000000000000000000000000000000000000000000000000000000000000000000000000000000000000000022150000000000000000000000000000
#0231b:13000013000000130000000000000000
#02316:00000013000000130000000000000000
#02317:0000000000000000000000000000000000130000000000000000000000000000
#03016:000000000000000014000014
#03014:000000000014
#03018:000000000000000000130000000000130000000000000000000000001400000000000000000000000000000000000000
#03012:1313001300001400
#0301a:0014
#0301b:0013001300000000
#03015:00130000
#02417:13130000
#02412:13000000130000001300000000140014
#0241a:00000000000000000000000000140014
#02416:0013000000001400
#0241b:00001300000013000000001300000000
#02415:00000000000000000013000000000000
#02418:0000000000130000
#02414:00000000003300000000000000000000
#02419:00000000000000330000000000000000
#02410:41
#0501b:1300131300001200
#05017:0000000000000000000000000000000000000000000000120000000000000000
#05015:0000000000000000000000130000000000000000001200000000000000000000
#05019:00000000000000000000001200000000
#05018:00001600001300260000000000000000
#05012:16001300160000260000000000000000
#04915:1300000000000013001300001300000000000000000000000000130000000000
#04918:1300000000001300130013000000000000000000000000000000001300001300
#0491b:00001300000000130000000000000000
#04912:00001300000000130000000000001300
#04916:000000000000000000000000000000000000000000000000000000000000000000000000000000000000000000000000000000000000000000000000000000000000000000000000000000000000000000000000000000000000000000000000000000000000000000000000141400000000000000000000000000000000000000000000000000000000000000000000000000000000000000000000000000000000000000000000000000000000000000000000000000000000000000000000
#0431b:0012001200120012001200120012001200120012001200000000000000000000
#0431c:1212121212120000
#0431a:00120012001200120012000000120000
#04312:00000000120000000012000000001200
#04317:00000000000000120000001200000000
#04314:0012001200000000
#04316:12
#04318:0000000000000012
#04310:41
#03418:00130013000000001600260026000000
#0341b:13130000
#03415:00000000000000000013001300000000
#03412:1626261c1300131c
#04217:0000000013131313
#0421b:00000013
#04212:241c001c001c001c0000130000000000
#0421a:0024
#04214:0024000000000000
#04216:00240000
#04218:0000002400000000
#04116:13
#04117:00130000
#04112:1313000016000013
#0411b:0000131300000013
#04118:00001613
#04113:00000000001300000000000000000000
#0411a:00130000000000000000000000000000
#04115:00000013
#04017:00000013
#0401b:0000000000130013
#04016:0012000000130000
#0401a:1434343400343434000000000000000000000000000000000000000000000000
#04012:24160013
#03815:16002323230016161600230000001600
#03818:00002300000000000000232323000000
#03715:00001300001300130000130000001616
#03712:13131323
#0371b:13131323
#03718:00130013000013000000130000000000
#0271b:0000000000001313
#02716:00000013
#02715:001400001400000000000000
#02718:000014000014260000000000
#02712:24242600
#0271a:24240000
#04816:00000014001400120000130000000000
#04812:00001300130000001300002400000000
#0481b:00001300000013120000130000000000
#04819:00000000000000000013000000000000
#04817:00000000000000001300002400000000
#04814:00000000000000000013000000000000
#0471b:0013130013000000
#04716:24000014001400140014000000000000
#04712:00130013002c0000
#0461c:00000000121200000000000000000000
#04612:1212
#04614:0012001200120000
#0461a:0012000000000000
#04618:12
#04616:00000012
#04517:00000000000000120000001200000000
#0451a:0012001200000000
#0451c:00000000120000000012000000001200
#04518:12
#04514:12001200120012001200120000120000
#04514:00000000000000000000000000120000
#04513:0012001200120012001200120012001200120012001200000000000000000000
#04512:00120012001200120012000000000000
#04516:0000000000000012
#04418:00000000120000000012000000120000
#0441c:12000000000000120000001200000000
#04416:12000000000000120000000000001200
#04414:0012001200001200
#04412:00000000120000000012000000000012
#0441a:0012000000001200
#04413:0000000000000000000000000000000000000000000000000000000000000012
#0391a:000000000000001400241414
#03912:130000130000241414001400
#03916:000000000000140014140014
#03915:00161600001616000000000000000000
#0391b:00000013000000130000000000000000
#02615:00120000
#02613:0012000000000000
#02617:12000000000012000000000000120000
#0261c:0012
#02618:0000000000120000
#0261b:00000000000000000000001200000000
#0261a:0000000000000012
#02616:00000000000000000000000000000012
#0261f:11
#0221b:13131300
#02216:13130000
#02218:00000000000000000013001300130013
#02215:0000000000130013
#02212:00001300000013000000001300130000
#02217:0013000000000000
#03112:240000000000000000000000000000002400000000000000240000000000000000000000000000002400000000000000260000000000000000000000260000000000000000000000160000360000360000360000000000360000360000360000
#03118:0000000026260016
#03116:001400001400000000000000
#0311a:240024240024000000000000
#0171a:1400000000002400000014000000000000000000000000000014001400140014
#01712:24000014001400000000000000141414
#01716:0014000000002400
#01715:00000000000000131300000000000000
#01718:00000000000000232300000000000000
#0321b:13000000130000001300001300000000
#03217:00130000001300000000000000000000
#03218:00000000000000000013000000000013
#03212:26000013000000130000001300130000
#03216:0013001300000000
#03215:0000000000130013
#0321f:21
#03612:13000000130000001300001300000000
#03616:00130000001300000000000000000000
#03615:00000000000000000013000000000013
#0361b:00000013000000130000001300130000
#03617:0013001300000000
#03618:2600000000130013
#02012:00001300000000130000001313000000
#02016:13000000130000000013000000000000
#0201a:1414141414141414
#00416:000000000000000000000000000000000000000000000000000000000000000000000000000000000000000000000000141400000000000000000000000000000000000000000000000000000000000000000000000000000000000000000000000000000000000000000000000000000000000000000000000000000000000000000000000000000000000000000000000000000000000000000000000000000000000000000000000000000000000000000000000000000000000000000000
#00412:14
#00419:00000025
#00418:0000000000000026
#00413:00000000000000000000000000000027
#00415:00000000000000000000000000260000
#00417:00000000000000000000002500000000
#0041a:2400000000240000
#0291b:1300130023230013
#02912:0013001323000013
#02918:0013001300000000
#02915:00000013001300000000000000130000
#02916:00000000000000000000002300000000
#03312:2300130013130000
#03316:0000130000130000
#0331b:2323000013001300
#03317:0023000000001300
#03310:41
#03512:1626000023162616
#03518:00000000160026001600001316002600
#03515:00000000000000130000000000000000
#0351b:0000000000230000
#00018:00000012
#00015:0000000000000000000000000000000000000000000000000012000000000000
#00019:00000000000000000000000000120000
#00016:0000000000000000000000000000000000000000000000000000001200000000
#0001a:0000000000000012
#00119:00120000000000120000000000120000
#0011c:00000012000000001200000012000000
#00115:0012120000000000
#00112:22000000001200000000120000000000
#00116:0000000012000012
#00117:00000000000000000000001200000000
#00113:00000000000000000000000000000012
#00118:00000000001200000000000000000000
#00218:12000000001200000000000000120000
#00216:00120000000012000012000000000000
#00219:00001200000000120000120000000000
#0021c:00000012000000001200000000000000
#00212:00000000120000000000000000000012
#00213:00000000000000000000001200000000
#0021b:00000012
#00215:0000000000000012
#00315:00120000000000120000000000120000
#00312:00000012000000001200000012000000
#00319:0012120000000000
#0031c:12000000001200000000120000000000
#00318:0000000012000012
#00316:00000000001200000000000000000000
#00317:00000000000000000000001200000000
#0031b:00000000000000000000000000000012
#00310:41
#02113:1313130000000000
#02117:0000001300000000
#02115:00130013001300000000000000000000
#02114:0013001300130013000000000000000000000000000000000000000000000000
#0211a:2313130000000000
#02116:000000000000000000000000000000000000000000000000000000000000000000000000000000000000000000000000000000000000000000000000000000000000000000000000001300000000000000000000000000000000000000000000000000000000000000000000000000000000000000000000000000000000000000000000000000000000000000000000000000000000000000000000000000000000000000000000000000000000000000000000000000000000000000000000
#02118:00130013001300000000000000000000
#02119:0013001300130013000000000000000000000000000000000000000000000000
#02519:0000001300000000
#02512:00000014000000000000001400000000
#02515:0013000000130000
#02518:00000000000000000013000000000000
#0251b:0013000013000000
#02514:00000000001400000000000000000000
#02517:00130000
#02516:00000000000000140000000000000000
#0251a:00000000000000000000001400000000
#00852:00000000000000140000000000000000
#00856:000000000000000000000000000000000000000000000000000000000000000000000000000000000000140000000000000000000000000000000000000000000000000000000000005200000024000000000000000000000000000000000000
#0115a:14
#0115b:00630000
#01152:0053
#01252:14000000000000140000000000000000
#0125a:00000014000000000000000000000000
#0125b:00000000000000630000000000000000
#01257:0000000000000000000000000000000000230000000000000000000000000000
#01655:00000013
#01658:0000000000000013
#0165a:14000000000000140000000000000000
#01652:00000014000000530000000000000000
#01656:0000000000000000000000000000000000230000000000000000000000000000
#01356:00000000000000000000005200000000
#0135c:0052
#01852:1c34003400340034
#01857:00530000
#0185b:00000063
#00552:1c
#0055b:00000000000000000000005300000000
#00554:0000000000000000000000000000000000000000000000000000002400000000
#0145c:0000001200000000
#01456:0000001200000000
#01458:00000052000000000000000000000000
#01452:52
#01957:00000000002300000000000000000000
#0195b:00630000
#01952:0034003400000000
#04058:00460000
#04056:0022000000530000
#0405a:64
#04052:00360023
#02359:00000000000000000000000000000000000000000000000000000000000000000000000000000000000000000000000052250000000000000000000000000000
#02352:00000000000000000000000000000000000000002300000000000000000000000000230000000000000000000000000052250000000000000000000000000000
#0235b:63000063000000530000000000000000
#02357:0000000000000000000000000000000000230000000000000000000000000000
#02356:00000000000000530000000000000000
#03452:0016160000000000
#03458:0000000000161600
#03152:0000000046365600
#03158:0000000036460026
#0435b:0062006200620062006200620062006200620062006200000000000000000000
#0435c:2222222222220000
#0435a:00220022002200220022000000000000
#04156:53
#04157:00530000
#04153:00000000002300000000000000000000
#0415a:00230000000000000000000000000000
#04152:0016
#04158:0016
#0225b:13530000
#02252:0000005300000000
#03252:36000023000000230000000000000000
#0325b:53000000530000000000006300000000
#03257:00230000002300000000000000000000
#03256:0053005300000000
#03652:63000000630000000000005300000000
#03656:00230000002300000000000000000000
#03658:16
#0365b:00000023000000230000000000000000
#03657:0063006300000000
#03855:46003633
#03858:00430000
#01552:14530000
#0155b:0063
#02056:00630000
#02052:00000053
#0205a:0044004400440044
#00955:13
#0485b:00000000000000520000230000000000
#04859:00000000000000000053000000000000
#04857:00000000000000002300003400000000
#04856:00000000000000520000230000000000
#04854:00000000000000000053000000000000
#04852:1c000000000000002300003400000000
#04756:14
#04553:0052005200520052005200520052005200520052005200000000000000000000
#04552:00220022002200220022000000000000
#04554:2222222222220000
#04453:0000000000000000000000000000000000000000000000000000000000000052
#04452:00000000000000000000000000000022
#00456:000000000000000000000000000000000000000000000000000000000000000000000000000000000000000000000000242400000000000000000000000000000000000000000000000000000000000000000000000000000000000000000000000000000000000000000000000000000000000000000000000000000000000000000000000000000000000000000000000000000000000000000000000000000000000000000000000000000000000000000000000000000000000000000000
#0045a:6444
#00452:5434
#02852:1300000000000063
#02857:13000000000000000000004300000000
#0285b:0053
#0275b:0000000000000053
#02756:00000053
#02956:13000000000000000000003300000000
#0295b:1300000000000053
#02952:0063
#03352:0000230000530033
#03356:0000230000530033
#0335b:0063004300002300
#03357:0063004300002300
#03552:0000001600160016
#03558:0016000016001600
#03752:0013
#0375b:0013
#0425a:0014
#04252:1400000000530000
#04254:0014000000000000
#04256:00140000
#04258:0000001400000000
#04257:00005353
#0505b:00000042
#05058:00004600000000460000000000000000
#05052:36000000360000360000000000000000
#04952:00000000000000230000001400000000
#0495a:00000000000000000000001400000000
#04956:000000000000000000000000000000000000000000000000000000000000000000000000000000000000000000000000000000000000000000000000000000000000000000000000000000000000000000000000000000000000000000000000000000000000000000000000545400000000000000000000000000000000000000000000000000000000000000000000000000000000000000000000000000000000000000000000000000000000000000000000000000000000000000000000
#0495b:00000000000000230000000000000000
#00658:46
#00657:0000000000000024
#00652:00000000000000000000006300000000
#00752:36
#0175a:00000044000000000000000000000000
#01752:34
#02153:2323230000000000
#02157:0000002300000000
#02155:00230023006300000000000000000000
#02154:0053005300530053000000000000000000000000000000000000000000000000
#02152:0034
#0215a:2323230044000000
#02156:000000000000000000000000000000000000000000000000000000000000000000000000000000000000000000000000000000000000000000000000000000000000000000000000002300000000000000000000000000000000000000000000000000000000000000000000000000000000000000000000000000000000000000000000000000000000000000000000000000000000000000000000000000000000000000000000000000000000000000000000000000000000000000000000
#02158:00230023005300000000000000000000
#02159:0063006300630063000000000000000000000000000000000000000000000000
#02452:00000000630000000000000000000014
#0245b:0000006300000000
#0245a:00000000000000000000000000000014
#02552:00000000000000000000006400140000
#0255a:00000000000000000000005400140000
#03057:13
#03052:13
#0043a0:1424
#004360:000000000000000000000000000000000000000000000000000000000000000000000000000000000000000000000000005400000000000000000000000000000000000000000000000000000000000000000000000000000000000000000000000000000000000000000000000000000000000000000000000000000000000000000000000000000000000000000000000000000000000000000000000000000000000000000000000000000000000000000000000000000000000000000000
#004321:1424
#004361:00540000
#0053b1:00000000000000000000001300000000
#005341:0000000000000000000000000000000000000000000000000000005400000000
#006381:26
#006321:00000000000000000000001300000000
#006371:00000000000000000000000000240000
#006371:0000000000000014
#007321:26
#008321:000000000000000000000000000000000000000000000000000000000000000000000000000000000000000000000000000000000000000000000000000000000000000000000000000000000000000000000000000000000000000000000000000000000000000000000000000000000000000000000000000000000000000000000000000000000000000000000000000000000000000000000000000000000000000000000000000000000000000000000000000000000000000000000000000000000000000000000000000000000000000000000000000000000000000000000000000000000000000000000000000000000000000000000000000000000000000000000000000000000000000000000000000000000000000000000000000000000000000000000000000000000000000000000000000000000000000000000000000000000000000000000000000000000000000000000000000000000000000000000000000000000000000000000000000000000000000000000000000000000000000000000000000000000000000000000000000000000000000000000000000000000000000000000000000000000000000000000000000000000000000000000000000000000000000000000000000000000000000000000000000000000000000000000000000000000000000000000000000000000000000000000000000000000000000000000000000000000000000000000000000000000000000000000000000000000000000000000000000000000000000000000000000000000000000000000000000000000000000000000000000000000000000000000000000000000000000000000000000000000000000000000000000000000000000000000000000000000000000000000000000000000000000000000000000000000000000000000000000000000000000000000000000000000000000000000000000000000000000000000000000000000000000000000000000000000000000000000000000000000000000000000000000000000000000000000000000000000000000000000000000000000000000000000000000000000000000000000000000000000000000000000000000000000000000000000000000000000000000000000000000000000000000000000000000000000000000000000000000000000000000000000000000000000000000000000000000000000000000000000000000000000000000000000000000000000000000000000000000000000000000000000000000000000000000000000000000000000000000000000000000000000000000000000000000000000000000000000000000000000000000000000000000000000000000000000000000000000000000000000000000000000000000000000000000000000000000000000000000000000000000000000000000000000000000000000000000000000000000000000000000000000000000000000000000000000000000000000000000000000000000000000000000000000000000000000000000000000000000000000000000000000000000000000000000000000000000000000000000000000000000000000000000000000000000000000000000000000000000000000000140000000000000000000000000000000000005400000000000000000000000000000000000000000000000000000000000000000000000000000000000000000000000000000000000000000000000000000000000000000000005300000000000000000000000000000000000000000000000000000000000000000000000000000000000000000000000000000000000000000000000000000000000000000000000000000000000000000000000000000000000000000000000000000000000000000000000000000000000000000000000000000000000000000000000000000000000000000000000000000000000000000000000000000000000000000000000000000000000000000000000000000000000000000000000000000000000000000000000000000000000000000000000000000000000000000000000000000000000000000000000000000000000000000000000000000000000000000000000000000000000000000000000000000000000000000000000000000000000000000000000000000000000000000000000000000000000000000000000000000000000000000000000000000000000000000000000000000000000000000000000000000000000000000000000000000000000000000000000000000000000000000000000000000000000000000000000000000000000000000000000000000000000000000000000000000000000000000000000000000000000000000000000000000000000000000000000000000000000000000000000000000000000000000000000000000000000000000000000000000000000000000000000000000000000000000000000000000000000000000000000000000000000000000000000000000000000000000000000000000000000000000000000000000000000000000000000000000000000000000000000000000000000000000000000000000000000000000000000000000000
#008331:000000000000000000000000000000000000000000000000000000000000000000000000000000000000000000000000000000000000000000000000000000000000000000000000000000000000000000000000000000000000000000000000000000000000000000000000000000000000000000000000000052000000000000520000220000000000000000000000000000000000000000000000000000000000000000000000000000000000000000000000000000000000000000000000
#008361:000000000000000000000000000000000000000000000000000000000000000000000000000000000000000000000000000000000000000000000000000000000000000000000000000000000000000000000000000000000000000000000000000000000000000000000000000000000000000000000000000000000000000000000000000000000000000000000000000000000000000000000000000000000000000000000000000000000000000000000000000000000000000000000000000000000000000000000000000000000000000000000000000000000000000000000000000000000000000000000000000000000000000000000000000000000000000000000000000000000000000000000000000000000000000000000000000000000000000000000000000000000000000000000000000000000000000000000000000000000000000000000000000000000000000000000000000000000000000000000000000000000000000000000000000000000000000000000000000000000000000000000000000000000000000000000000000000000000000000000000000000000000000000000000000000000000000000000000000000000000000000000000000000000000000000000000000000000000000000000000000000000000000000000000000000000000000000000000000000000000000000000000000000000000000000000000000000000000000000000000000000000000000000000000000000000000000000000000000000000000000000000000000000000000000000000000000000000000000000000000000000000000000000000000000000000000000000000000000000000000000000000000000000000000000000000000000000000000000000000000000000000000000000000000000000000000000000000000000000000000000000000000000000000000000000000000000000000000000000000000000000000000000000000000000000000000000000000000000000000000000000000000000000000000000000000000000000000000000000000000000000000000000000000000000000000000000000000000000000000000000000000000000000000000000000000000000000000000000000000000000000000000000000000000000000000000000000000000000000000000000000000000000000000000000000000000000000000000000000000000000000000000000000000000000000000000000000000000000000000000000000000000000000000000000000000000000000000000000000000000000000000000000000000000000000000000000000000000000000000000000000000000000000000000000000000000000000000000000000000000000000000000000000000000000000000000000000000000000000000000000000000000000000000000000000000000000000000000000000000000000000000000000000000000000000000000000000000000000000000000000000000000000000000000000000000000000000000000000000000000000000000000000000000000000000000000000000000000000000000000000000000000000000000000000000000000000000000000000000000000000000000000000000000000000000000000000000000000000000000000000000000000000000000000000000000000000000000000000000000000000000000000000000000000000000000000000000000000000000000000000000000000000000000000000000000000000000000000000000000000000000000000000000000000000000000000000000000000000000000000000000000000000000000000000000000000000000000000000000000000000000000000000000000000000000000000000000000000000000000000000000000000000000000000000000000000000000000000000000000000140000000000000000000000000000000000005452000000000000000000000000000000000000000000000000000000000000000000000000000000000000000000000000000000000000000000000000000000000000000000000000000000000000005400000000000000000000000000000000000000000000000000000000000000000000000000000000000000000000000000000000000000000000000000000000000000000000000000000000000000000000000000000000000000000000000000000000000000000000000000000000000000000000000000000000000000000000000000000000000000000000000000000000000000000000000000000000000000000000000000000000000000000000000000000000000000000000000000000000000000000000000000000000000000000000000000000000000000000000000000000000000000000000000000000000000000000000000000000000000000000000000000000000000000000000000000000000000000000000000000000000000000000000000000000000000000000000000000000000000000000000000000000000000000000000000000000000000000000000000000000000000000000000000000000000000000000000000000000000000000
#008381:00000000000000000000000000000000000000000000000000000000000000000000000000000000000000000000000000000000000000000000000000000000000000000000000000000000000000000000000000000000000000000000000000000000000000000000000000000000000000000000000000000000000000000000000000000000000000000000000000000000000000000000000000000000000000000000000000000000000000000000000000000000000000000000000000000000000000000000000000000000000000000000000000000000000000000000000000000000000000000000000000000000000000000000000000000000000000000000000000000000000000000000000000000000000000000000000000000000000000000000000000000000000000000000000000000000000000000000000000000000000000000000000000000000000000000000000000000000000000000000000000000000000000000000000000000000000000000000000000000000000000000000000000000000000000000000000000000000000000000000000000000000000000000000000000000000000000000000000000000000000000000000000000000000000000000000000000000000000000000000000000000000000000000000000000000000000000000000000000000000000000000052000000000000000000000000000000000000000000000000000000000000000000000000000000000000000000000000000000000000000000000000000000000000000000000000000000000000000000000000000000000000000000000000000000000000000000000000000000000000000000000000000000000000
#008371:00000000000000000000000000220000
#0083a1:000000000000000000000000000000000000000000000000000000000000000000000000000000000000000000000000000000000000000000000000000000000000000000000000000000000000000000000000000000000000000000000000000000000000000000000000000000000000000000000000000000000000000000000000000000000000000000000000000000000000000000000000000000000000000000000000000000000000000000000000000000000000000000000000000000000000000000000000000000000000000000000000000000000000000000000000000000000000000000000000000000000000000000000000000000000000000000000000000000000000000000000000000000000000000000000000000000000000000000000000000000000000000000000000000000000000000000000000000000000000000000000000000000000000000000000000000000000000000000000000000000000000000000000000000000000000000000000000000000000000000000000000000000000000000000000000000000000000000000000000000000000000000000000000000000000000000000000000000000000000000000000000000000000000000000000000000000000000000000000000000000000000000000000000000000000000000000000000000000000000000000000000000000000000000000000000000000000000000000000000000000000000000000000000000000000000000000000000000000000000000000000000000000000000000000000000000000000000000000000000000000000000000000000000000000000000000000000000000000000000000000000000000000000000000000000000000000000000000000000000000000000000000000000000000000000000000000000000000000000000000000000000000000000000000000000000000000000000000000000000000000000000000000000000000000000000000000000000000000000000000000000000000000000000000000000000000000000000000000000000000000000000000000000000000000000000000000000000000000000000000000000000000000000000000000000000000000000000000000000000000000000000000000000000000000000000000000000000000000000000000000000000000000000000000000000000000000000000000000000000000000000000000000000000000000000000000000000000000000000000000000000000000000000000000000000000000000000000000000000000000000000000000000000000000000000000000000000000000000000000000000000000000000000000000000000000000000000000000000000000000000000000000000000000000000000000000000000000000000000000000000000000000000000000000000000000000000000000000000000000000000000000000000000000000000000000000000000000000000000000000000000000000000000000000000000000000000000000000000000000000000000000000000000000000000000000000000000000000000000000000000000000000000000000000000000000000000000000000000000000000000000000000000000000000000000000000000000000000000000000000000000000000000000000000000000000000000000000000000000000000000000000000000000000000000000000000000000000000000000000000000000000000000000000000000000000000000000000000000000000000000000000000000000000000000000000000000000000000000000000000000000000000000000000000000000000000000000000000000000000000000000000000000000000000000000000000000000000000000000000000000000000000000000000000000000000000000000000000000000000000000000000000000000000000000000000000000000000000000000000000000000000000000000000000000000000000000000000000000000000000000000000000000000000000000000000000000000000000000000000000000000000000000000000000000000000000000000000000000000000000000000000000000000000000000000000000000000000000000000000000000000000000000000000000000000000000000000000000000000000000000000000000000000000000000000000000000000000000000000000000000000000000000000000000000000000000000000000000000000000140000000000000000000000000000000000005400000000000000000000000000000000000000000000000000000000000000540000000000000000000000000000000000540000000000000000000000000000000000000000000000000000000000005400000000000000000000000000000000000000240000000000000000000000000000000000000000000000000000000000000000000000000000000000000000000000000000000000000000000000000000000000000000000000000000000000000000000000000000000000000000000000000000000000000000000000000000000000000000000000
#0083c1:000000000000000000000000000000000000000000000000000000000000000000000000000000000000000000000000000000000000000000000000000000000000000000000000000000000000000000000000000000000000000000000000000000000000000000000000000000000000000000000000000000000000000000000000000000000000000000000000000000000000000000000000000000000000000000000000000000000000000000000000000000000000000000000000000000000000000000000000000000000000000000000000000000000000000000000000000000000000000000000000000000000000000000000000000000000000000000000000000000000000000000000000000000000000000000000000000000000000000000000000000000000000000000000000000000000000000000000000000000000000000000000000000000000000000000000000000000000000000000000000000000000000000000000000000000000000000000000000000000000000000000000000000000000000000000000000000000000000000000000000000000000000000000000000000000000000000000000000000000000000000000000000000000000000000000000000000000000000000000000000000000000000000000000000000000000000000000000000000000000000000000000000000000000000000000000000000000000000000000000000000000000000000000000000000000000000000000000000000000000000000000000000000000000000000000000000000000000000000000000000000000000000000000000000000000000000000000000000000000000000000000000000000000000000000000000000000000000000000000000000000000000000000000000000000000000000000000000000000000000000000000000000000000000000000000000000000000000000000000000000000000000000000000000000000000000000000000000000000000000000000000000000000000000000000000000000000000000000000000000000000000000000000000000000000000000000000000000000000000000000000000000000000000000000000000000000000000000000000000000000000000000000000000000000000000000000000000000000000000000000000000000000000000000000000000000000000000000000000000000000000000000000000000000000000000000000000000000000000000000000000000000000000000000000000000000000000000000000000000000000000000000000000000000000000000000000000000000000000000000000000000000000000000000000000000000000000000000000000000000000000000000000000000000000000000000000000000000000000000000000000000000000000000000000000000000000000000000000000000000000000000000000000000000000000000000000000000000000000000000000000000000000000000000000000000000000000000000000000000000000000000000000000000000000000000000000000000000000000000000000000000000000000000000000000000000000000000000000000000000000000000000000000000000000000000000000000000000000000000000000000000000000000000000000000000000000000000000000000000000000000000000000000000000000000000000000000000000000000000000000000000000000000000000000000000000000000000000000000000000000000000000000000000000000000000000000000000000000000000000000000000000000000000000000000000000000000000000000000000000000000000000000000000000000000000000000000000000000000000000000000000000000000000000000000000000000000000000000000000000000000000000000000000000000000000000000000000000000000000000000000000000000000000000000000000000000000000000000000000000000000000000000000000000000000000000000000000000000000000000000000000000000000000000000000000000000000000000000000000000000000000000000000000000000000000000000000000000000000000000000000000000000000000000000000000000000000000000000000000000000000000000000000000000000000000000000000000000000000000000000000000000000000000000000000000000000000000000000000000000000000000000000000000000000000000000000000052000000000000000000000000000000000000000000000000000000000052000000000000000000000000000000000000005200000000000000000000000000000000000000000000000000000000520000000000000000000000000000000000000000000000000000000000000000000000000000000000000000000000000000000000000000000000000000000000000000000000000000000000000000000000000000000000000000000000000000000000000000000000000000000000000000000000000000000000000000000000000000000000000000
#009381:13000000000000000000000000005356365600000000000000000000000000563656530000000000000000000000535636560000000000000000000000000000
#0093b1:0000000000000000005300000000005300000000000000000053000000000000
#0103b1:23
#010350:1300000000000053000000000000000000530000000000530000000000000000
#010320:00000000000000000000000000000056365653000000000000000000000053563656000000000000000000000000005636565300000000000000000000000000
#011320:23
#0113b0:00130000
#011360:0000002300000000
#011320:0013
#011370:0000000000230000
#011370:00000000000000000000001300230000
#0123b0:00000000000000130000230000000000
#012370:0000000000000000000000000000000000530000000000000000000000000000
#0133c0:0012
#013380:0000000000220000
#013360:00000000000000000000001200000000
#013320:00000000000000000000000000220000
#014320:12
#014360:0022000000000000
#014380:00000012000000000000000000000000
#0143c0:00000000002200000000000000000000
#015320:00130000
#015370:0000002300000000
#0153b0:0013
#015360:0000000000230000
#015360:00000000000000000000001300230000
#016320:00000000000000130000230000000000
#016360:0000000000000000000000000000000000530000000000000000000000000000
#018370:00130000
#0183b0:00000000005323000000000000000000
#0183b0:00000013
#018370:00000000000000000000000000532300
#0193b0:0000132300000000
#019370:00000000005300000000000000000000
#020360:00130000
#020320:00000000005323000000000000000000
#020320:00000013
#020360:00000000000000000000000000532300
#021330:1333330000000000
#021340:0033003300330033000000000000000000000000000000000000000000000000
#021350:00330033005300000000000000000000
#021370:0000005300000000
#021320:0024
#0213a1:1333330024000000
#021391:0033003300330033000000000000000000000000000000000000000000000000
#021381:00330033005300000000000000000000
#021361:000000000000000000000000000000000000000000000000000000000000000000000000000000000000000000000000000000000000000000000000000000000000000000000000005300000000000000000000000000000000000000000000000000000000000000000000000000000000000000000000000000000000000000000000000000000000000000000000000000000000000000000000000000000000000000000000000000000000000000000000000000000000000000000000
#0223b1:00130000
#022371:0000002300000000
#022320:0000001300000000
#022360:0023
#0233b0:13
#023360:0023000000000000
#0233b0:00000013000000000000000000000000
#023360:00000000002300000000000000000000
#023321:0000000000000000000013000000000000530000000000000000000000000000
#023361:00000000000000330000230000000000
#0233b0:00000000000000130000230000000000
#023370:0000000000000000000000000000000000530000000000000000000000000000
#023320:00000000000000000000000000000000000000000000000000000000000000000000000000000000000000000000000012550000000000000000000000000000
#023350:000000000000000000000000000000000000000000000000000000000000000000000000000000000000000000000000000000000000000000000000000000000000000000000000000000000000000000000000000000000000000000000000000000000000000000000000000000000000000000000000000000000000000000000000000000000000000000000000000000000000000000000000000000000000000000000000000000000000000000000000000000000000000000000000000000000000000000000000000000000000000000000000000000000000000000000000000000000000000000000000000000000000000000000000000000000000000000000000000000000000000000000000000000000000000000000000000000000000000000000000000000000000000000000000000000000000000000000000000000000000000000000000000000000000000000000000000000000000000000000000000000000000000000000000000000000000000000000000000000000000000000000000000000000000000000000000000000000000000000000000000000000000000000000000000000000000000000000000000000000000000000000000000000000000000000000000000000000000000000000000000000000000000000000000000000000000000000000000000000000000000000000000000000000000000000000000000000000000000000000000000000000000000000000000000000000000000000000000000000000000000000000000000000000000000000000000000000000000000000000000000000000000000000000000000000000000000000000000000000000000000000000000000000000000000000000000000000000000000000000000000000000000000000000000000000000000000000000000000000000000000000000000000000000000000000000000000000000000000000000000000000000000000000000000000000000000000000000000000000000000000000000000000000000000000000000000000000000000000000000000000000000000000000000000000000000000000000000000000000000000000000000000000000000000000000000000000000000000000000000000000000000000000000000000000000000000000000000000000000000000000000000000000000000000000000000000000000000000000000000000000000000000000000000000000000000000000000000000000000000000000000000000000000000000000000000000000000000000000000000000000000000000000000000000000000000000000000000000000000000000000000000000000000000000000000000000000000000000000000000000000000000000000000000000000000000000000000000000000000000000000000000000000000000000000000000000000000000000000000000000000000000000000000000000000000000000000000000000000000000000000000000000000000000000000000000000000000000000000000000000000000000000000000000000000000000000000000000000000000000000000000000000000000000000000000000000000000000000000000000000000000000000000000000000000000000000000000000000000000000000000000000000000000000000000000000000000000000000000000000000000000000000000000000000000000000000000000000000000000000000000000000000000000000000000000000000000000000000000000000000000000000000000000000000000000000000000000000000000000000000000000000000000000000000000000000000000000000000000000000000000000000000000000000000000000000000000000000000000000000000000000000000000000000000000000000000000000000000000000000000000000000000000000000000000000000000000000000000000000000000000000000000000000000000000000000000000000000000000000000000520000000000000000000000000000000000000000000000000000000000000000000000000000000000000000000000000000000000000000000000320000000000000000000000000000000000000000000000000000000000000000000000000000000000000000000000005254000000000000000000000000000000000000005552000000000000000000000000000000000000000000000000000000525400000000000000000000000000000000000000250000000000000000000000000000000000000000000000000000000000000000000000000000000000000000000000000000000000000000000000000000000000000000000000000000000000000000000000000000000000000000000000000000000000000000000000000000000000000000000000000000000000000000000000000000000000000000000000000000000000000000000000000000000000000000000000000000000000000000000000000000000000000000000000000000000000000000000000000000000000000000000000000000000000000000000000000000000000000000000000
#023391:000000000000000000000000000000000000000000000000000000000000000000000000000000000000000000000000000000000000000000000000000000000000000000000000000000000000000000000000000000000000000000000000000000000000000000000000000000000000000000000000000000000000000000000000000000000000000000000000120000550000000000000000000000000055000000005500000000000000000000000000000000000000000000000000
#0233c1:000000000000000000000000000000000000000000000000000000000000000000000000000000000000000000000000000000000000000000000000000000000000000000000000000000000000000000000000000000000000000000000000000000000000000000000000000000000000000000000000000000000000000000000000000000000000000000000000000000000000000000000000000000000000000000000000000000000000000000000000000000000000000000000000000000000000000000000000000000000000000000000000000000000000000000000000000000000000000000000000000000000000000000000000000000000000000000000000000000000000000000000000000000000000000000000000000000000000000000000000000000000000000000000000000000000000000000000000000000000000000000000000000000000000000000000000000000000000000000000000000000000000000000000000000000000000000000000000000000000000000000000000000000000000000000000000000000000000000000000000000000000000000000000000000000000000000000000000000000000000000000000000000000000000000000000000000000000000000000000000000000000000000000000000000000000000000000000000000000000000000000000000000000000000000000000000000000000000000000000000000000000000000000000000000000000000000000000000000000000000000000000000000000000000000000000000000000000000000000000000000000000000000000000000000000000000000000000000000000000000000000000000000000000000000000000000000000000000000000000000000000000000000000000000000000000000000000000000000000000000000000000000000000000000000000000000000000000000000000000000000000000000000000000000000000000000000000000000000000000000000000000000000000000000000000000000000000000000000000000000000000000000000000000000000000000000000000000000000000000000000000000000000000000000000000000000000000000000000000000000000000000000000000000000000000000000000000000000000000000000000000000000000000000000000000000000000000000000000000000000000000000000000000000000000000000000000000000000000000000000000000000000000000000000000000000000000000000000000000000000000000000000000000000000000000000000000000000000000000000000000000000000000000000000000000000000000000000000000000000000000000000000000000000000000000000000000000000000000000000000000000000000000000000000000000000000000000000000000000000000000000000000000000000000000000000000000000000000000000000000000000000000000000000000000000000000000000000000000000000000000000000000000000000000000000000000000000000000000000000000000000000000000000000000000000000000000000000000000000000000000000000000000000000000000000000000000000000000000000000000000000000000000000000000000000000000000000000000000000000000000000000000000000000000000000000000000000000000000000000000000000000000000000000000000000000000000000000000000000000000000000000000000000000000000000000000000000000000000000000000000000000000000000000000000000000000000000000000000000000000000000000000000000000000000000000000000000000000000000000000000000000000000000000000000000000000000000000000000000000000000000000000000000000000000000000000000000000000000000000000000000000000000000000000000000000000000000000000000000000000520000000000000000000000000000000000000000000000000000000000000000000000000000000000000000000000000000000000000000000000320000000000000000000000000000000000000000000000000000000000000000000000000000000000000000000000005200000000000000000000000000000000000000000052000000000000000000000000000000000000000000000000000000520000000000000000000000000000000000000000000000000000000000000000000000000000000000000000000000000000000000000000000000000000000000000000000000000000000000000000000000000000000000000000000000000000000000000000000000000000000000000000000000000000000000000000000000000000000000000000000000000000000000000000000000000000000000000000000000000000000000000000000000000000000000000000000000000000000000000000000000000000000000000000000000000000000000000000000000000000000000000000000000000000000000000000000000000000000000000000
#0233a1:000000000000000000000000000000000000000000000000000000000000000000000000000000000000000000000000000000000000000000000000000000000000000000000000000000000000000000000000000000000000000000000000000000000000000000000000000000000000000000000000000000000000000000000000000000000000000000000000000000000000000000000000000000000000005400000000240000000000000000000000000000000000000000000000
#024321:00130000
#024341:00000000003300000000000000000000
#024361:0000002300000000
#0243b0:0000001300000000
#024390:00000000000000330000000000000000
#024370:0023
#025320:00000000000000000000001400000000
#0253a0:00000000000000000000000000240000
#0253a1:00000000000000000000001400000000
#025321:00000000000000000000000000240000
#0263c1:1200002200000000
#026321:0000000012000022
#027321:000000000000000000000000000000000000000000000000165656565656260000000000000000000000000000000000
#027341:000000000000000000000000000000000000000000000000000000000000000000000000000000000000000000000000005200520052005200520052000000000000000000000000000000000000000000000000000000000000000000000000
#027380:000000000000000000000000000000000000000000000000165656565656260000000000000000000000000000000000
#0273a0:000000000000000000000000000000000000000000000000000000000000000000000000000000000000000000000000005200520052005200520052000000000000000000000000000000000000000000000000000000000000000000000000
#027360:00000013
#027320:0000000000000023
#0273b1:0000000000000013
#028371:23
#0283b1:0013
#028371:00000000000000000053230000000000
#028321:0000000000000013
#029361:23
#029321:0013
#029361:00000000000000000053230000000000
#0293b1:0000000000000013
#030371:23
#030361:0014
#030321:000024
#030361:00000014
#0303a1:000000000000000000000024
#031321:0000000000000000000000000000000000000000000000001636363600363636
#031381:0000000000000036
#032321:26
#0323b0:1323000000000000
#032370:00530000000000000000000000000000
#032361:0013230000000000
#032321:00000053000000000000000000000000
#0323b0:0000132300000000
#032370:00000000005300000000000000000000
#032361:0000001323000000
#032321:00000000000000530000000000000000
#0323b1:00000000000000000000001300000000
#032371:00000000000000000000000000230000
#033371:0013002300000000
#033321:00530000
#0333b0:0013002300000000
#033360:00530000
#033360:0000000000130023
#0333b0:00000053
#033321:0000000000130023
#033371:00000053
#035381:1626000000000000
#035321:0000162600000000
#036321:1323000000000000
#036361:00530000000000000000000000000000
#036370:0013230000000000
#0363b0:00000053000000000000000000000000
#036321:0000132300000000
#036361:00000000005300000000000000000000
#036370:0000001323000000
#0363b0:00000000000000530000000000000000
#036320:00000000000000000000001300000000
#036360:00000000000000000000000000230000
#038380:0013230000000000
#038350:0000000000132300
#0403a0:1434343400343434000000000000000000000000000000000000000000000000
#040360:0032000000000000
#040380:00260000
#040360:0000000000130023
#040320:00000033
#041360:1323000000000000
#0413a0:00530000000000000000000000000000
#041370:0000132300000000
#041330:00000000005300000000000000000000
#042370:00001333
#042320:0000000000330023
#0433c0:1252525252520000
#0433b0:0052005200520052005200520052005200520052005200000000000000000000
#0433a0:00520052005200520052002200000000
#044320:00000000000000000000000000000012
#044330:0000000000000000000000000000000000000000000000000000000000000052
#045340:5252525252520000
#045330:0052005200520052005200520052005200520052005200000000000000000000
#045320:00520052005200520052002200000000
#046360:00000000122200000000000000000000
#0463c0:00000000000000120000000000000000
#046370:0000000000220000
#0463c0:00000012
#046380:0000000000000022
#046361:0000000000000012
#047321:22
#047321:00000000000000000000000000000000000000001c5a005c5a005c5a005c5a00
#047341:00000000000000000000000000000000000000000000000000000000000000000000000000000000005400005a00005400005a00005400005a00005400005a00
#047361:00000000000000000000000000000000000000000000000000000000000000000000000000000000000000540000000000540000000000540000000000540000
#047381:00000000000000000000000000000000000000000000000000000000000000000000000000000000000000000054000000000054000000000054000000000054
#048321:2c
#0483b1:00000000000000120000530000000000
#048371:00000000000000005300002400000000
#048391:00000000000000000053000000000000
#048360:00000000000000120000530000000000
#048320:00000000000000005300002400000000
#048340:00000000000000000053000000000000
#0493b0:00000000000000130000000000000000
#049360:00000000000000000034000000000000
#0493a0:000000000000000000000000000000000000000000000000000000000000005400240000000000000000000000000000
#049321:000000000000000000000000000000000000000000130000000000000000005400240000000000000000000000000000
#049361:000000000000000000000000000000000000000000000000000000000000000000000000000000000000000000000000000000000000000000000000000000000000000000000000000000000000000000000000000000000000000000000000000000000000000000000000005400000000000000000000000000000000000000000000000000000000000000000000000000000000000000000000000000000000000000000000000000000000000000000000000000000000000000000000
