This file was generated by Ched 2.7.0.0.
#TITLE ""
#ARTIST ""
#DESIGNER ""
#DIFFICULTY 0
#PLAYLEVEL
#SONGID ""
#WAVE ""
#WAVEOFFSET 0
#JACKET ""
#REQUEST "ticks_per_beat 480"
#00002: 4
#BPM01: 131
#00008: 01
#TIL00: ""
#HISPEED 00
#MEASUREHS 00
#0011a:1414
#00114:00140000
#00212:1414
#00218:00140000
#0031a:14
#00318:0014
#00314:00140000
#00310:41
#00412:14
#00414:0014
#00418:00140000
#00514:00140000
#00518:0014
#00512:00000014
#0051a:24
#00618:14
#00614:00140000
#0061a:0014
#00712:14
#00718:00140000
#00714:0014
#0071a:00000014
#00814:14
#00818:00140000
#00812:0014
#01118:14
#01114:00140000
#01119:0014
#01113:0014
#01110:41
#01214:14
#01218:00140000
#01212:0014
#0121a:00000014
#01514:14
#01518:00140000
#01513:0014
#01519:0014
#01618:14
#01614:00140000
#0161a:0014
#01612:00000014
#01718:14
#01714:00140000
#0171a:0014
#01712:00000014
#02114:00140000
#02112:24
#02214:00140000
#02218:0014
#02212:00000014
#0221a:24
#0231a:14
#02314:00140000
#02318:0014
#02312:00000014
#0241a:14
#02412:00140000
#02418:0014
#02414:00000014
#02410:41
#0251a:14
#02512:00140000
#02518:0014
#02514:00000014
#0281a:14001414
#02814:00140000
#02912:14001414
#02918:00140000
#0301a:14
#03018:00140000
#02714:14
#02618:14
#0261f:11
#03212:00160000
#03218:26001414
#03214:0000000000140000
#0321f:21
#0341a:14140000
#03412:00001414
#03312:16
#03318:0000160000140000
#03314:00001414
#03310:41
#03612:16
#03618:0000160000140000
#03614:00001414
#03718:1616
#03712:00160000
#03812:14140000
#0381a:00001414
#0401a:14
#04018:00140000
#04014:00000014
#04312:14
#04314:0000001400000000
#04310:41
#0451a:14
#04518:0000001400000000
#04716:00140000
#04712:0014
#0471a:24000024
#04816:00140000
#0481a:0014
#04812:14000024
#04916:00140014
#04912:0014
#0491a:14
#0501a:14000014
#05016:00140000
#05012:0014
#04219:00000014
#04218:1414
#04214:00140000
#04213:00000014
#04118:14
#04114:00140000
#04119:0014
#04113:0014
#04418:1414
#04414:00140000
#04618:00140000
#04614:1414
#03914:0014
#03912:14
#03518:0014
#0351a:24
#03112:25252500
#03119:25252500
#01313:00340000
#01312:0034
#01419:00340000
#0141a:0034
#01810:41
#00852:0014
#02154:00240000
#02152:5414
#0305a:64
#03058:00240000
#02754:54
#02658:54
#04058:00240000
#0405a:54
#04352:64
#04354:0000002400000000
#0455a:54
#04558:0000002400000000
#0505a:00000014
#04852:00000014
#0475a:00000014
#03152:0015
#03159:0015
#03758:0016
#03852:00140000
#0385a:00000014
#0345a:00140000
#03452:00000014
#0065a:0014
#03954:0054
#03952:24
#03558:0064
#0355a:24
#009380:14
#0093a0:00000024
#010340:14
#010320:00000024
#013340:14
#013330:00340000
#013320:00003424
#014380:14
#014390:00340000
#0143a0:00003424
#018380:1434
#0183a0:00340024
#019340:1424
#019320:00340000
#0203a0:1434
#020380:00340024
#021320:1424
#021340:00540000
#026380:14
#0263a0:0024
#027340:14
#027320:0024
#0303a0:1424
#030380:00540000
#0353a0:14000024
#035380:00343400
#039320:14000024
#039340:00343400
#0403a0:1424
#040380:00540000
#043320:14000024
#043340:0000005400000000
#0453a0:14000024
#045380:0000005400000000
