This file was generated by Ched 2.7.0.0.
#TITLE ""
#ARTIST ""
#DESIGNER ""
#DIFFICULTY 0
#PLAYLEVEL
#SONGID ""
#WAVE ""
#WAVEOFFSET 0
#JACKET ""
#REQUEST "ticks_per_beat 480"
#00002: 4
#BPM01: 176
#00008: 01
#TIL00: ""
#HISPEED 00
#MEASUREHS 00
#00018:14
#00114:14
#0021a:14
#00312:14
#00418:14
#00514:14
#0061a:14
#00712:14
#00818:14
#00914:14
#0101a:14
#01112:14
#0161a:14
#01610:41
#0171a:14
#01814:14
#01914:14
#02018:14
#02118:14
#02212:14
#02312:14
#0321a:14
#03314:14
#0341a:14
#03514:14
#03618:14
#03712:14
#03818:14
#03912:14
#04012:0016
#04018:26
#04010:41
#04118:16
#04112:0016
#04418:1616
#04512:1616
#04818:0016
#04812:26
#04912:16
#04918:0016
#05212:16
#05218:0016
#05312:16
#05318:0016
#05412:16
#05418:0016
#05512:16
#05518:0026
#05612:14
#05610:41
#05718:14
#05814:14
#0591a:14
#06012:14
#06118:14
#06214:14
#0631a:14
#06813:14
#06819:14
#0701a:14
#07112:14
#08012:0016
#0801f:11
#08018:26
#08218:0016
#08212:26
#08418:16
#08412:0016
#08518:16
#08512:0016
#08618:16
#08612:0016
#08818:0016
#08812:26
#0881f:21
#08912:16
#08918:0016
#08910:41
#09212:1616
#09318:1616
#09612:0016
#09618:26
#09718:16
#09712:0016
#10018:1616
#10112:1616
#10218:16
#10212:0016
#10412:1616
#10518:1616
#10612:16
#10618:0016
#02610:41
#07210:41
#012390:14
#013390:24
#014330:14
#015330:24
#0243a0:14
#0253a0:24
#026340:14
#027340:24
#028380:14
#029380:24
#030320:14
#031320:24
#042380:1626
#043320:1626
#046380:1636
#047380:3626
#050320:1626
#051380:1626
#064330:14
#065330:24
#066390:14
#067390:24
#072380:14
#073380:24
#074340:14
#075340:24
#0763a0:14
#0773a0:24
#078320:14
#079320:24
#081380:1626
#083320:1626
#087380:1626
#090320:1626
#091380:1626
#094320:1636
#095320:3626
#098380:1626
#099320:1626
#103380:1626
#107320:16363626
