This file was generated by Ched 2.7.0.0.
#TITLE ""
#ARTIST ""
#DESIGNER ""
#DIFFICULTY 0
#PLAYLEVEL
#SONGID ""
#WAVE ""
#WAVEOFFSET 0
#JACKET ""
#REQUEST "ticks_per_beat 480"
#00002: 4
#BPM01: 176
#00008: 01
#TIL00: ""
#HISPEED 00
#MEASUREHS 00
#00012:2300000000000013
#00018:00130000
#0001b:23
#0031b:1313
#00318:0013001300130013
#00315:00130013
#00312:1313
#01617:00130000
#0161b:2313
#01618:0000000000130000
#01615:00000013
#01612:2300130000000013
#01610:41
#0171b:0013000013000000
#01715:00130000
#01718:0000001300000000
#01712:0013
#01717:00000013
#01816:1300000000000013
#0181b:0013000000001300
#01812:0000130013130000
#01817:0000001313000000
#0191b:0013000013000000
#01918:0000001300001300
#01912:0013
#01915:0000130000130013
#02015:00130000
#02018:0000000000130013
#02012:13000013
#0201b:0000001300000000
#02418:001300000013001300000000
#02415:001313001300
#0241b:00130013
#02412:2313
#02515:001300000013001300000000
#02518:001313001300
#02512:00130013
#0251b:2313
#02618:001300000000130000001300
#02615:000013000013000000130000
#02612:230000000000001300000013
#0261b:000013
#02610:41
#02718:00131313
#02715:000013000000001300001300
#0271b:13
#02712:000000000013000000000000
#02812:1300001300001300
#02817:1300000000130000
#0281b:00000013000000000000000000001300
#02918:00130000
#0291b:1300001300001300
#02912:00000013000000000000130000000000
#02916:13000013
#02917:0000000000130000
#03217:0000130000001313
#0321b:2313
#03212:0000130000001313
#03216:2313
#0331b:0013000000001300
#03317:0000001300000000
#03316:0013000000130000
#03312:0000001300000013
#0341b:0000001300000000
#03417:13000013
#03412:0000000000000013
#03416:00131300
#03517:1313000000000000
#03512:0013000000130000
#03518:00000013
#03515:0000000000000013
#03516:0000001300000000
#03717:0000001300130000
#03712:00000013
#0371b:0013000000000013
#03716:1313000000000000
#0391b:0013
#03918:00000013
#03915:0000000000000013
#03916:0013
#03912:13
#03914:00130000
#03919:00130000
#0401b:23131313
#04012:23131300
#04015:0013000000000000
#04018:0000001300000000
#04016:0000000000130000
#04017:0000000000000013
#04010:41
#04116:0013000013000000
#04114:0000000000130000
#04112:13000013
#0411b:00130000
#04117:0000001300001300
#04119:0000000000130000
#0421b:13000013
#04217:00131300
#04216:13000013
#04214:0013000000000000
#04212:00131300
#04219:0000000000130000
#04318:0000000000000013
#0431b:13132300
#04317:0013001300000000
#04316:13132300
#04312:0013001300000013
#0441b:00001313
#04415:13000013
#04412:0000000000000013
#04418:0000000000000013
#0451b:1300001300130000
#04512:0013000013001300
#04515:1300000000130000
#04518:00130013
#04617:0013000000130000
#04619:00130013
#0461b:0000001300000013
#04616:0000001300000013
#04612:0013000000130000
#04614:0013
#0471b:0013001300000000
#04712:13131300
#04715:00000013
#04718:0000000000000013
#04717:00130000
#04816:00000000000013000000001300000000
#04812:2313
#0481b:2300001300000013
#04817:0013
#05012:23000000000013000000001300000000
#0501b:2300000013000013
#05016:0013
#05017:0000001300000000
#05114:13
#05112:0013000000000000
#05117:0013000000130000
#05119:13
#05116:0000001300000013
#05212:1323
#05217:2313
#05518:23130000
#05515:23230000
#05616:001300000000000000000000
#05619:001300130000
#05614:000000130000001300000000
#05617:001300
#05612:000000000013000000000000
#0561b:230000000000000013000013
#05610:41
#05716:13
#05719:001300000013000000000000
#05714:001300140000
#05717:00130000
#05712:001300
#05718:00000014
#05812:130000001300000000130000
#0581b:001300000013000000130000
#05815:000013000000130013000013
#05818:000000130000001300000000
#06014:00000013
#06018:13
#06015:13
#06019:00000013
#06115:00000013
#06112:13
#0611b:13
#06418:001300000013
#06415:001313
#0641b:0013
#06412:1313
#06612:001300000013
#06615:231313
#06618:001300130013
#0661b:001313
#0651b:1313
#06518:001300000000
#06515:001300
#06516:000014
#06512:1313
#06715:131300
#06712:001300000000
#06718:001300000000
#0671b:001300
#00112:13
#0011b:1300000000000013
#00115:00130000
#0021b:13
#00212:1300000000000013
#00218:00130000
#00417:00130000
#00412:2300001300000013
#0041b:2300000000130000
#00516:00130000
#0051b:1300001300000013
#00512:1300000000130000
#00617:00130000
#00612:1300001300000013
#0061b:1300000000130000
#00712:1313
#0071b:1313
#00715:0013001300130013
#00718:00130013
#00817:0000130000130000
#00816:0000001300000013
#0081b:2300001300000000
#00812:23130000
#0091b:13130000
#00912:1300001300000000
#00916:0000130000130000
#00917:0000001300000013
#01012:13130000
#0101b:1300001300000000
#01017:0000130000130000
#01016:0000001300000013
#01112:13131300
#0111b:13001313
#01115:0013000000001313
#01118:0000131300130000
#01218:12
#01212:12
#01216:00120000
#0121c:0000001200000000
#01214:0000000000120000
#0121a:0000000000000012
#01518:0000120000000012
#01516:1212
#0151c:12
#0151a:0000000000120000
#01514:0012000000001200
#03816:13
#03817:00130000
#03812:0013
#0381b:00000013
#0531b:2313
#05316:1323
#05912:001300000013000013130000
#0591b:131300
#05918:001300130000
#05915:00130000
#02112:0000001300001300
#0211b:13130000
#0221b:13000013
#02217:00131300
#02212:0013
#02216:13
#0231b:13000013
#02317:00131300
#02312:0013
#02316:13
#03012:13000013
#03016:00131300
#0301b:0013
#03017:13
#03112:13000013
#03116:00131300
#0311b:0013
#03117:13
#01316:12
#0131c:12
#01318:00120000
#01312:0000001200000000
#0131a:0000000000120000
#01314:0000000000000012
#01418:12
#01412:12
#01416:00120000
#0141c:0000001200000000
#01414:0000000000120000
#0141a:0000000000000012
#0361b:1300001300000013
#03612:00130013
#03615:0013
#03618:0000000000130000
#0491b:13
#04916:1300001300000000
#04917:00000013000000000000000000000000
#04912:00130000
#04918:00000013
#04915:0000000000000013
#0691b:00000013
#06916:00000013
#07017:00130000
#0701b:00000013
#07117:00130000
#0711b:00000013
#07212:23131313
#0721b:00131300
#07218:0013000000000000
#07215:0000001300000000
#07217:0000000000130000
#07216:0000000000000013
#07210:41
#07317:0013000013000000
#07319:0000000000130000
#0731b:13000013
#07312:00130000
#07316:0000001300001300
#07314:0000000000130013
#07412:1300001300001300
#07416:00131300
#07417:13000013
#07419:0013000000130000
#0741b:00131300
#07515:0000000000000013
#07512:13132300
#07516:0013001300000000
#07517:13132300
#0751b:0013001300000013
#07618:1300000000131300
#0761b:0000000000000013
#07615:0000000000000013
#07612:00000013
#07712:1300001300130000
#0771b:0013000013001300
#07718:1300000000130000
#07715:00130013
#07816:0013000000130000
#07814:00130013
#07812:0000001300000013
#07817:0000001300000013
#0781b:0013000000130000
#07819:0013
#07912:0013001300000000
#0791b:13131300
#07916:00130014
#07914:0000000000000013
#07919:0000000000000013
#08012:2300001313000013
#08017:0000001300000000
#0801b:2313
#0801f:11
#0811b:1300130000130000
#08112:1300001300130000
#08117:0000001300000000
#08116:00000014
#08119:0000000000000013
#08114:0000000000000013
#08215:0000001313000000
#0821b:2300001313000000
#08217:00000000000000000000001300000000
#08212:2300000000000013
#08312:13130013
#08318:1300001300000000
#08315:0013000000130000
#0831b:0013000013000013
#08412:13132300
#0841b:23001313
#08512:1313131300000000
#0851b:0000000013131313
#08516:0023
#08517:23
#08612:1313000013130000
#08618:00130013000000000013001300000000
#08615:0000131300001313
#0861b:00000000001300130000000000130013
#08712:1616
#08718:00161600
#08714:00000028
#08812:23131313
#0881b:1300001300000000
#08819:0013000000000000
#08817:00131300
#0881f:21
#08912:13131313
#08910:41
#0901b:23131313
#09016:1313
#09014:0000000000130013
#09012:00000013
#0911b:13131313
#09115:0000000000000013
#10012:13
#10014:0013000000130000
#10019:0013000000130000
#1001b:0013
#10017:23
#10016:0023
#1021b:0013000013000000
#10217:2300000000130000
#10212:1300000000130000
#10216:0013000023000000
#10112:1300000000130000
#10115:0013000023000000
#1011b:0013000013000000
#10118:2300000000130000
#10412:00132300
#1041b:23000013
#10417:0013000000000000
#10416:0000000000130000
#10415:23
#10516:0000130000130000
#10517:0013000000001300
#1051b:23
#10512:0023
#10612:00132300
#10617:0013000000000000
#1061b:23000013
#10616:0000000000130000
#10715:0000001300001600
#10718:2300001300000000
#1071b:00130000
#10712:00230000
#09212:23131313
#09217:13001313
#0921b:0013001300000000
#09219:0000000000000013
#0931b:23131313
#09316:13000000000000003313330000000000
#09312:0013001300000000
#09415:0013000013001300
#09418:0013000000130000
#09412:1300000000000013
#0941b:1300000000000013
#09515:0000001300000013
#09518:0000001300001300
#09512:00130000
#0951b:00130000
#09612:23130000
#0961b:13001313
#09616:0000001413000000
#09615:0000000000000013
#09712:13130000
#0971b:00130013
#09718:1300000000000013
#09715:0000001300001300
#09812:23130000
#0981b:13001313
#09816:0000001413000000
#09815:0000000000000013
#09912:1300130000000013
#0991b:0013000013000000
#09919:00000013
#09918:13
#09916:0000001300000000
#09914:0000000000130000
#0541b:00130000
#05417:2313
#05412:1313
#05416:00130000
#10312:23130000
#1031b:23230000
#0245b:00000043
#02552:00000033
#00452:0000006300000000
#0045b:0000000000630000
#0055b:0000005300000000
#00552:0000000000530000
#00652:0000006300000000
#0065b:0000000000630000
#00856:0000006300000000
#00857:0000000000630000
#00956:0000000000530000
#00957:0000005300000000
#01057:0000000000630000
#01056:0000006300000000
#01558:00620000
#03856:63
#03857:00530000
#03852:0053
#0385b:00000063
#05252:6353
#05257:6363
#0535b:6353
#05356:5353
#05558:00230000
#0555b:0043
#05552:0033
#05555:00230000
#05754:0034
#05758:00000044
#06058:53
#06055:63
#06152:53
#0615b:63
#02252:0063
#02256:53
#02352:0063
#02356:53
#0305b:0053
#03057:63
#0315b:0053
#03157:63
#01652:0000000000000053
#0175b:0053
#01757:00000023
#01752:0013
#01856:0000000000000063
#02052:13
#0205b:0000001300000000
#0215b:13
#02152:0000001300000000
#03356:0033000000000000
#03357:0000004300000000
#02755:000000000013
#02758:00130000
#04252:00130000
#04257:00130000
#04256:00000013
#0425b:00000013
#0435b:53531300
#04356:53531300
#04357:0053005300000000
#04352:0053005300000000
#02857:63
#0285b:00000023000000000000000000000000
#02956:53
#02952:00000023000000000000000000000000
#03557:0053000000000000
#0355b:0000001300000000
#03756:0063000000000000
#03752:0000001300000000
#03456:0063
#03457:53
#0365b:53
#04052:0053
#04056:0000000000230000
#0405b:00000063
#04057:0000000000000023
#04152:53
#04156:0023000000000000
#0415b:00630000
#04157:0000002300000000
#04555:63
#04552:0023000000001300
#04558:00530013
#0455b:0000002300000000
#04656:0000000000000063
#04752:23
#04757:00530000
#0475b:0000002300000000
#04852:1353
#04856:00000000000000000000002300000000
#0485b:13
#0495b:6300004300000000
#04957:00000023000000000000000000000000
#05056:0063
#05052:13000000000000000000002300000000
#0505b:13
#05157:0053000000530000
#05156:0000006300000000
#0515b:0000001300000013
#05152:0013000000130000
#0695b:00000063
#07057:00630000
#0705b:00000063
#07157:00630000
#0715b:00000063
#0725b:0063
#07257:0000000000230000
#07252:00000053
#07256:0000000000000023
#0775b:0023000000001300
#07758:53
#07755:00630013
#07752:0000002300000000
#0745b:00130000
#07452:00000013
#0735b:63
#07357:0023000000000000
#07352:00530000
#07356:0000002300000000
#07857:0000000000000053
#0795b:23
#07956:00630000
#07952:0000002300000000
#0805b:1323
#08052:13
#08152:2300001300000000
#08157:0000001300000000
#0825b:1353
#08257:00000000000000000000002300000000
#08252:13
#08358:0000005300000000
#08355:0063000000630000
#08352:00230023
#0835b:0023
#0845b:53
#08452:0063
#08556:0053
#08557:63
#08857:0063
#09056:63
#10052:53330000
#10054:0023000000230000
#10057:53
#10059:0023000000230000
#1005b:00006343
#10056:0063
#1025b:0023000063004300
#10257:5300000000230000
#10256:0023000063000000
#10252:5300330000230000
#10152:5300330000230000
#10155:0023000063000000
#1015b:0023000063004300
#10158:5300000000230000
#1035b:00530000
#10358:0013
#10355:0013
#10352:00530000
#10456:0000000000230000
#10457:0023000000000000
#10452:00135300
#1045b:53000013
#10557:0023000000001300
#10556:0000130000230000
#1055b:53
#10552:0053
#10657:0023000000000000
#10656:0000000000230000
#10652:00135300
#1065b:53000013
#10755:0000002300000000
#10758:5300002300000000
#10752:00533300
#1075b:00534300
#09257:6323
#0925b:0023005300000000
#09356:53000000000000000023000000000000
#09352:0023006300003300
#09555:0000002300000000
#09552:00633300
#0955b:00534300
#09558:0000002300000000
#09656:0063
#0965b:63
#09755:0000001300000000
#0975b:00130000
#0985b:63
#09856:0053
#0545b:00530000
#05457:5353
#05452:5353
#05456:00530000
#05958:0053
#07552:63631300
#07556:0063006300000000
#07557:63631300
#0755b:0063006300000000
#08752:1636
#08758:00164600
#08754:00000018
#09156:0013
#09458:0053000000000000
#09455:0053000000000000
#0945b:0000000000000053
#09452:0000000000000063
#000350:0000001300230000
#000381:0000000000130023
#001381:0000001300230000
#001350:0000000000130023
#002350:0000001300230000
#002381:0000000000130023
#004321:0000001300000000
#004361:0000000000230000
#0043b0:0000000000130000
#004370:0000000000000023
#0053b0:0000001300000000
#005370:0000000000230000
#005321:0000000000130000
#005361:0000000000000023
#006321:0000001300000000
#006361:0000000000230000
#0063b0:0000000000130000
#006370:0000000000000023
#008360:0000001300000000
#008320:0000000000230000
#008371:0000000000130000
#0083b1:0000000000000023
#009371:0000001300000000
#0093b1:0000000000230000
#009360:0000000000130000
#009320:0000000000000023
#010360:0000001300000000
#010320:0000000000230000
#010371:0000000000130000
#0103b1:0000000000000023
#015381:00120000
#0153c1:0022
#016321:0000000000000013
#017361:0023000000000000
#0173b1:0013
#017371:00000053
#0183b1:23
#018361:0000000000000013
#019321:0023000000000000
#020381:13230000
#020351:0000001300230000
#021351:13230000
#021381:0000001300002300
#022361:13
#022321:00230000
#022321:0013
#022361:00000023
#023361:13
#023321:00230000
#023321:0013
#023361:00000023
#0263b1:000000130023000000000000
#028371:1300002300000000
#0283b1:00000053000000000000000000000000
#029361:1300002300000000
#029321:00000053000000000000000000000000
#030371:13
#0303b1:00230000
#0303b1:0013
#030371:00000023
#031371:13
#0313b1:00230000
#0313b1:0013
#031371:00000023
#034371:13
#0343b1:00230000
#034361:0013
#034321:00000023
#035371:0013000000000000
#0353b1:0000002300000000
#0363b1:13
#036371:00230000
#037361:0013000000000000
#037321:0000002300000000
#038361:13
#038321:00230000
#038370:00130000
#0383b0:0023
#038321:0013
#038361:00000023
#0383b0:00000013
#039370:23
#040320:00001323
#040360:0000000000530000
#0403b1:00000013
#040371:0000000000000053
#0413b1:23
#041320:13230000
#041360:0053000000000000
#0413b1:00132300
#041371:0000005300000000
#0433b1:13332300
#043371:0033003300000000
#043360:13332300
#043320:0033003300000000
#0443b0:1323000000000000
#044351:0013230000000000
#044380:0000132300000000
#044321:0000001323000000
#045351:13230000
#045321:0053000000000000
#045380:00132300
#0453b0:0000005300000000
#046360:0000000000000013
#047320:53
#047360:0023000000000000
#047370:00132300
#0473b0:0000005300000000
#048320:0000000013000023
#048360:00000000000000000000005300000000
#0493b0:1300002300000000
#049370:00000053000000000000000000000000
#050360:0000000013000023
#050320:00000000000000000000005300000000
#051370:0013000000000000
#0513b0:0000002300000000
#051361:0000001300000000
#051321:0000000000230000
#051370:0000000000130000
#0513b0:0000000000000023
#052320:13
#052360:00230000
#052371:13
#0523b1:00230000
#052321:0013
#052361:00000023
#052370:0013
#0523b0:00000023
#0533b0:13
#053370:00230000
#053361:13
#053321:00230000
#0533b1:0013
#053371:00000023
#053360:0013
#053320:00000023
#054370:1333
#0543b0:00330023
#054321:1333
#054361:00330023
#055381:13330000
#0553b1:0023
#055350:00130000
#055320:0023
#056360:000000000000000000130023
#059380:0013
#0593b0:00000023
#060380:13
#0603b0:0023
#060351:13
#060321:0023
#061321:13
#061351:0023
#0613b0:13
#061380:0023
#0613b0:00000013
#0623b0:23
#062321:13230000
#062380:00132300
#062351:00001323
#0623b0:00000013
#0633b0:23
#063321:13230000
#063380:00132300
#063351:00001323
#0633b0:00000013
#0643b0:23
#067380:0013
#068380:23
#067351:00000013
#068351:23
#0693b1:00000013
#070371:23
#070320:13230000
#070371:00130000
#0703b1:0023
#070320:00001323
#0703b1:00000013
#071371:23
#071320:13230000
#071371:00130000
#0713b1:0023
#071320:00001323
#0713b1:00000013
#072371:23
#0723b1:00001323
#072371:0000000000530000
#072320:00000013
#072360:0000000000000053
#073320:23
#0733b1:13230000
#073371:0053000000000000
#073320:00132300
#073360:0000005300000000
#075320:13332300
#075360:0033003300000000
#075371:13332300
#0753b1:0033003300000000
#076321:1323000000000000
#076380:0013230000000000
#076351:0000132300000000
#0763b0:0000001323000000
#076321:0000000013230000
#077381:13230000
#0773b1:0053000000000000
#077350:00132300
#077320:0000005300000000
#078370:0000000000000013
#0793b0:53
#079370:0023000000000000
#079360:00132300
#079320:0000005300000000
#0803b0:0013
#080370:0000000000000023
#081320:13
#081360:00230000
#0823b0:0000000013000023
#082370:00000000000000000000005300000000
#083350:0013002300000000
#083320:00530000
#083381:0000001300230000
#0833b1:0053
#083350:0000000000130023
#083320:00000053
#0843b0:13
#084370:00230000
#084320:0013
#084360:00000023
#085370:13
#0853b0:00230000
#085360:0013
#085320:00000023
#088370:0013
#0883b0:00000023
#089370:13230000
#0893b0:0033000000000000
#0893b0:00001323
#089370:0000000000330000
#090360:13
#090320:00230000
#091360:1323
#091340:0033003300000000
#091320:00330000
#092370:13230000
#0923b0:0053000000000000
#0923b0:0000001300230000
#092370:0053
#093360:13230000
#093320:0053000000000000
#093320:0000001300002300
#093360:00000000000000003353330000000000
#094350:0013000000000000
#094320:0000002300000000
#094381:0013000000000000
#0943b1:0000002300000000
#0943b1:0000000000000013
#095381:0023000000000000
#094320:0000000000000013
#095350:0023000000000000
#095320:00132300
#095350:0000003300000000
#0953b1:00132300
#095381:0000003300000000
#0963b1:13
#096371:00230000
#096361:0013
#096321:00000023
#0983b1:13
#098371:00230000
#098361:0013
#098321:00000023
#100321:13230000
#100341:0053000000000000
#100370:13230000
#100390:0053000000000000
#1003b0:00001323
#100390:0000000000530000
#100361:00001323
#100341:0000000000530000
#101321:13230000
#101351:0053000000000000
#101380:13230000
#1013b0:0053000000000000
#1013b0:00001323
#101380:0000000000530000
#101351:00001323
#101321:0000000000530000
#102321:13230000
#102361:0053000000000000
#102370:13230000
#1023b0:0053000000000000
#1023b0:00001323
#102370:0000000000530000
#102361:00001323
#102321:0000000000530000
#103321:13330000
#103351:0023
#1033b0:00130000
#103380:0023
#1043b0:13332300
#104370:0053000000000000
#104321:00001333
#104361:0000000000530000
#105321:23
#1053b0:13332300
#105370:0053000000000000
#105321:00001333
#105361:0000000000530000
#106321:23
#1063b0:13332300
#106370:0053000000000000
#106321:00001333
#106361:0000000000530000
#107321:23
#107380:1300005300000000
#1073b0:00332300
#107321:00132300
#107351:0000005300000000
