This file was generated by Ched 2.7.0.0.
#TITLE ""
#ARTIST ""
#DESIGNER ""
#DIFFICULTY 0
#PLAYLEVEL
#SONGID ""
#WAVE ""
#WAVEOFFSET 0
#JACKET ""
#REQUEST "ticks_per_beat 480"
#00002: 4
#BPM01: 176
#00008: 01
#TIL00: ""
#HISPEED 00
#MEASUREHS 00
#00012:2300000000000013
#00018:00130000
#00015:0000001300000000
#0001b:0000000000130000
#0031b:1313
#00315:0013000000130000
#00318:00130013
#00312:0000001300000013
#01615:00130000
#01618:0013
#01612:0000000000130000
#0161b:23000013
#01610:41
#01718:00130000
#01715:0000001300000000
#0171b:0013
#01812:0013000000130000
#0181b:00130013
#01815:0000001300000013
#01818:0013
#01915:0000001300000013
#01912:0000000000130000
#01918:00130013
#0191b:0013
#02018:1300000000130013
#02015:00000013
#02718:000000140014001400001400
#02714:000014000000140000140000
#02815:00000013000000000000130000001300
#02818:00000013
#02812:13
#02918:00000013000000000000000013000000
#02915:0000000000130000
#0291b:13
#02919:00330000
#03315:00000013
#0331b:0000000000130000
#03318:0013000000000013
#03312:0000001300000000
#0341b:0013
#03412:13000013
#03418:0000130000000013
#03415:0000001300000000
#03515:1300000000000013
#03518:00000013
#03512:0000000000130000
#03718:0000000000130000
#03715:00000013
#0371b:1300000000000013
#0391b:0013
#03912:0013
#03916:14
#03914:00130000
#03919:00130000
#03918:0000000000000013
#03915:00000013
#04015:0013001300000000
#0401b:2313
#04017:0000000000130000
#04018:00130000
#04012:23
#04010:41
#0411b:0013
#04115:0000000000130000
#04118:00000013
#04112:13
#04116:0013000000000000
#0451a:0014
#04516:0000000000140000
#04512:13000014
#04615:00130013
#04618:0000001300000013
#0461b:0013000000130000
#04612:0013
#04718:00000013
#04715:0000130000000013
#0471b:13
#04712:0000001300000000
#04818:0000001300000000
#04812:2313
#04816:00000000000000000000001300000000
#0481b:23
#04915:00000013
#04918:0000330000000013
#0491b:13
#04917:00000013000000000000000000000000
#05115:0013000000000000
#0511b:1300000000130013
#05118:0000001300000000
#05112:0000000000130013
#0581b:1313
#05812:000000000000000000130000000000000000000000000000000000000000000013000000000000000000000000000000
#05818:00130013
#05815:000000000013000000000013
#06014:00000013
#06012:13
#06019:00000013
#06016:00130000
#06114:00000013
#0611b:13
#06117:00130000
#06119:00000013
#06612:001300000000
#06618:231300
#0661b:000013
#06615:000000130013
#06718:131300
#06712:001300000000
#06715:0013
#00412:00130000
#00418:0000001300000000
#0041b:23
#00712:1313
#00718:0013000000130000
#00715:00130013
#0071b:0000001300000013
#00818:0000130000000013
#00812:2300001300000000
#0111b:1313
#01115:0013000000130000
#01118:00130013
#01112:0000001300000013
#03215:0000130000000013
#03218:0013
#0321b:00000013
#03212:23
#0591b:1313
#05918:00130013
#05915:001300001300
#05912:000000000013000000000000
#04212:13
#04215:0013000000001300
#04218:0000130000130000
#0421b:0013
#03615:0000001300000013
#03618:00130013
#0361b:1313
#03612:0000000000130000
#0441b:1313
#04412:0000001300000013
#04415:0013000000000000
#04418:00130000
#0011b:1300000000000013
#00115:00130000
#00118:0000001300000000
#00112:0000000000130000
#00212:1300000000000013
#00218:00130000
#00215:0000001300000000
#0021b:0000000000130000
#0051b:00130000
#00515:0000001300000000
#00512:13
#00612:00130000
#00618:0000001300000000
#0061b:13
#0091b:1300001300000000
#00915:0000130000000013
#01012:1300001300000000
#01018:0000130000000013
#02115:13
#02118:00000013
#02212:13
#0221b:13
#02218:00130013
#02215:0013
#0231b:13
#02312:13
#02315:00130013
#02318:0013
#03012:1313
#0301b:1313
#03015:00130000
#03018:00000013
#03112:1313
#0311b:1313
#03115:00130000
#03118:00000013
#03812:13
#0381b:0013
#05615:00130013
#0561b:001300001300
#05618:000000000013000000000013
#05612:2313
#05610:41
#05718:000000000013000000000000
#05712:1313
#05715:0000130000130000
#0571b:001300000000
#06212:13
#0621b:13
#06218:00130000
#0631b:13
#06312:13
#06315:00130000
#04319:14142400
#04313:0014001400000000
#04312:0000000000000013
#05015:0000001300000000
#05018:0013
#05012:2300000000000013
#0501b:23
#06918:00000013
#07015:00000013
#07118:00000013
#07218:0013001300000000
#07212:2313
#07216:0000000000130000
#07215:00130000
#0721b:23
#07210:41
#07312:0013
#07318:0000000000130000
#07315:00000013
#0731b:1300000000000013
#07317:0013000000000000
#07818:00130013
#07815:0000001300000013
#07812:0013000000130000
#0781b:0013
#07415:1300130000130000
#07418:0013000000001300
#0741b:0013
#07412:0000001300000000
#07513:14142400
#07519:0014001400000000
#0751b:0000000000000013
#07912:13
#07918:0000130000000013
#0791b:0000001300000000
#07915:00000013
#08015:0000001300000000
#0801f:11
#08012:23
#0801b:23
#08118:0000001300001300
#08112:0000000000130000
#08115:0000000000000013
#08318:1300001300000013
#08315:0013000000130000
#0831b:0013000000130000
#08312:0000001300000013
#0841b:13130000
#08415:0013001300000000
#08418:00001313
#08412:0000000000130013
#0851b:13130000
#08515:0013001300000000
#08518:00001313
#08512:0000000000130013
#08715:00130026
#0871a:0014
#08712:0014
#08818:0013000000000000
#08812:00130000
#0881b:0000001300000000
#08815:2313
#0881f:21
#0891b:13130000
#08916:0013000000000000
#08912:00001313
#08917:0000000000130000
#08910:41
#09018:1300000000000013
#09012:0013
#0901b:0000000000130000
#09015:00000013
#09112:1300000013000013
#0911b:0013000000000000
#09115:00130000
#09118:0000001300000013
#09212:2300000000130000
#09218:23001313
#0921b:00130000
#09215:0000001300000013
#09318:00130013
#09312:0000130000130000
#09315:0000001300000000
#0931b:2313
#09418:0000000013000013
#09415:0000000000130000
#0941b:00000013
#09518:0013000000001300
#09515:0000130000000013
#0951b:00130000
#09615:0000001300000000
#09612:0000000000000013
#09715:1300001300001300
#0971b:13
#09718:0000130000000013
#09818:0000001300000000
#0981b:0000000000000013
#09918:13
#09912:1300000000000014
#09915:0013000000000000
#0991a:0000001400000000
#09916:0000000000140000
#10018:0013000000000000
#10015:0000000000130000
#1001b:23
#10012:0023
#1011b:0013000000000000
#10112:0000000000130000
#10118:23
#10115:0023
#10217:0013000000000000
#10216:0000000000130000
#1021b:23
#10212:0023
#1041b:0013000000130000
#10418:2313
#10512:0013000000130000
#10515:2313
#1061b:0013000000130000
#10618:2313
#10715:0000001300001600
#10718:0000001300000000
#10712:23230000
#1071b:23230000
#07712:0014
#07716:0000000000140000
#0771a:00000014
#0771b:13
#07612:1313
#0761b:0000001300000013
#07618:0013000000000000
#07615:00130000
#08215:0013
#08218:0000001300000000
#0821b:23
#08212:23
#06518:0013
#06515:000013
#05315:23
#05318:0023
#05512:2323
#0551b:2323
#05519:00230000
#05514:00230000
#10312:2323
#1031b:2323
#10314:00230000
#10319:00230000
#05212:23
#0521b:0023
#05412:23
#0541b:0023
#0241b:003300000000003300000000
#02418:003300
#02512:003300000000003300000000
#02515:003300
#0861b:00333333000000000033333300000000
#08617:00000000003333330000000000333333
#02612:00003333
#02610:41
#06052:63
#06056:00230000
#0175b:0053
#01855:0000000000000063
#04258:00130000
#04255:00000013
#04359:0014
#02852:63
#02855:00000023000000000000000000000000
#0405b:0063
#04057:0000000000230000
#04152:53
#04156:0023000000000000
#0445b:0063
#04552:53000014
#04658:0000000000000063
#05355:63
#05358:0053
#04852:1353
#04856:00000000000000000000002300000000
#0485b:13
#0495b:6300004300000000
#04957:00000023000000000000000000000000
#05155:0013000000000000
#05158:0000001300000000
#00852:0000005300000000
#0095b:0000006300000000
#01052:0000005300000000
#02058:53
#0205b:0000001300000000
#02155:63
#02152:0000001300000000
#02458:00000013
#0295b:53
#02958:00000023000000000000000000000000
#03352:0000001300000000
#03358:0013000000000000
#0355b:0000001300000000
#03752:0000001300000000
#03852:63
#0385b:0053
#05752:00006333
#05755:0000000000230000
#0615b:53
#06157:00230000
#0475b:23
#04755:00530000
#04752:0000002300000000
#07252:0053
#07256:0000000000230000
#07458:00000013
#0735b:63
#07357:0023000000000000
#07855:0000000000000053
#07952:23
#07958:00630000
#0795b:0000002300000000
#07553:0014
#08158:0000001300000000
#0875b:13
#08755:00130016
#0875a:0014
#08752:0014
#08855:0053
#09058:63
#09152:0013
#09358:00000013
#0955b:00530000
#09555:00530000
#09758:00130000
#09755:0000001300000000
#10058:0023000000000000
#10055:0000000000230000
#1005b:53
#10052:0053
#1015b:0023000000000000
#10152:0000000000230000
#10158:53
#10155:0053
#10257:0023000000000000
#10256:0000000000230000
#1025b:53
#10252:0053
#1045b:0023000000230000
#10458:5363
#10552:0023000000230000
#10555:6353
#1065b:0023000000230000
#10658:5363
#10755:0000002300000000
#10752:00633300
#10758:0000002300000000
#1075b:00534300
#02555:00000013
#05052:13
#0505b:13
#05252:53
#0525b:0063
#05452:53
#0545b:0063
#0555b:0043
#05552:0033
#0775a:00000014
#0775b:63
#07652:0053
#08052:13
#0805b:13
#08255:0053
#0825b:13
#08252:13
#1035b:0043
#10352:0033
#004350:0000000000130023
#005380:0000000000130023
#006350:0000000000130023
#008320:0000001300000000
#008360:0000000000230000
#0093b0:0000001300000000
#009370:0000000000230000
#010320:0000001300000000
#010360:0000000000230000
#0123b0:12000000000000000000000000000052005200000000005200520000000000000000000000000052005200000000000000000000000000002200000000000000
#0123a0:0000343400340000
#013350:12000000000000000000000000000052005200000000005200520000000000000000000000000052005200000000000000000000000000002200000000000000
#013340:0000343400340000
#014390:12000000000000000000000000000052005200000000005200520000000000000000000000000052005200000000000000000000000000002200000000000000
#014380:0000343400340000
#015330:12000000000000520052000000000052005200000000000000000000000000520052000000000052005200000000005200520000000000002200000000000000
#015320:0034340034343400
#016350:0000000000000013
#017350:0023000000000000
#0173b0:0013
#018370:23
#018350:0000000000000013
#019320:0023000000000000
#020380:13
#0203b0:0000002300000000
#021350:13
#021320:0000002300000000
#0243b0:133300000033333300000000
#024380:000033333300000033230000
#025320:133300000033333300000000
#025350:000033333300000033230000
#0263b0:13
#0263a0:003300000000000000000000
#026390:003300000000
#026380:00230000
#026320:000000000013330000333333
#026350:000000000000003333000000
#027320:23
#028320:1300002300000000
#028350:00000053000000000000000000000000
#0293b0:1300002300000000
#029380:00000053000000000000000000000000
#029390:00330000
#0353b0:0013002300000000
#037320:0013002300000000
#038320:13
#038360:00230000
#0383b0:0013
#038370:00000023
#0403b0:00001323
#040370:0000000000530000
#041320:13230000
#041360:0053000000000000
#0443b0:0013
#044370:00000023
#045320:13
#045360:00230000
#046380:0000000000000013
#0473b0:53
#047380:0023000000000000
#047350:00132300
#047320:0000005300000000
#048320:0000000013000023
#048360:00000000000000000000005300000000
#0493b0:1300002300000000
#049370:00000053000000000000000000000000
#049380:00330000
#052320:13
#052350:00230000
#0523b0:0013
#052380:00000023
#053350:13
#053320:00230000
#053380:0013
#0533b0:00000023
#054320:13
#054360:00230000
#0543b0:0013
#054370:00000023
#057320:00001323
#057350:0000000000530000
#060320:1323
#060360:00530000
#0613b0:1323
#061370:00530000
#062350:00001323
#063380:00001323
#064320:13
#064350:003323000000
#0643b0:0013
#064380:000000003323
#065320:13
#065350:003323000000
#067380:00000013
#068380:23
#067321:00000013
#068321:23
#070351:1323
#070321:00330000
#071381:1323
#0713b1:00330000
#072321:00001323
#072361:0000000000530000
#0733b1:13230000
#073371:0053000000000000
#076321:0013
#076361:00000023
#0773b1:13
#077371:00230000
#078351:0000000000000013
#079321:53
#079351:0023000000000000
#079381:00132300
#0793b1:0000005300000000
#080381:0000000013000023
#081351:13230000
#082351:0013
#082321:0000000000000023
#0863b1:13333333000000003333333300000000
#086371:00000000333333330000000033333333
#0873b1:23
#088351:0013
#088321:00000023
#090381:13
#0903b1:00230000
#094321:0013002300000000
#0953b1:00130000
#095381:0023
#095350:00130000
#095320:0023
#0963b0:13230000
#096380:00001323
#098320:13230000
#098350:00001323
#1003b0:13230000
#100380:0053000000000000
#100320:00001323
#100350:0000000000530000
#101380:13230000
#1013b0:0053000000000000
#101350:00001323
#101320:0000000000530000
#1023b0:13230000
#102370:0053000000000000
#102320:00001323
#102360:0000000000530000
#104380:13333323
#1043b0:0053000000530000
#105350:13333323
#105320:0053000000530000
#106380:13333323
#1063b0:0053000000530000
#107320:00132300
#107350:0000005300000000
#1073b1:00132300
#107381:0000005300000000
