This file was generated by Ched 2.7.0.0.
#TITLE ""
#ARTIST ""
#DESIGNER ""
#DIFFICULTY 0
#PLAYLEVEL
#SONGID ""
#WAVE ""
#WAVEOFFSET 0
#JACKET ""
#REQUEST "ticks_per_beat 480"
#00002: 4
#BPM01: 176
#00008: 01
#TIL00: ""
#HISPEED 00
#MEASUREHS 00
#00012:2300130013000013
#00017:00130000
#0001b:2300001300001300
#00016:0000001300000000
#00018:0000000000130000
#0031b:1300001313000013
#00318:0014000000001400
#00314:0000140000140000
#00312:1300001313000013
#00316:00000014000000000000001400000000
#01617:0000130013131313
#0161b:2313
#01612:2300130000130013
#01610:41
#0171b:0013000013000000
#01712:00131313
#01715:0000001300000000
#01717:00130013
#01718:00000000000000130000000000000000
#01716:13
#01816:1313130013001313
#01812:0013000000000000
#0181b:0000001300130013
#01918:0000001300001613
#01912:0013000016001300
#01915:0000130000130000
#0191b:00131300
#01917:13
#0201b:1300130013000013
#02016:0000001300000013
#02012:1300001300130000
#02017:0013000000000000
#02014:00000013
#02019:00000013
#02415:001300001300
#0241b:23131313
#02418:000000000013000000000000
#02412:23131313
#02612:230000130000000000000013
#02615:00001313
#02618:000000000013
#02616:001300
#0261b:000000000013000000000000
#02610:41
#02712:000000000013001300001300
#02715:000013000000000000130000
#02718:001300000000130000001300
#0271b:130000000000001300000000
#02717:000013
#02816:1300001300130000
#02812:0000130000131300
#0281b:0000000000001313
#02817:0000000000000013
#02912:0000000000130000
#02916:00000013
#02917:1300001300130000
#0291b:00130013
#0321b:2313000013130000
#03212:0000131300001313
#03419:0000001300000013
#0341b:0013000013001300
#03414:0000001300000013
#03416:0000000013130000
#03412:1300130000130000
#03417:1313000000000000
#03517:13131300
#0351b:0013000000000000
#03512:1300130013130000
#03516:0013000000000000
#03515:00000013
#03518:0000000000000013
#0391b:00001313
#03916:0014001400001300
#03912:0000000000000013
#03917:0000000000000013
#04016:0013
#0401b:00131300
#04012:00130000000013000000000000001400
#04015:23000013000000000000000000000000
#04018:0013000000000000
#04017:0000001300000000
#0401a:0000000000141400
#04010:41
#04112:1400001414001400
#0411a:0014140000001400
#04116:00000000000000000000141400001400
#04317:0000000000000013
#04312:13132c00
#0431b:00130000001300000000000013000000
#04315:00001616000016160000000000000000
#04316:00000013
#04417:0013130013000000
#04416:00000013
#04414:0000000000000013
#04419:0000000000000013
#0441b:1300001300001300
#04517:13130000
#04512:1313
#04514:0000000000130000
#04516:0013001300001300
#0451b:0013001300001300
#04519:0000000000130000
#04617:0013000000000000
#04619:00130000
#04615:00000000000000000000000013000013
#0461b:1300000000001313
#04612:0000000000130013
#04614:0013
#04616:13
#04712:0013000013000013
#0471b:00131313
#04718:0000001300000000
#04716:00000013
#04717:0000000000000013
#0511b:0013000013000013
#05116:0013000000000000
#05112:13130013
#05118:0000001300000000
#05115:0000000000130000
#05117:13
#0561b:231300000000001300000000
#05616:000014140014140014000000
#05612:230000001300000000130013
#05610:41
#05712:1313
#05716:001414001414000000000000
#0571b:00130013
#05718:0013
#05715:00000013
#05815:001300160013160000000000
#05818:001313000000
#0581b:130000000000001300130000
#05812:130000000000001300000013
#0591b:13001313
#05912:13001313
#05918:001300000013000000000000
#05915:000013161300000000000000
#06012:1300001300001300
#06014:00130000
#06017:1300001300001300
#06016:0013000000000000
#06019:00130000
#0601b:0013000000000000
#0661b:230013
#06617:000000130013
#06612:001300130000
#06616:231300
#06716:131300
#06712:001300000000
#0671b:1313
#00412:2300131300001300
#0041b:2300000000130000
#00416:0000000000001313
#00417:0000131313000000
#00512:1300000000130000
#0051b:1300131300001300
#00516:0000131313000000
#00517:0000000000001313
#00712:1300001313000013
#0071b:1300001313000013
#00718:0014000000000000
#00716:00000014140000000000001414000000
#00714:0000000000140000
#00817:00131313
#00816:0000001300000013
#0081b:2300001300130000
#00812:2300130000131300
#01112:1300001313000013
#0111b:1300001313000013
#01116:00001414140000000000141414000000
#01218:12000000000000120012000000000000
#0121c:00000000120000000000000000001212
#01212:0000000000120000
#01216:0000001212000000
#0121a:0012000000000000
#01518:1212120000000012
#01516:00120000120000000000000000000000
#01514:0000001200000000
#03316:0000131300000000
#03317:1313
#0331b:1313000000130000
#03312:00131300
#03318:00000013
#03315:0000000000000013
#05217:1313131313130000
#05212:23131300
#0521b:0013001300130000
#0541b:1313
#05412:00130000
#05417:2313
#05416:00130000
#0211b:1300001300001300
#02112:13000000130000000013000000000000
#02116:0013000000000000
#02117:0000001300000000
#06916:00000013
#0691b:00000013
#07915:0000001300001313
#07918:00000000000000000000000000130013
#0791b:0013000013000000
#07912:00131300
#08014:0000001300000013
#0801b:2313
#08018:0000001300000000
#08017:00000000000000000000001300000000
#08012:23131313
#0801f:11
#08116:0013000000001300
#08112:13
#08114:0000000000130013
#0811b:13131313
#08119:0000001300000013
#08217:13000000000000000000001300000000
#0821b:00000013000000001300000000000000
#08212:23131313
#08214:0000001300000013
#08312:1300001300000000
#08316:0013000000130000
#0831b:13131313
#08319:0023002300230023
#08412:1300130000130000
#08416:0013000023000000
#08414:0000001300000013
#0841b:0013000013001300
#08417:2300000000130000
#08419:0000001300000013
#08516:1300130000130000
#08512:0013000023000000
#08514:0000001300000013
#08517:0013000013001300
#08519:0000001300000013
#0851b:2300000000130000
#08612:13000000130000001300000000130000
#08618:00130013000000130000130000001300
#08615:00001300000013000013001300000013
#0861b:13000000001300000000000013000000
#08712:1916130016002c00
#08715:00190000
#0871b:13
#08718:0000001616000000
#08816:0000000013130000
#08814:0000001300000000
#0881b:00130000130000001300000000001300
#08815:0013000000000000
#08818:00000013000000000000000000000000
#08812:2300130000131300
#08817:0000000000000013
#0881f:21
#0911b:1300001313001300
#09116:0000000000000013
#09112:0013130013000013
#09115:00160016001600160000000000000000
#09017:1300001300000000
#09016:0013130000000000
#0901b:0013
#09015:0000000000160016
#09012:23000013
#10719:00000013
#10712:2614260026000000
#10718:2614260026000000
#10714:0000001400001300
#1071a:0000001400000000
#09412:1300130000001313
#0941b:1300130000001313
#09418:0013000013000000
#09415:0013000013000000
#09515:13000000000000160000000000000000
#09518:13
#09512:001c0013
#09513:00000000001a00000000000000000000
#09514:0000001800000000
#09516:0000000014001414
#0951b:0000000000000013
#09617:0013000013000000
#09614:0000001300000000
#09616:1300000000130000
#09612:0013000013001300
#0961b:2300130000130000
#09615:0000000000000013
#09619:0000001300000000
#09712:1300161c00130000
#0971b:00130000001300001300000013000000
#09716:00000013
#09719:0000000000000013
#09715:0013000000000000
#09714:0000000000000013
#09717:0000000000130000
#09912:0013130000000000
#09916:1300001300000000
#0991b:0000000000131300
#09917:0000000013000013
#00112:1300001300001300
#0011b:1300130013000013
#00116:00130000
#00117:0000001300000000
#00115:0000000000130000
#0021b:1300001300001300
#00212:1300130013000013
#00217:00130000
#00216:0000001300000000
#00218:0000000000130000
#00612:1300131300001300
#0061b:1300000000130000
#00616:0000000000001313
#00617:0000131313000000
#0091b:1300130000131300
#00912:1300001300130000
#00916:00131313
#00917:0000001300000013
#01012:1300130000131300
#0101b:1300001300130000
#01017:00131313
#01016:0000001300000013
#01316:1212000000000000
#01312:0000000000120000
#01318:00120000000000000000000000000000
#0131a:0000001200001200
#01314:00000000000000120000000000000000
#01317:00000000000000000000000000000012
#0131c:0000000000000012
#02518:001300001300
#02512:23131313
#02515:000000000013000000000000
#0251b:23131313
#05316:1313131313130000
#0531b:23131300
#05312:0013001300130000
#0611b:1300001300000000
#06119:00130000
#06117:0013000000001300
#06116:1300001300000000
#06114:00130000
#06112:0013000000000000
#06416:001300000000
#06412:000013130000
#0641b:130000000013
#06417:000000131300
#06516:131300000000
#06512:000013160000
#0651b:13
#06518:000000131600
#06515:000013
#07017:1300000013000013
#0701b:00130000
#07116:1300000013000013
#07112:00130000
#02217:0013001300130013
#0221b:13131313
#02212:1414
#02215:00140014
#02317:0013001300130000
#0231b:13131300
#02312:1414
#02315:00140014
#03712:0013000000000000
#03716:13131300
#03717:0013000000000000
#0371b:13131300
#03614:0000001300000013
#03612:0013000013001300
#03619:0000001300000013
#03617:0013000013000000
#0361b:1300130000130000
#03616:1300000000130000
#04212:1300130000131300
#0421b:0013130013001300
#04217:0000000000130000
#04215:0000001600000016
#04216:0013000000000000
#03812:00130013000000130013001300000013
#0381b:1300131313001313
#03815:00001600001600000000160000160000
#04912:00130013
#0491b:1300001300000013
#04915:0000001600000000
#04916:1300000000000013
#04917:00000013
#0481b:13000013
#04816:23000000000000000000001300000000
#04818:0000000000000013
#04812:00131300
#04815:0000001300000000
#04817:00000013000000000000000000000000
#05012:13000013
#05017:23000000000000000000001300000000
#05015:0000000000000013
#0501b:00131300
#05018:0000001300000000
#05016:00000013000000000000000000000000
#07217:0013
#07212:0000130013141400
#0721b:00130000000013000000000000000000
#07218:23000013000000000000000000000000
#07215:0013000000000000
#07216:0000001300000000
#0721a:0000000000000014
#07210:41
#0731a:1400001414001400
#07312:0014140000001400
#07316:00000000000000000000141400001400
#0741b:1300130000131300
#07412:0013130013001300
#07416:0014000000140000
#07415:0000001600000016
#0751b:13130000
#07512:00130000001300002c00000013000000
#07515:00001616000016160000000000000000
#07516:0000000000000013
#07517:00000013
#07616:0013130013000000
#07617:00000013
#07619:0000000000130013
#07614:0000000000000013
#07612:1300001300001300
#07716:13130000
#0771b:1313
#07719:0000000000130000
#07717:0013001300001300
#07712:0013001300001300
#07714:0000000000130000
#07816:0013000000000000
#07814:00130000
#07817:13000013
#07812:1300000000001313
#0781b:0000000000130013
#07819:0013
#07818:00000000000000000000000000000013
#10016:0000001400130014
#10017:0013000000000000
#10012:0013130000001300
#1001b:0000130000131300
#10015:1323
#10018:2313
#10116:0013001400000014
#1011b:0013000000001300
#10118:23161300
#10112:0000130000131600
#10117:0000000000130000
#10115:1323
#10215:13001616000000002300161600000000
#1021b:00130013
#10212:00130013
#10216:0000001400000014
#10218:2313
#1031a:0014000000000000
#10314:0014000000000000
#10318:2600261426000000
#10312:2600261426000000
#10418:0013000000000000
#1041b:2300131323000013
#10414:0013000000000000
#10416:00130000
#10412:2300001323001313
#10415:0000000000130000
#10419:0000000000130000
#10417:00000013
#10612:00130000001300130000000013000000
#10615:26001616000000002600161600000000
#1061b:00000000130000000013000000130013
#10616:0000001400000014
#08912:0000131300001300
#08915:00130013000000000000000000000000
#08918:00000000000000000013001300000000
#0891b:0000130000001313
#08910:41
#0921b:2313000013000000
#09215:00000013000000000000000013001300
#09218:00000000130013000000001300000000
#09212:2300000013130000
#09315:00000016000000001300001600000000
#0931b:0013131313000000
#09312:2300000000131313
#09318:23
#09812:2300130000130013
#09816:0013000013000000
#09819:0000001300000000
#09817:1300000000130013
#0981b:0013000013001300
#09814:0000001300000000
#01412:00000000120000000000000000001212
#0141c:0000000000120000
#01418:0000001212000000
#01416:00000000000000120012000000000000
#01414:0012000000000000
#03016:0013001300130013
#03012:13131313
#0301a:1414
#03017:00140014
#03116:0013001300130000
#03112:13131300
#0311a:1414
#03117:00140014
#05518:00130000
#05515:00130000
#0551b:23
#05512:23
#10515:0013000000000000
#10512:2300131323000013
#10519:0013000000000000
#10517:00130000
#1051b:2300001323001313
#10518:0000000000130000
#10514:0000000000130000
#10516:00000013
#0245b:00000043
#02452:00000033
#00452:0000006300001300
#0045b:0000000000630000
#00457:00132300
#00456:00000023
#0085b:0000006300530000
#00857:00132323
#00852:00000013
#01558:00620000
#05257:5323532353233300
#05252:53535333
#0525b:0023002300230000
#0545b:5353
#05457:5363
#05452:00630000
#05456:00530000
#05752:0043
#05758:0043
#0575b:00000033
#05755:00000033
#06052:5300002300000000
#06054:00630000
#06056:0023000000000000
#06057:5300002300000000
#06059:00630000
#0605b:0023000000000000
#01652:0000000000000053
#0175b:0053
#01757:00000023
#01752:0013
#01756:23
#02752:000000000013
#02758:000000000013
#0275b:000000000000005300000000
#02757:000023
#0355b:0063004300000000
#03557:00230000
#03556:0063004300000000
#03552:00230000
#03456:0063
#03457:53
#03452:0000000000230000
#0345b:0023000000000000
#04552:6313
#04556:0023000000001300
#04557:00530000
#0455b:0000002300000000
#04559:0000000000130000
#05156:0053000000000043
#05152:00230023
#05158:0000006300330000
#0515b:0013000023000000
#05155:0000004300530000
#08057:00000000000000000000002300000000
#0805b:4363
#08052:33
#08156:0023000000000000
#08152:6300001300000000
#0825b:00000023000000005300000000000000
#08257:63000000000000000000002300000000
#08252:13
#08356:0063000000630000
#08352:0000006300000000
#08457:53
#0845b:0023000000001300
#08452:0000130000230000
#08456:0063
#0855b:63
#08557:0023000000001300
#08556:0000130000230000
#08552:0053
#08752:3900361c
#08755:00490000
#08758:0046
#09057:63
#09056:00530000
#09555:23
#09558:23
#09556:0014
#09452:0000230000000063
#0945b:0000230000000053
#09458:0063000053000000
#09455:0053000053000000
#00052:0023
#0005b:00000023
#00056:0000006300000000
#00058:0000000000630000
#0015b:0023
#00157:0000005300000000
#00155:0000000000530000
#00152:00000023
#00252:0023
#00256:0000006300000000
#00258:0000000000630000
#0025b:00000023
#0055b:0000005300001300
#00552:0000000000530000
#00556:00132300
#00557:00000023
#00652:0000006300001300
#0065b:0000000000630000
#00657:00132300
#00656:00000023
#01252:0000000000620000
#01352:0000000000620000
#02552:00000033
#0255b:00000043
#02656:002300
#02652:00630000
#05356:6323632363234300
#0535b:63636343
#05352:0023002300230000
#05552:5333
#0555b:5343
#05558:00530000
#05555:00530000
#05852:000000000000006300000000
#0585b:00000053
#05952:0053
#0595b:0063
#0615b:6300002300000000
#06159:00530000
#06157:0023000000000000
#06156:6300002300000000
#06154:00530000
#06152:0023000000000000
#06252:14
#0625b:00120000
#06256:0012
#06257:00000014
#06352:14
#06356:0012
#0635b:00120000
#06357:00000014
#06452:14
#06457:001300
#06456:000000000013
#06557:001300
#06552:0036
#06558:000046
#06656:003300
#06657:000000000043
#06756:003300
#07057:5353
#0705b:00530000
#07156:6363
#07152:00630000
#0185b:0000000000000063
#01957:23
#02057:0023000000000000
#02052:5300003300000000
#02056:0000005300000000
#0205b:4323
#0215b:6300004300000000
#02156:0023000000000000
#02152:33000000000000000023000000000000
#02157:0000006300000000
#02257:0023002300230023
#0225b:53535353
#02255:00340034
#02252:4444
#02357:0023002300230000
#0235b:53535300
#02352:4444
#02355:00340034
#0285b:0000004300000000
#02952:0000003300000000
#03352:0033000000000000
#03357:23
#0335b:0063004300000000
#03356:00230000
#03252:0000000000000053
#03752:0053003300000000
#03756:00230000
#03757:0053003300000000
#0375b:00230000
#03657:0053
#03656:63
#0365b:0000000000230000
#03652:0023000000000000
#0405a:00000014
#04152:1414
#0415a:00140000
#04252:00330033
#0425b:00430043
#04352:001c
#04752:0033
#0475b:0043
#0485b:63
#04856:13000000000000000000002300000000
#04852:0053
#04857:00000023000000000000000000000000
#0495b:5300004300000000
#04955:0000003600000000
#05052:53
#05057:13000000000000000000002300000000
#0505b:0063
#05056:00000023000000000000000000000000
#07252:00000014
#0735a:1414
#07352:00140000
#0745b:00430043
#07452:00330033
#07552:001c
#0775b:5313
#07757:0023000000001300
#07756:00630000
#07752:0000002300000000
#07754:0000000000130000
#0795b:0043
#07952:0033
#1005b:00430000
#10052:00000033
#10158:00460000
#10152:00000036
#1025b:00430000
#10252:00000033
#10358:4646
#10352:00363600
#10752:3636
#10758:00464600
#08856:0000000000230000
#0885b:0053
#08852:00000063
#08857:0000000000000023
#0895b:00530013
#08952:00130063
#09152:0053
#0915b:0043
#09258:00430000
#09255:00000033
#0935b:00430000
#09352:00000033
#1045b:00430000
#10452:00000033
#1065b:00430000
#10652:00000033
#09656:53
#09652:0023000000000000
#09657:0063
#0965b:0000000000230000
#00956:00132323
#00952:0000005300630000
#0095b:00000013
#01057:00132323
#0105b:0000006300530000
#01052:00000013
#0145c:0000000000520000
#03056:0023002300230023
#03052:63636363
#0305a:3434
#03057:00440044
#03156:0023002300230000
#03152:63636300
#0315a:3434
#03157:00440044
#09752:0000363c00000000
#09857:63
#0985b:0023000000000000
#09856:0053
#09852:0000000000230000
#09956:0013000000000000
#0995b:0000001300000000
#09957:0000000000130000
#09952:0000000000000013
#10552:00330000
#1055b:00000043
#000360:0000001300000000
#000320:0053
#000350:0000000000230000
#000381:0000000000130000
#0003b1:00000053
#000371:0000000000000023
#001371:0000001300000000
#0013b1:0053
#001381:0000000000230000
#001350:0000000000130000
#001320:00000053
#001360:0000000000000023
#002360:0000001300000000
#002320:0053
#002350:0000000000230000
#002381:0000000000130000
#0023b1:00000053
#002371:0000000000000023
#004321:0000001300230000
#004371:0053
#0043b0:0000000000130023
#004360:00000053
#0053b0:0000001300230000
#005360:0053
#005321:0000000000130023
#005371:00000053
#006321:0000001300230000
#006371:0053
#0063b0:0000000000130023
#006360:00000053
#0083b0:0000001300330023
#008370:00005353
#009320:0000001300330023
#009360:00005353
#0103b0:0000001300330023
#010370:00005353
#012340:12220000
#012320:0000000000120000
#012370:0000000000000022
#0133a0:0000000012220000
#013321:0000000000120000
#013371:0000000000000022
#0143a1:12220000
#0143c1:0000000000120000
#014371:0000000000000022
#015381:00120000
#0153c1:0022
#015360:0000000012220000
#0153a1:0000000000122200
#015340:0000000000001222
#016320:0000000000000013
#017360:53
#017320:0023000000000000
#0173b0:0013
#017370:00000053
#0183b0:23
#018360:0000001300330000
#018320:00003323
#0183b0:0000000000000013
#019370:53
#0193b0:0023000000000000
#020320:13230000
#020370:0053000000000000
#020360:0000001300230000
#0203b0:0053
#0213b0:13230000
#021360:0053000000000000
#021370:0000001300002300
#021320:00000000000000000053000000000000
#0223b0:13333333
#022370:0053005300530053
#0233b0:33333323
#023370:0053005300530000
#024380:001323000000000000000000
#024350:000000001323000000000000
#024380:000000000000001323000000
#025350:001323000000000000000000
#025380:000000001323000000000000
#025350:000000000000001323000000
#026380:132300000000000000000000
#026351:001323000000000000000000
#0263b0:000013230000000000000000
#026321:000000130023000000000000
#026361:005300
#026381:000000000000132300000000
#026320:000000000000001323000000
#0263b1:000000000000000013230000
#0273b1:000000130023000000000000
#0273b1:000000000000001300230000
#027371:000053
#0283b1:1300002300000000
#028361:00330000
#029321:1300002300000000
#029371:00330000
#030321:13333333
#030361:0053005300530053
#031321:33333323
#031361:0053005300530000
#032371:1323000000000000
#032361:0000132300000000
#032371:0000000013230000
#032361:0000000000001323
#032320:0000000000000013
#033370:53
#033320:0023000000000000
#0333b1:0013002300000000
#033361:00530000
#034371:13230000
#0343b1:0053000000000000
#034361:00001323
#034321:0000000000530000
#0353b1:0013002300000000
#035371:00530000
#035360:0013002300000000
#035320:00530000
#036360:13230000
#036320:0053000000000000
#036370:00001323
#0363b0:0000000000530000
#037320:0013002300000000
#037360:00530000
#037371:0013002300000000
#0373b1:00530000
#037381:0000000000130023
#0373b1:00000033
#037350:0000000000130023
#037320:00000033
#039370:13
#0393b0:0033000000000000
#039380:00230000
#039351:00130000
#039321:0000003300000000
#039361:0023
#040361:0000000000142400
#040361:0000000000000014
#041361:24
#041361:0014240000000000
#041361:0000001424000000
#043321:0000000000000013
#044371:3300003300000000
#044321:0033330023000000
#045321:13230000
#045361:0053000000000000
#045370:00132300
#0453b0:0000005300000000
#046320:0013000000000000
#046360:0000332300000000
#0463b1:0000001300000000
#046371:0000000033230000
#047381:1323000000000000
#047351:0000132300000000
#0483b1:1300002300000000
#048371:00000053000000000000000000000000
#048321:0000000013000023
#048361:00000000000000000000005300000000
#0493b1:13
#049371:00230000
#050321:1300002300000000
#050361:00000053000000000000000000000000
#0503b1:0000000013000023
#050371:00000000000000000000005300000000
#051361:0013000000000000
#051321:00530000
#051351:0000002300000000
#051380:0000001300230000
#0513b0:0053
#051351:0000000000130000
#051321:00000053
#051361:0000000000000023
#052321:13333323
#052371:0053005300530000
#052370:13333323
#0523b0:0053005300530000
#0533b0:13333323
#053360:0053005300530000
#053361:13333323
#053321:0053005300530000
#0543b1:1300005333000000
#054361:0053330000532300
#054370:1300005333000000
#054320:0053330000532300
#055320:1300005323000000
#055380:0053330000000000
#0553b1:1300005323000000
#055351:0053330000000000
#056361:000000000000000000140024
#058321:000000000000001300000000
#058361:00000023
#0583b0:00000013
#058370:000000000000000000000023
#059320:0013
#059350:000023
#0593b1:0013
#059381:000023
#060321:1300005300000000
#060361:0053000023000000
#060341:00530000
#060370:1300005300000000
#0603b0:0053000023000000
#060390:00530000
#0613b0:1300005300000000
#061370:0053000023000000
#061390:00530000
#061361:1300005300000000
#061321:0053000023000000
#061341:00530000
#061331:00000012
#062321:24
#0623a0:14
#0623b0:00220000
#062351:00140000
#062361:0022
#062380:0012
#062370:00000024
#062331:00000012
#063321:24
#0633a0:14
#0633b0:00220000
#063351:00140000
#063361:0022
#063380:0012
#063370:00000024
#063331:00000012
#064321:24
#0643b1:001300000000
#064371:002300
#064321:000013
#064361:000000000023
#0653b1:001300000000
#065371:002300
#066361:001300000000
#0663b1:002300
#066371:000013
#066321:000000000023
#067361:001300000000
#0673b1:002300
#067321:00000000000000001300000000530000
#067351:00000000000000000053000033000000
#068321:23
#067380:00000013
#0673b0:00000000000000000000000000530000
#0683b0:23
#070370:1300005333000000
#0703b0:0053330000532300
#070321:1323000000000000
#070321:0000132300000000
#070321:0000000013230000
#070321:0000000000001323
#071361:1300005333000000
#071321:0053330000532300
#0713b0:1323000000000000
#0713b0:0000132300000000
#0713b0:0000000013230000
#0713b0:0000000000001323
#072360:0000000000142400
#072360:0000000000000014
#073360:24
#073360:0014240000000000
#073360:0000001424000000
#0753b0:0000000000000013
#076360:3300003300000000
#0763b0:0033330023000000
#0773b0:13230000
#077370:0053000000000000
#077361:00132300
#077321:0000005300000000
#0783b1:0013000000000000
#078371:0000332300000000
#078320:0000001300000000
#078360:0000000033230000
#079350:1323000000000000
#079380:0000132300000000
#0803b0:0000000013000023
#080370:00000000000000000000005300000000
#081320:1300332300000000
#081360:0053000000000000
#082370:1300002300000000
#0823b0:00000053000000000000000000000000
#0823b0:0000000013000023
#082370:00000000000000000000005300000000
#083360:0013000033530000
#083320:0000335300003323
#084370:13230000
#0843b0:0053000000000000
#084360:00001323
#084320:0000000000530000
#0853b0:13230000
#085370:0053000000000000
#085320:00001323
#085360:0000000000530000
#0883b0:00001323
#088360:0000000000530000
#088321:00000013
#088371:0000000000000053
#089321:23
#0893b0:13230000000000000000000000000000
#089380:00001323000000000000000000000000
#0893b0:00130000
#089370:0000002300000000
#089320:00000000000000001323000000000000
#089350:00000000000000000000132300000000
#089320:00000013
#089360:0000000000000023
#090370:13
#0903b0:0053230000000000
#090361:00130000
#090321:0000005323000000
#0903b1:0000000000001323
#091321:0013
#091361:00000023
#092321:0000132300000000
#0923b1:0000000000001323
#093321:00130000
#093361:0000002300000000
#0933b1:00000013
#093371:0000000000000023
#094381:0013002300000000
#0943b1:00330000
#094350:0013002300000000
#094320:00330000
#094380:0013
#0943b0:0000000000230000
#094351:0013
#094321:0000000000230000
#094321:0000000000000013
#095351:33
#095321:0023000000000000
#0943b0:0000000000000013
#095380:33
#0953b0:0023000000000000
#096360:13230000
#096320:0053000000000000
#096370:00001323
#0963b0:0000000000530000
#096380:00000000000000000000000000000013
#097380:23
#097380:00000013230000000000000000000000
#098370:13230000
#0983b0:0053000000000000
#098360:00001323
#098320:0000000000530000
#0993b0:13
#099360:0023000000000000
#099360:00130000
#0993b0:0000002300000000
#099320:0013
#099370:0000000000230000
#099370:00000013
#099320:0000000000000023
