This file was generated by Ched 2.7.0.0.
#TITLE ""
#ARTIST ""
#DESIGNER ""
#DIFFICULTY 0
#PLAYLEVEL
#SONGID ""
#WAVE ""
#WAVEOFFSET 0
#JACKET ""
#REQUEST "ticks_per_beat 480"
#00002: 4
#BPM01: 176
#00008: 01
#TIL00: ""
#HISPEED 00
#MEASUREHS 00
#0001a:14
#00014:0014
#0011a:14
#00114:0014
#00218:14
#00212:0014
#00318:1414
#00314:00140014
#0041a:1414
#00414:00140000
#00514:1414
#0051a:00140000
#00618:1414
#00612:00140000
#00712:1414
#00718:00140014
#00812:14
#00818:00140000
#00814:0014
#0081a:00000014
#01618:14
#01612:0014
#01610:41
#0171a:14
#01714:0014
#01818:14
#01812:0014
#0191a:14
#01914:0014
#02618:1414
#02610:41
#02714:1414
#02718:00140014
#03212:14
#03218:0014
#03312:1414
#0341a:14
#03414:0014
#0351a:1414
#03914:00000014
#04012:0016
#04018:26
#04010:41
#0411a:14
#04114:00140000
#04118:0014
#04112:00000014
#0431a:1414
#04314:00140000
#04512:14
#04518:00140000
#04514:0014
#0451a:00000014
#04712:1414
#04718:00140000
#04812:0016
#04818:26
#0491a:14
#04912:00140000
#04918:0014
#05018:0016
#05012:26
#05112:14
#05118:00140000
#05114:0014
#0561a:14
#05612:0014
#05610:41
#05718:1414
#05714:00140014
#0581a:14
#05812:0014
#05918:1414
#05914:00140014
#06218:14
#06214:0014
#0631a:14
#06312:0014
#06918:00000014
#07012:14
#07014:0014
#0701a:00000014
#07018:00140000
#07112:14
#07118:00140000
#07114:0014
#0711a:00000014
#07214:14
#07212:00000014
#07210:41
#07418:14
#0741a:00000014
#07612:14
#07614:00000014
#0781a:14
#07818:00000014
#08012:14
#08018:0014
#0801f:11
#08112:14
#0811a:00140000
#08114:0014
#0821a:14
#08214:0014
#0831a:14
#08312:00140000
#08318:0014
#08314:00000014
#08714:1414
#08718:00140026
#08912:14
#08918:00140000
#08914:0014
#0891a:00000014
#08910:41
#09112:1414
#09118:00140000
#0931a:14
#09314:00140000
#09318:0014
#09312:00000014
#0951a:1414
#09514:00140000
#09618:0016
#09612:26
#09712:14
#0971a:00140000
#09714:0014
#09812:0016
#09818:26
#0991a:14
#09914:00140000
#09918:0014
#10612:14
#1061a:00140000
#10614:00001414
#10718:14
#10712:00140000
#1071a:0014
#10715:00000016
#00912:14
#00918:00140000
#00914:0014
#0091a:00000014
#01012:14140000
#01018:00001414
#01114:14140000
#0111a:00001414
#0601a:14
#06018:00140000
#06112:14
#06114:00140000
#04418:0016
#04412:26
#0241a:2424
#02414:00240000
#02512:2424
#02518:00240000
#08812:26
#08818:0026
#0881f:21
#09218:26
#09212:0026
#02018:0034
#02119:34
#02213:0034
#02312:34
#08418:00343400
#08514:00343400
#08618:00343400
#10414:00340000
#10413:0034
#10518:00340000
#10519:0034
#03252:14
#04058:16
#04052:0016
#0565a:14
#06852:14
#07252:00000024
#07254:64
#07458:54
#0745a:00000024
#07652:54
#07654:00000024
#0785a:64
#07858:00000024
#08852:16
#08858:0016
#10755:00000016
#0345a:14
#0605a:54
#06058:00240000
#06152:64
#06154:00240000
#04458:0016
#04452:16
#09258:16
#09252:0016
#012340:14
#013320:34
#014340:34
#015320:3424
#020380:1434
#021390:34
#0213a0:0024
#022340:14
#022330:0034
#023320:3424
#028340:14
#028320:0034
#029340:34
#029320:0024
#030380:14
#0303a0:0034
#031380:34
#0313a0:0024
#036340:14
#036330:00340000
#036320:00003434
#037320:34
#037330:00340000
#037340:0024
#038380:14
#038390:00340000
#0383a0:00003434
#0393a0:34
#039390:00340000
#039380:0024
#0423a0:14240000
#042340:00001424
#046320:14240000
#046380:00001424
#0523a0:14340000
#052380:00003434
#0533a0:34340000
#053380:00003424
#054320:14340000
#054340:00003434
#055320:34342400
#0603a0:1424
#060380:00540000
#061320:1424
#061340:00540000
#0643a0:14
#064380:0034
#0653a0:34
#065380:0024
#066320:14
#066340:0034
#067320:34000034
#067340:0034
#068320:24
#072340:14
#072320:00000054
#073340:0024
#074380:14
#0743a0:00000054
#075380:0024
#076320:14
#076340:00000054
#077320:0024
#0783a0:14
#078380:00000054
#0793a0:0024
#0843a0:14
#084380:00343424
#085320:14
#085340:00343424
#0863a0:14
#086380:00343424
#090320:14240000
#090380:00001424
#0943a0:14240000
#094340:00001424
#100320:14340000
#100340:00003434
#101320:34340000
#101340:00003424
#1023a0:14340000
#102380:00003434
#1033a0:34342400
#104340:14340000
#104330:0034
#104320:00000024
#105380:14340000
#105390:0034
#1053a0:00000024
