This file was generated by Ched 2.6.4.0.
#TITLE ""
#ARTIST ""
#DESIGNER ""
#DIFFICULTY 0
#PLAYLEVEL
#SONGID ""
#WAVE ""
#WAVEOFFSET 0
#JACKET ""
#REQUEST "ticks_per_beat 480"
#00002: 4
#BPM01: 153
#00008: 01
#TIL00: ""
#HISPEED 00
#MEASUREHS 00
#00019:14
#0021a:14
#00210:41
#01314:14
#05318:1616
#01818:14
#01810:41
#0201a:14
#05218:16
#05212:0016
#05412:16
#05418:0016
#05512:1616
#0601a:14
#05912:14
#00113:14
#00314:14
#00718:14
#00812:14
#0041a:14
#01112:14
#0121a:14
#01912:14
#02518:14
#0231a:14
#02412:14
#03612:14
#03618:0014
#03712:14
#03918:1616
#03910:41
#03812:0016
#03818:26
#0381f:21
#04118:16
#04212:16
#04218:0016
#04312:1616
#04418:16
#04412:0016
#04518:1616
#04718:1616
#04812:16
#04818:0016
#04912:1616
#05112:1616
#05714:14
#05818:14
#06114:14
#06118:0014
#02914:0014
#0301f:11
#03018:0034
#05618:2626
#05612:00260000
#03418:0034
#03518:34
#03214:0034
#03314:34
#03118:34
#05010:41
#01010:41
#02610:41
#005340:1434
#006340:24
#009380:1434
#010380:24
#014380:14
#015380:24
#016320:14
#017320:24
#021340:1434
#022340:24
#026340:14
#027340:24
#0283a0:14
#0293a0:24
#030380:1434
#031380:34
#0313a0:0024
#032340:1434
#033340:34
#033320:0024
#034380:1434
#035380:34
#0353a0:0024
#040320:1626
#046320:16362600
#050380:16362600
#062340:1400002400000000
