This file was generated by Ched 2.6.4.0.
#TITLE ""
#ARTIST ""
#DESIGNER ""
#DIFFICULTY 0
#PLAYLEVEL
#SONGID ""
#WAVE ""
#WAVEOFFSET 0
#JACKET ""
#REQUEST "ticks_per_beat 480"
#00002: 4
#BPM01: 153
#00008: 01
#TIL00: ""
#HISPEED 00
#MEASUREHS 00
#0361b:00001300000013000000001300000000
#03617:1300130013000013
#03612:0000000013000013
#03616:00000000000000000000001300000000
#0371b:1313
#03716:13
#03717:00000013000000000000000000000000
#03715:00000000000000000013000026000000
#03718:0000000000130000
#03712:00000000000000000000001300000000
#03916:1313
#0391b:1313
#03912:00000000000023000000001300002300
#03917:00000013000000000000000000000000
#03910:41
#04112:1400001400000013
#04117:1300001300000000
#0411a:00000014000000000000000000000000
#04116:00000013000000000000000000000000
#0411b:0000000000000013
#04115:0000000013131300
#04118:00000000000000000013001300000000
#0001b:1313
#00012:0000130000000013
#00017:0000130000000013
#00019:00000000000000000000001300000000
#00016:1313
#00014:00000000000000000000001300000000
#00118:0000000013132300
#00115:00000000000000000013001300000000
#00112:13
#00114:00000013000000000000000000000000
#00116:0000001300000000
#00117:13
#0011b:0000001300000000
#00119:00000013000000000000000000000000
#0101b:0000130000000013
#01018:0013000000000000
#01015:00130000
#01012:2300001300000000
#01010:41
#0121b:0000131300001300
#01216:00000000001300000000001300000000
#01212:0000000013000013
#01217:00000000000000000013000000000000
#01215:0026000000000000
#01318:13000000001300000000000000000000
#01315:00130000130000000000000000000000
#0131b:0013000013000000
#01319:00000000000000000000001300000000
#01317:0000000000000013
#01312:0000001300000013
#01316:0013
#01314:00000000000000000000001300000000
#01415:00001300000013000000001300001300
#01418:00000000130000000000000000130000
#01412:2313
#0141b:2313
#01612:0013130000000000
#01618:00000013000000000000000000001300
#0161b:0000001300000000
#01615:00000000000000130000000000000000
#01712:13
#01715:00001300001300000000000000000000
#0171b:0000130000000013
#01718:00130000000013000000000000000000
#03812:0000131300000013
#03816:2313000000130000
#0381b:2313000000000000
#03817:0000131300000000
#0381f:21
#04619:0013000000000000
#04612:2300130000000013
#04614:0000001300000000
#0461b:23000000000000001300001300000000
#04617:00130000
#04616:0013
#00512:1313130013000000
#00518:00130013001300000000000000000000
#00515:0000001300000000
#00519:00000000000000000000333300000000
#0051a:00000000000000000033000000000000
#00513:00000000000000000000000000003333
#00514:00000000000000000000000000330000
#00612:00130000130013000000000000000000
#00618:0013000000000013
#0061b:23130000
#00615:0013
#0081b:00130000130013000000000000000000
#00815:0013000000000013
#00812:13130000
#00818:0013
#0091b:1313130013000000
#00915:00130013001300000000000000000000
#00918:0000001300000000
#00914:00000000000000000000333300000000
#00913:00000000000000000033000000000000
#0091a:00000000000000000000000000003333
#00919:00000000000000000000000000330000
#00718:1300000000000013
#00715:0000001313000000
#01518:00001300000013000000001300001300
#01515:00000000130000000000000000130000
#0151b:0013
#01512:0013
#01818:00130000000013000000000000000000
#01812:00001300000013000000001300000000
#0181b:0000130013000013
#01815:23130000
#01816:0013
#01810:41
#02018:13130000
#02015:00130000000013000000000000000000
#0201b:00001300000013000000001300000000
#02012:0000130013000013
#02017:0013
#02118:0000000013130000
#02112:13000000000000000013001300000000
#0211b:0000001300001313
#02115:00003300330000000000000000130013
#02117:13
#02116:00000013000000000000000000000000
#02114:00330000003300000000000000000000
#02415:00002600001300000000130000000000
#02412:00001313
#02418:00000000130000000000001300000000
#0241b:0000001300000013
#02512:1300000013000013
#02518:00130000000013000000000000000000
#02515:00001300001300000000000000000000
#02516:00000000000000000000001300000000
#0251b:00000000130000000000001300000000
#02517:0000000013000013
#02618:00001300000013000000001300001300
#02615:00131300
#0261b:2313
#02612:23000000000000000000000000130000
#02610:41
#02715:00001300000013000000001300001300
#02718:00131300
#02712:0013
#0271b:00000000000000000000000000130000
#0421b:0000131300000013
#04217:2313000000130000
#04212:2313000000000000
#04216:0000131300000000
#04412:13
#04415:00001300001300000000000000000000
#04418:00130000000013000000000000000000
#0441b:00130000
#04317:1313
#04312:1313
#0431b:00000000000023000000001300002300
#04316:00000013000000000000000000000000
#04719:0013000000000000
#0471b:00130000
#04714:0000001300000000
#04712:0013
#04717:0000000013000013
#04716:00000000130000000000001300000000
#04912:13000000000000001300001300000000
#0491b:13000013000000001300000000000000
#04916:0000001300000000000000002400000000000000000000000000000024000000
#04917:0000000000000000000000000000000000000013000000000000000000000000
#05212:0013130000000000
#05216:1300001300000000
#0521b:1300001300130000
#05217:0013130000000013
#05416:0013001300000000
#05412:23130000
#05417:0000000000130013
#0541b:00001313
#05516:0000000000140000
#05518:0000001300001313
#05515:00000000000013000000000000130013
#0551a:2424240000000000
#05512:2424240000000000
#05712:0000130000000000000000001300000000000013000000000000000013000000
#05718:00001300000013000000001300000000
#05715:00131300
#0571b:2300000000000000130000000000000013000000000000000013000000000000
#05912:1300000000000000130000000000000013000000000000000013000000000000
#0591b:0000130000000000000000001300000000000013000000000000000013000000
#05915:00001300000013000000001300000000
#05918:00131300
#06016:13
#06012:0000001300000013
#06015:0013
#0601b:00000000000000000013000000000000
#06014:0000000000130000
#0601a:00000000000000000000001300000000
#06013:00000013
#06019:00000000000000000000000000130000
#06018:00000000000000000000000000000013
#0611a:00140000000000000000000000000000
#06116:00001400000000000000001400000000
#06112:2400000013000013
#0611b:0000000013000013
#0031b:0000001313000000
#00312:1300000000000013
#00415:00130000000013000000000000000000
#00418:1313000000000000
#00412:00131300
#0041b:0000130000000013
#03014:001400000000001400000000
#03018:001400001400
#0301f:11
#0301a:2424
#03012:00240024
#01112:0000001300000000
#0111b:0000000000000013
#02212:00130000
#02215:0013000000000000
#02218:00130000
#0221b:2300001300000000
#02216:0000000000000013
#02317:0000001300000000
#02312:0000000000000013
#04515:00000000000013000000001300000000
#04518:0000001300132300
#0451b:2323230000000000
#04512:2323230000000000
#0191b:00000013000000001300000000001300
#01912:13000000000013000000001300000000
#01916:0013
#01917:13
#0581b:0000001300000000000000001300000013000000000000000013000000000000
#05818:13000000000000000000001300000000
#05812:1300000000000000001300000000000000000013000000000000000013000000
#05815:00000013000000001300000000000000
#05318:0000001300132600
#05315:00000000000013000000001300000000
#0531a:2424240000000000
#05312:2424240000000000
#05615:0000000000130000
#05618:26000000000000002600001300000000
#05612:00260026
#02815:0013000013000000
#02812:00130000
#02818:0000130000000013
#0281b:0000001300000000
#0291b:1300001300000000
#02915:13
#02912:0013130000000013
#02918:00131300
#03114:001400000014000000000000
#03118:001414000000
#03116:00000014
#0311a:2424
#03112:00242400
#03218:001400000000001400000000
#03214:001400001400
#03212:2424
#0321a:00240024
#03318:001400000014000000000000
#03314:001414000000
#03316:00000014
#03312:2424
#0331a:00242400
#03412:001400000000001400000000
#03418:001400001400
#0341a:2424
#03414:00240024
#03512:001400240000240000000000
#03516:000014000014000000140000
#0351a:240014240000
#00212:0000130000000013
#0021b:00131300
#00218:00130000000013000000000000000000
#00215:2313000000000000
#00210:41
#04015:00130000000013000000000000000000
#04018:00001300001300000000000000000000
#04012:00130000
#0401b:13
#04812:1300001300130000
#04817:1300001300000000
#04816:0013130000000013
#0481b:0013130000000000
#05014:0013000000000000
#0501b:2300130000000013
#05019:0000001300000000
#05012:23000000000000001300001300000000
#05016:00130000
#05017:0013
#05010:41
#05114:0013000000000000
#05112:00130000
#05119:0000001300000000
#0511b:0013
#05116:0000000013000013
#05117:00000000130000000000001300000000
#06218:2300002300000000
#06215:00000023000000000000000000000000
#03956:53
#0395b:0063
#03952:0000001300000013
#03957:00000013000000000000001300000000
#0185b:0053
#01852:00000000000000000000006300000000
#03756:53
#03757:00000053000000000000000000000000
#03755:00000016
#04357:63
#04352:0053
#0435b:0000001300000013
#04356:00000013000000000000001300000000
#04656:0053
#0465b:00000000000000000000005300000000
#04757:0063
#04756:00000000000000000000005300000000
#04952:63000033000000000000000000000000
#04956:0000002300000000000000000000000000000000000000000000000000000000
#0495b:00000000000000005300004300000000
#04957:0000000000000000000000000000000000000023000000000000000000000000
#05755:0053
#05752:0000000000000000000000000000000000000023000000000000000000000000
#05758:00000000000000000000006300000000
#0575b:0000000000000000000000000000000000000000000000000023000000000000
#01455:0000000000000013
#0145b:0063
#01558:0000000000000013
#01552:0053
#02655:0063
#02658:0000000000000013
#02758:0053
#02755:0000000000000013
#0105b:0000000000000013
#01152:0000001300000000
#0115b:0000000000000013
#02256:0000000000000033
#02357:0000004300000000
#02352:0000000000000033
#04558:0000002300001300
#04555:0000002300000000
#04552:00530000
#0455b:00630000
#0195b:00000053000000005300000000000000
#01952:63000000000000000000006300000000
#02052:0063
#0205b:00000000000000000000005300000000
#05858:63000000000000000000006300000000
#0585b:0000002300000000000000000000000000000000000000000023000000000000
#05855:00000053000000005300000000000000
#05852:0000000000000000002300000000000000000023000000000000000000000000
#05958:0063
#0595b:0000000000000000000000000000000000000023000000000000000000000000
#05955:00000000000000000000005300000000
#05952:0000000000000000000000000000000000000000000000000023000000000000
#05358:0000002300004600
#0535a:00640000
#05355:0000002300000000
#05352:00540000
#05558:0000002300000000
#05555:0000002300000000
#0555a:00640000
#05552:00540000
#05652:00000036
#06258:1300001300000000
#06255:00000013000000000000000000000000
#03156:00000014
#03356:00000014
#03556:00000014
#00158:00000013
#05057:0063
#05052:00000000000000000000006300000000
#05156:0053
#05157:00000000000000000000006300000000
#02152:63
#02156:00000023000000000000000000000000
#002350:00000000000000001300002300000000
#002381:00000000000000000000001300002300
#003381:13000023000000000000000000000000
#003350:00000013000023000000000000000000
#003350:00000000000000001300002300000000
#003381:00000000000000000000001300002300
#004381:00000000000000001300002300000000
#004350:00000000000000000000001300002300
#0053b0:0013
#0053a0:00000000000000000033000000000000
#005390:00000000000000000000333300000000
#005380:00000023
#005351:00000013
#005341:00000000000000000000000000330000
#005331:00000000000000000000000000003333
#006321:23
#0063b1:00000000000000001300002300000000
#006320:00000000000000000000001300002300
#007320:13000023000000000000000000000000
#0073b1:00000013000023000000000000000000
#0073b1:00000000000000001300002300000000
#007320:00000000000000000000001300002300
#008320:00000000000000001300002300000000
#0083b1:00000000000000000000001300002300
#009321:0013
#009331:00000000000000000033000000000000
#009341:00000000000000000000333300000000
#009351:00000023
#009380:00000013
#009390:00000000000000000000000000330000
#0093a0:00000000000000000000000000003333
#0103b0:23
#010370:0013
#0103b0:00000000000000000000002300000000
#010361:00000000000000000000001300002300
#011361:13
#011321:00000023000000000000000000000000
#011370:00000013000023000000000000000000
#011370:0013
#0113b0:00000000000000000000002300000000
#011361:00000000000000000000001300002300
#0143b1:0013
#014381:00000000000000000000002300000000
#015321:0013
#015351:00000000000000000000002300000000
#0163b1:00000000000000001300002300000000
#016350:00000000000000000000001300002300
#017320:0000000013230000
#017381:0000000000132300
#017350:0000000000001323
#0183b0:0013
#018370:00000000000000000000002300000000
#018321:00000000000000000000001300000000
#018361:0000000000000023
#019321:13
#019361:00000023000000000000000000000000
#0193b0:00000013000000000000000000000000
#019370:0000002300000000
#0193b0:0013
#019370:00000000000000000000002300000000
#019321:00000000000000000000001300000000
#019361:0000000000000023
#020321:0013
#020361:00000000000000000000002300000000
#0203b0:00000000000000000000001300000000
#020370:0000000000000023
#021320:1300002300000000
#021340:00330000003300000000000000000000
#021350:0033330000000000
#021360:00000033000000000000000000000000
#022320:0013
#022360:00000000000000000000002300000000
#0223b1:00000000000000000000001300002300
#0233b1:13
#023371:00000023000000000000000000000000
#023320:00000013000023000000000000000000
#023320:0013
#023360:00000000000000000000002300000000
#0233b1:00000000000000000000001300002300
#026351:0013
#026321:00000000000000000000002300000000
#027381:0013
#0273b1:00000000000000000000002300000000
#028381:00000000000000001300002300000000
#028320:00000000000000000000001300002300
#029350:00000000000000001300002300000000
#0293b1:00000000000000000000001300002300
#036321:13330000
#036361:0033002300000000
#037361:13
#037321:00000033000023000000000000000000
#037370:00000013000000000000000000000000
#0373b0:0000002300000000
#0383b0:0000000013230000
#038370:0000000000001323
#039360:13
#039320:00000023000000000000000000000000
#0393b0:0013
#039370:00000000000000000000002300000000
#040320:00001333
#040360:0000000000330023
#040371:00001333
#0403b1:0000000000330023
#042321:0000000013230000
#042361:0000000000001323
#043371:13
#0433b1:00000023000000000000000000000000
#043321:0013
#043361:00000000000000000000002300000000
#044361:00001333
#044321:0000000000330023
#0443b0:00001333
#044370:0000000000330023
#045320:00132300
#045350:0000005300000000
#0453b1:00132300
#045381:0000005300000000
#046361:0013
#046321:00000000000000000000002300000000
#0463b0:00000000000000000000001300000000
#046370:0000000000000023
#047370:0013
#0473b0:00000000000000000000002300000000
#047361:00000000000000000000001300000000
#047321:0000000000000023
#0483b1:0013
#048371:0000000000230000
#048371:00000013
#0483b1:0000000000000023
#049321:13000023000000000000000000000000
#049361:0000005300000000000000000000000000000000000000000000000000000000
#0493b1:00000000000000001300002300000000
#049371:0000000000000000000000000000000000000053000000000000000000000000
#050371:0013
#0503b1:00000000000000000000002300000000
#050320:00000000000000000000001300000000
#050360:0000000000000023
#051360:0013
#051320:00000000000000000000002300000000
#051371:00000000000000000000001300000000
#0513b1:0000000000000023
#052321:0013
#052361:0000000000230000
#052361:00000013
#052321:0000000000000023
#0533a1:00142400
#053381:0000005300000000
#053320:00142400
#053350:0000005300000000
#054370:13330000
#0543b0:0033002300000000
#054360:00001333
#054320:0000000000330023
#0553a0:00142400
#055380:0000005300000000
#055321:00142400
#055351:0000005300000000
#057351:00000000000000001300002300000000
#057321:0000000000000000000000000000000000000053000000000000000000000000
#057380:00000000000000000000001300002300
#0573b0:0000000000000000000000000000000000000000000000000053000000000000
#058380:13000023000000000000000000000000
#0583b0:0000005300000000000000000000000000000000000000000000000000000000
#058351:00000013000023000000000000000000
#058321:0000000000000000005300000000000000000000000000000000000000000000
#058351:00000000000000001300002300000000
#058321:0000000000000000000000000000000000000053000000000000000000000000
#058380:00000000000000000000001300002300
#0583b0:0000000000000000000000000000000000000000000000000053000000000000
#059380:00000000000000001300002300000000
#0593b0:0000000000000000000000000000000000000053000000000000000000000000
#059351:00000000000000000000001300002300
#059321:0000000000000000000000000000000000000000000000000053000000000000
#0603b1:13330000
#060391:00330033003300000000000000000000
#060371:0033002300000000
#0613b1:0000132300000000
#061320:0000132300000000
