This file was generated by Ched 2.6.4.0.
#TITLE ""
#ARTIST ""
#DESIGNER ""
#DIFFICULTY 0
#PLAYLEVEL
#SONGID ""
#WAVE ""
#WAVEOFFSET 0
#JACKET ""
#REQUEST "ticks_per_beat 480"
#00002: 4
#BPM01: 153
#00008: 01
#TIL00: ""
#HISPEED 00
#MEASUREHS 00
#03014:001400001400
#0301f:11
#0301a:2424
#03018:00240024
#00018:14
#0001a:0014
#00014:00140000
#00016:00000000000000000000001400000000
#00012:0000000000000014
#00118:0013
#00115:0000000000130000
#0011a:14
#00116:00000014000000000000000000000000
#00112:0000001400000000
#0011b:00000023
#0101b:0013000000000000
#01015:00130000
#01018:0000001300000000
#01012:2313
#01010:41
#03818:0013000000130000
#0381b:2300001300000013
#03815:00130013
#03812:2313
#0381f:21
#04012:1313
#04018:0013001300000013
#04015:00130013
#0401b:0000000000130000
#04618:0013000000000000
#04612:00130000
#0461b:2300001300000000
#04615:23
#01715:00001313
#01718:0000000000130013
#01719:00330000003300000000000000000000
#01714:00330000003300000000000000000000
#00412:0000001300000000
#00415:1313000000000000
#00418:00130000000000000000000000000000
#0041b:00130000
#01113:13
#01114:0013
#03116:00000014
#03112:001400000000
#03114:000000000014000000000000
#0311a:2424
#03118:00240000
#0361b:13
#03618:0013000000000000
#03615:00130000
#03612:0000001300000014
#0361a:0014
#03616:00000000000000000000001400000000
#04215:0013000000130000
#04212:2300001300000013
#04218:00130013
#0421b:2313
#04818:0013000000130000
#0481b:1300001300000013
#04815:00130013
#04812:1313
#05415:0013001300001300
#05418:0000130000130013
#05412:2313
#0541b:2313
#05718:00001300000013000000001400000000
#05715:00130000000000000000000000000000
#05712:0000130000000014
#05714:0014
#0571b:23
#00218:00130000000000000000000000000000
#00215:2313000000000000
#0021b:00130000
#00212:0000001300000000
#00210:41
#0081b:0000001300000000
#00818:1313000000000000
#00815:00130000000000000000000000000000
#00812:00130000
#00615:00130000000000000000000000000000
#00618:2313000000000000
#00612:00130000
#0061b:0000001300000000
#0121b:00131300
#01212:0000001300130000
#01218:00000013
#01215:0000000000000013
#01216:0024000000000000
#0131b:13
#01315:0013000000000000
#01318:00130000
#01312:0000001300000014
#0131a:0014
#01316:00000000000000000000001400000000
#01415:0013000000000000
#01418:00131300
#01412:0000001300000000
#0141b:23000000000000000000001300000000
#02012:0000001300000000
#02015:1313000000000000
#02018:00130000000000000000000000000000
#0201b:00130000
#01818:00130000000000000000000000000000
#01815:2313000000000000
#0181b:00130000
#01812:0000001300000000
#01810:41
#01512:0013000000000000
#01518:00000000130000000000001300000000
#01515:0000001300000000
#0151b:0013
#01612:0013000000000014
#01618:00130000
#01615:0000001300000000
#0161a:0014
#01616:00000000000000000000001400000000
#02212:0013000000000000
#02218:00130000
#02215:0000001300000000
#0221b:2313
#02412:00131300
#0241b:0000001300130000
#02415:00000013
#02418:0000000000000013
#02416:0024000000000000
#02512:1314
#02518:0013000000000000
#02515:00130000
#0251b:0000001300000000
#02516:00000000000000000000001400000000
#0251a:0000000000000014
#02618:0013000000000000
#02615:00131300
#0261b:0000001300000000
#02612:23000000000000000000001300000000
#02610:41
#0271b:0013000000000000
#02715:00000000130000000000001300000000
#02718:0000001300000000
#02712:0013
#0281b:0013000000000000
#02815:00130000
#02818:0000001300000000
#02812:0014
#02816:00000000000000000000001400000000
#0281a:0000000000000014
#0291a:0014
#02916:00000000000000000000001400000000
#02912:0000000000000014
#03712:1400000000000013
#03716:00000014000000000000000024000000
#0411b:0000000000000013
#0441b:1313
#04415:0013001300000013
#04418:00130013
#04412:0000000000130000
#0471b:0013000000000000
#04715:00130000
#04718:0000001300000000
#05015:0013000000000000
#0501b:00130000
#05012:2300001300000000
#05018:23
#05010:41
#05112:0013000000000000
#05118:00130000
#05115:0000001300000000
#05212:1300001300000013
#0521b:1313
#05215:0013000000130000
#05218:00130013
#0531a:14240000
#0531a:24
#05312:0024000024000000
#05512:14240000
#05512:24
#0551a:0024000024000000
#03218:001400001400
#03212:2424
#03214:00240024
#03316:00000014
#0331a:001400000000
#03318:000000000014000000000000
#03312:2424
#03314:00240000
#0341a:241400241400
#03414:001400240000001400240000
#03516:00000014
#0351a:241400000000
#03514:001400000000000000000000
#03512:000000240014000000000000
#03518:000014240000
#05814:00000014000000001400000000000000
#0581a:0000001400000000
#05818:14000000000000000000001400000000
#05812:0000000000000014
#05915:00130000000000000000000000000000
#05918:00001300000013000000001400000000
#0591b:13
#05912:0000130000000014
#05914:0014
#06118:00130000000000000000000000000000
#0611b:00130000
#06115:0013001300000000
#0611a:0014
#06116:00000000000000000000001400000000
#06112:2300000000000014
#0601b:13
#06017:00000013000000000000000033330000
#0601a:00000000000000000033000000000000
#06019:00330000003300000000330000000000
#06018:00003300330000000000003300000000
#0231a:13
#02319:0013
#05616:00000024
#0561a:24242400
#05612:24242400
#03918:0000002300000000
#0391b:0000000000000023
#03910:41
#04315:0000002300000000
#04312:0000000000000023
#04512:0023000023000000
#0451b:23230000
#06212:0000002400000000
#0621a:2400002400000000
#06216:00000024000000000000000000000000
#04912:0000002300000000
#0091a:00000000000000000033000000000000
#00919:0000000000330000
#00918:00000000000000000000003333330000
#02114:00000000000000000033000000000000
#02113:0000000000330000
#02112:00000000000000000000003333330000
#00513:00000000000000000033000000000000
#00514:0000000000330000
#00515:00000000000000000000003333330000
#03952:00000013000000000000000000000000
#03955:00000000000000000000001300000000
#0015b:00000013
#01059:0000000000000013
#0115a:0000001300000000
#0115b:0000000000000013
#03156:00000014
#0145b:00000000000000000000002300000000
#01458:0000000063000013
#01558:00000000000000000000002300000000
#0155b:0000000053000013
#02652:00000000000000000000002300000000
#02655:0000000053000013
#02755:00000000000000000000002300000000
#02752:0000000063000013
#0435b:00000013000000000000000000000000
#04358:00000000000000000000001300000000
#04556:00000013
#04958:00000013000000000000000000000000
#04955:00000000000000000000001300000000
#05356:00000014
#05556:00000014
#05656:00000014
#03356:00000014
#03556:00000014
#03756:00000014
#0605b:63
#06057:00000023000000000000000000000000
#02254:0000000000000013
#02353:0000001300000000
#02352:0000000000000013
#0023b0:0000000013000023
#002380:00000000000000000000003300000000
#003320:1300002300000000
#003350:00000033000000000000000000000000
#0033b0:0000000013000023
#003380:00000000000000000000003300000000
#0043b0:0000000013000023
#004380:00000000000000000000003300000000
#005320:1300003333000000
#005330:00330000003300000033000000000000
#005340:0033330000330000
#005350:00000033000000000000003333332300
#006320:0000000013000023
#006350:00000000000000000000003300000000
#0073b0:1300002300000000
#007380:00000033000000000000000000000000
#007320:0000000013000023
#007350:00000000000000000000003300000000
#008320:0000000013000023
#008350:00000000000000000000003300000000
#0093b0:1300003333000000
#0093a0:00330000003300000033000000000000
#009390:0033330000330000
#009380:00000033000000000000003333332300
#010390:00000000000000000000001300002300
#0113a0:00000013000023000000000000000000
#0113b0:00000000000000000000001300002300
#014380:0000000013000023
#0143b0:00000000000000000000003300000000
#0153b0:0000000013000023
#015380:00000000000000000000003300000000
#0173b0:1300002300000000
#017390:00330000003300000000000000000000
#017380:0033330000000000
#017321:1300002300000000
#017341:00330000003300000000000000000000
#017351:0033330000000000
#018381:0000000013000023
#0183b1:00000000000000000000003300000000
#019351:1300002300000000
#019321:00000033000000000000000000000000
#019381:0000000013000023
#0193b1:00000000000000000000003300000000
#020381:0000000013000023
#0203b1:00000000000000000000003300000000
#021351:1300003333000000
#021341:00330000003300000033000000000000
#021331:0033330000330000
#021321:00000033000000000000003333332300
#022341:00000000000000000000001300002300
#023331:00000013000023000000000000000000
#023321:00000000000000000000001300002300
#026351:0000000013000023
#026321:00000000000000000000003300000000
#027321:0000000013000023
#027351:00000000000000000000003300000000
#029321:1300002300000000
#029351:0033330000000000
#0293b0:1300002300000000
#029380:0033330000000000
#0373a0:0000001400000000
#037360:00000024
#039320:13000023000000000000000000000000
#039350:00000000000000001300002300000000
#041320:1400003400000000
#041360:00000034000000000000000024000000
#0433b0:13000023000000000000000000000000
#043380:00000000000000001300002300000000
#0453b0:00130000
#045370:0023
#045321:0013
#045361:00000023
#046351:0000000013000023
#046321:00000000000000000000003300000000
#047321:0000000013000023
#047351:00000000000000000000003300000000
#0493b1:13
#049381:00000023000000000000000000000000
#049321:0013
#049351:00000000000000000000002300000000
#050381:0000000013000023
#0503b1:00000000000000000000003300000000
#0513b1:0000000013000023
#051381:00000000000000000000003300000000
#0533a1:00140000
#053361:0024
#053320:0014
#053360:00000024
#055320:00140000
#055360:0024
#0553a1:0014
#055361:00000024
#0603b1:1300003333000000
#060391:00330000003300000000330000000000
#060381:00003300330000000000003300000000
#060371:00000033000000000000000033332300
#0603a1:00000000000000000033000000000000
