This file was generated by Ched 2.6.4.0.
#TITLE ""
#ARTIST ""
#DESIGNER ""
#DIFFICULTY 0
#PLAYLEVEL
#SONGID ""
#WAVE ""
#WAVEOFFSET 0
#JACKET ""
#REQUEST "ticks_per_beat 480"
#00002: 4
#BPM01: 153
#00008: 01
#TIL00: ""
#HISPEED 00
#MEASUREHS 00
#0361a:0014140000000000
#0361b:0013
#03612:00140000001400001300001900000000
#03616:14000014000014000000000000000000
#03618:0000000000130000
#03615:00000000000000000000000000131900
#03917:1313
#03912:1300000000000000001300000000000013000000000000000013000000000000
#03916:00000013000000000000001300000000
#0391b:0000002300000023
#03910:41
#05613:00000000000000000000001a00000000
#05614:0000000000180000
#05612:26262626
#05618:26262626
#0001b:13000000130000001300001300130000
#00012:13000000130000001300001300130000
#00015:00001300000000130000000000000000
#00018:00000013000013000000000000000000
#00016:0000000000140014
#00117:0000000000160000
#00115:00000000000000001600001600000000
#00113:00000000000000000016000000000000
#0011a:14
#00116:1400001400000000
#00118:00000014000000000000000026000000
#00114:00000014000000000000000000000000
#00112:0000001400002600
#0021b:00130000000013000000001300000000
#00212:0013130013000013
#00217:00131300
#00216:0000001300000000
#00215:26
#00210:41
#01018:0013160000000000
#01012:26000000130000001300001300000000
#01016:0000000000000000000000001300000000000013000000000013000000000000
#01015:00000013000000000000000000000000
#0101b:23000000000013000000001300000000
#01017:0000000013000013
#01010:41
#01217:00130000
#01213:00000000001300000000000000000000
#0121b:0000001300000013
#01212:0024000019000013
#01215:00000000000000000000001913000000
#01218:00000000000000000013000000000000
#0121a:0024000000000000
#01318:13000000001300000000000000000000
#01315:00130000130000000000000000000000
#01317:0000000000000000000000000000000000000013000000000000000000000000
#0131b:0000000013000013
#01316:0000000000000000000000000000000000000000000000000013000000000000
#01312:00000000000000000000001300000000
#01415:00001600001300000000000000000000
#01418:00130000
#0141b:23000000000013000000001300000000
#01412:23000013000000001300000000001300
#01417:00000000000000001300000000130000
#01712:0013000000000000
#01715:00130000130013000000130000000000
#0171b:0000001300000000
#01718:13001300001300001200130014001500
#01716:0012
#01714:00000014
#01713:0000000000000015
#03817:0013130000130013
#0381b:2300001313001300
#0381f:21
#03716:0000000012120000
#03718:00000000001313000012001200000000
#03717:0000000000000013
#03712:1300001300002413
#0371b:13000013000000000000000000000000
#03715:00001313000000000000000000000000
#0371a:00000024
#04116:00000000000000000000001300001300
#0411b:0000001300000000000000000000000000000000000000001300000013000000
#04117:1300000000000000001300000000000013000000000000000000000000000000
#04112:1300000000000000001300000000000000000000000000001300000000000000
#04114:00000013000000000013000000000000
#04119:00000013000000000000130000000000
#05512:0026000026140000
#05515:00000000000000000000000016161616
#0551a:0000000000140000
#05518:26262600
#05516:00000024000024000000000000000000
#00316:13
#0031b:13000000000013000000001300000000
#00312:00000013000000001300000000001300
#00317:0013
#00416:00131300
#0041b:0013130013000013
#00412:00130000000013000000001300000000
#00417:0000001300000000
#00415:16
#00512:1300001300000013
#00516:00141400141400000000000000000000
#0051b:00000013000000000013001300000000
#00515:00000000000000001600000013000013
#00518:00000000000000000000130000130000
#04016:13
#04014:0013000000000000
#04019:00130000000000000000000000000000
#04017:00000013000000000000000000000000
#04018:00000000000013000000001300000000
#0401b:0000000000000013
#04015:0000000000130000
#00612:00130000160013000000001300000000
#00618:2613000000000000
#00616:0013
#0061b:0000130013000013
#00617:0000000000000000000000001300000000000013000000000000000000000000
#0081b:00130000000013000000001300000000
#0081b:0000001300000000
#00816:0000000000000000000000001300000000000013000000000000000000000000
#00816:0000001300000000
#00817:0013
#00812:1600130013000013
#00815:0013000000000000
#00818:00160000
#0091b:1300001300000013
#00916:00141400141400000000000000000000
#00912:00000013000000000013001300000000
#00918:00000000000000000000000013000013
#00915:00000000000000001600130000130000
#00717:1300000000000000000000000000000000000013000000000000000000000000
#00716:0000001300000000000000000000000013000000000000000000000000000000
#00712:13000000000013000000001300000000
#0071b:00000013000000001300000000001300
#04519:0000000000000013
#04514:0000000000000013
#04515:00000013000023000000001600000000
#04516:0000000000140000
#04518:00002300000000130000000000000000
#0451b:23232323
#04512:23232323
#01117:0000001300000000001300000000000013000000000000000000000013000000
#0111b:13000013000000000000001300000000
#01116:1300000000000000000000001300000000000013000000000013000000000000
#01112:00000013000000001300001300000000
#0211b:13000000000013000013000000000000
#02118:00130000130000001300001300000013
#02112:00000013000000000000000013001300
#02115:00001300001300000000130000130000
#0201b:0000130000000000000000001300000000000000000000000013000000000000
#0201b:0000001300000000
#02015:0013000000000000
#02012:1600130013000013
#02016:0000000000000000000000001300000000000013000000000000000000000000
#02016:0000001300000000
#02018:00160000
#02017:00000000000000001300001300000000
#01812:0000130000000000160000001300000000000000000000000013000000000000
#01818:2613000000000000
#0181b:0000130013000013
#01817:0000000000000000000000001300000000000013000000000000000000000000
#01816:00000000000000001300001300000000
#01810:41
#02215:00000013000000000000000000000000
#02217:0000000000000000000000001300000000000013000000000013000000000000
#0221b:23000000000000001300001300000000
#02218:0013160000000000
#02212:2600000000000000130000001300000000000000000000000013000000000000
#02216:00000000000000001300001300000000
#02416:0000141413141400
#0241b:00000000001300000000000000000000
#02412:00002400000000000000001300001500
#02419:0000000000000015
#0241a:0014
#02417:0013000000000000
#02316:0000001300000000001300000000000013000000000013000000000000000000
#02312:1300000000001300000000000000000000000000000000000013000000000000
#0231b:0000000000000000001300000000000013000000000013000000000000000000
#02317:1300000000001300000000000000000000000013000000000013000000000000
#02516:0000140000000000000014000000000000000013000000000000000000000000
#02512:1400000013000013
#02517:0000000000000000000000000000000000000000000000000013000000000000
#0251b:00000000000000000000001300000000
#0251a:00140000
#0281b:0000000000000000000000000000000000000013000000000000000013000000
#02815:00000013000000000000001300000000
#02818:0013000000000000
#02817:0013
#02812:0000000000000000000000000000000000000000000000000013000000000000
#04316:1313
#0431b:1300000000000000001300000000000013000000000000000013000000000000
#04317:00000013000000000000001300000000
#04312:0000002300000023
#05717:0000000000000000000000001300000000000013000000000000000013000000
#05712:23000000160013000000001300000000
#05716:0000000000000000000000000000000013000000000000000013000000000000
#0571b:00131300
#05715:00130000000000000000000000000000
#05718:2613000000000000
#0591b:13000000000013000000001300000000
#05918:00130000160000000000000000000000
#05915:0013000000000000
#05916:0000000000000000000000001300000000000013000000000000000013000000
#05912:16131300
#05917:0000000000000000000000000000000013000000000000000013000000000000
#06012:1300001300000012
#06015:00161300160000000000000000000000
#0601b:00000013000013000000000000000000
#06018:00000000001300001200000000120000
#0601c:00000000000000000012000000000000
#0601a:00000000000000000000001200000000
#06016:00000000000000000000120000000012
#06014:00000012
#05816:0000001300000000000000001300000013000000000000000013000000000000
#05817:1300000000000000001300000000000000000013000000000000000013000000
#0581b:00000013000000001300000000000000
#05812:13000000000000000000001300000000
#03119:00000012
#03115:000000230013000000120000
#03118:001300000000
#0311b:001300230000000000000000
#03112:290013290000
#03018:001300000000
#0301b:001300230000230000000000
#03015:000000230000230013000000
#03012:290000000000001300290000
#0301f:11
#03519:001300000000000000120000
#03515:00230012
#0351a:001300000000
#03513:000000000013000000000000
#03514:001300
#03512:2323
#03518:2323
#0351b:00230000
#04216:0013130000130013
#04212:2300001313001300
#01515:0016130000000000
#01512:00000000000013000000001300000000
#0151b:00000013000000001300000000001300
#01518:00000000001300000000000000000000
#01516:00000000000000001300000000130000
#0161b:0000000013000013
#0161b:0000000000000013
#01617:0000000000000000000000000000000000000013000000000000000000000000
#01618:00000013000013000000000000000000
#01616:0000000000000000000000000000000000000000000000000013000000000000
#01612:00000000000000000000001300000000
#01615:00001300000000130000000000000000
#0491b:00000013000000000000000000000000
#04912:00000000000026000000001300000000
#04918:0000000000000026
#04417:13
#04419:0013000000000000
#04414:00130000000000000000000000000000
#04416:00000013000000000000000000000000
#04415:00000000000013000000001300000000
#04412:0000000000000013
#04418:0000000000130000
#02615:00000013000013000000000000000000
#02612:23000000001300001300001300000000
#02614:0000000000000013
#0261a:0000000000000013
#02618:00130000
#02617:23000000000000001300000000130000
#0261b:0000000013000000000000000000000000000013000000000000000000000000
#02610:41
#04612:2300000000000000000000000000000000000013000000000000000013000000
#0461b:00000000130000001300001300000000
#04617:0000000000000000000000001300000000000000000000000013000000000000
#04616:0013000013000000
#01916:0000001300000000000000000000000013000000000013000000000000000000
#01912:1300000000000000000000001300000000000000000000000013000000000000
#0191b:0000000000000000001300000000000013000000000000000000000013000000
#01917:1300000000001300000000000000000000000013000000000000000000000000
#02914:0000001800000000
#02915:00160000
#02916:0014000000000000
#02917:12
#0321b:001300000000
#03218:231300000000000000230000
#03212:230000000000000013230000
#03215:000000290000291300000000
#03319:00000012
#03315:000000291300000000120000
#0331b:001300000000
#03318:231300000000230000000000
#03312:230000000013230000000000
#0611a:00001400140000001400001400000000
#06112:2400140014000014
#06116:00140000000014000000000000000000
#0511b:0013000013000013
#05112:00000000000000000000001300000000
#05116:0000000000000000000000000000000000000000000000000013000000000000
#05117:0000000000000000000000000000000000000013000000000000000000000000
#03413:000013
#03414:000000000000001300000000
#0341a:001300000000
#03419:001300000000000000000000
#03412:23000023
#03418:23000023
#0341b:00232300
#03415:00232300
#02718:00000013000013000000000000000000
#0271b:00000000001300001300001300000000
#02719:0000000000000013
#02713:0000000000000013
#02715:00130000
#02716:00000000000000001300000000130000
#02712:0000000013000000000000000000000000000013000000000000000000000000
#04812:14000000000000000000000000140000
#04816:00140000140000000014000014000000
#04814:00001400000000000000001400001400
#04818:00000014000014000000140000000000
#0481a:00000000001400001400000000000000
#05218:0000160000000016
#05216:00000000001400000000000000140000
#05212:0000001600001600
#05315:00000000000000000000001600000000
#05316:00000024000024000000140000000000
#05312:26262623
#05318:0026000026000000
#0531b:00000023
#05412:23001600001300001300001300001600
#0541b:23000013000000001300000000130000
#05418:00130000000016000000160000000000
#05415:00000000160000000013000016000000
#04718:0013000000000000
#0471b:0000000000000000000000000000000000000013000000000000000013000000
#04712:00000000000000000000001300000000
#04716:0000000000000000000000000000000000000000000000000013000000000000
#04717:0013
#0501b:00000000000013001300001300000000
#05012:0013000013000013
#05017:0000000000000000130000000000000000000000000000000013000000000000
#05016:2300000000000000000000000000000000000013000000000000000000000000
#05010:41
#06218:0000002600000000
#06212:28000024000026000000000000000000
#0621a:24
#06216:00000028000000000000000000000000
#03957:6363
#03956:00000053000000000000005300000000
#03952:1300000000000000002300000000000013000000000000000023000000000000
#0395b:00000013000013000000001300001300
#00158:00000046
#00152:00000036
#03752:00000034
#0375a:00000044
#04957:00000033000000000000000000000000
#04956:00000000000000000000004300000000
#0495b:00000033000000000000000000000000
#04952:00000000000036000000004300000000
#04958:0000000000000046
#05652:56560036
#05658:66660046
#00252:0023
#0025b:00000000000000000000005300000000
#00257:0013
#0035b:23000000000000000000005300000000
#00352:00000063000000002300000000000000
#00356:13
#00357:0013
#0045b:0023
#00452:00000000000000000000006300000000
#00456:0013
#0415b:0000002300000000000000004300000000000000000000000000000000000000
#04157:6300000000000000002300000000000000000000000000000000000000000000
#04152:0000000000000000002300000000000000000000000000000000000000000000
#04154:00000063000000000000000000000000
#04159:00000063000000000000000000000000
#04156:0000004300000000
#01052:00000000000000006300006300000000
#01056:0000000000000000000000000000000000000023000000000023000000000000
#01057:0000000043000043
#00657:0000000000000000000000000000000000000023000000000000000000000000
#0065b:0063
#00652:00000000000000000000006300000000
#00656:0013
#00756:0000002300000000000000000000000013000000000000000000000000000000
#00752:53000000000000000000006300000000
#00757:1300000000000000000000000000000000000023000000000000000000000000
#0075b:00000053000000006300000000000000
#00856:0000000000000000000000000000000000000023000000000000000000000000
#00852:0053
#0085b:00000000000000000000005300000000
#00857:0013
#01157:0000002300000000002300000000000043000000000000000000000043000000
#0115b:53000053000000000000000000000000
#01156:3300000000000000000000003300000000000023000000000023000000000000
#01152:00000000000000006300006300003300
#01357:0000000000000000000000000000000000000023000000000000000000000000
#0135b:0063
#01356:0000000000000000000000000000000000000000000000000023000000000000
#01352:00000000000000000000005300000000
#02257:0000000000000000000000000000000000000023000000000023000000000000
#0225b:00000000000000005300005300004300
#02252:0000000000000000000000000000000000000000000000000023000000000000
#02256:00000000000000003300005300004300
#02356:0000002300000000002300000000000033000000000053000000000043000000
#02352:6300000000006300000000003300000000000000000000000023000000000000
#0235b:0000000000000000002300000000000053000000000053000000000043000000
#02357:4300000000006300000000003300000000000023000000000023000000000000
#02556:0000000000000000000000000000000000000023000000000000000000000000
#02552:0053
#02557:0000000000000000000000000000000000000000000000000023000000000000
#0255b:00000000000000000000006300000000
#04356:5353
#0435b:1300000000000000002300000000000013000000000000000023000000000000
#04357:00000063000000000000006300000000
#04352:00000013000013000000001300001300
#05756:0000000000000000000000000000000033000000000000000023000000000000
#05757:0000000000000000000000000000000000000023000000000000000000000000
#0575b:0063
#05752:00000000000000000000005300000000
#05856:0000002300000000000000000000000033000000000000000023000000000000
#05857:4300000000000000002300000000000000000023000000000000000000000000
#0585b:00000063000000006300000000000000
#05852:53000000000000000000005300000000
#03159:00000042
#03155:00000032
#03559:00000042
#03555:00000032
#01857:0000000000000000000000000000000000000023000000000000000000000000
#0185b:0063
#01852:0000000000000000000000000000000000000000000000000023000000000000
#01856:00000000000000003300006300000000
#01452:0000000053000033
#0155b:0000000063000043
#01657:0000000000000000000000000000000000000023000000000000000000000000
#0165b:0063
#01656:0000000000000000000000000000000000000000000000000023000000000000
#01652:00000000000000000000005300000000
#0295b:0000000000000013
#02952:0000000000000013
#02956:0044000000000000
#02954:0000004800000000
#02957:32
#02955:00360000
#0455b:00000043
#04552:00000033
#02654:0000000000000033
#0265a:0000000000000043
#0265b:0000000000000000000000000000000000000023000000000000000000000000
#02657:0053
#0465b:00000000000000004300005300004300
#04657:0000000000000000000000000000000000000000000000000023000000000000
#04656:00000000000000005300004300000000
#04652:0000000000000000000000000000000000000023000000000000000000000000
#01956:0000002300000000000000000000000033000000000063000000000000000000
#01952:5300000000000000000000000000000000000000000000000023000000000000
#0195b:0000000000000000002300000000000063000000000000000000000000000000
#01957:4300000000005300000000000000000000000023000000000000000000000000
#02056:0000000000000000000000000000000000000023000000000000000000000000
#02052:0053
#0205b:0000000000000000000000000000000000000000000000000023000000000000
#02057:00000000000000004300005300000000
#03359:00000042
#03355:00000032
#06258:0000004600000000
#06252:3800003600000000
#06256:00000048000000000000000000000000
#0615a:00000000000000004400002400000000
#06152:0024
#02857:0053
#0285b:0000000000000000000000000000000000000023000000000000000000000000
#02852:0000000000000000000000000000000000000000000000000023000000000000
#02855:00000000000000000000006300000000
#02457:0053000000000000
#02456:0063
#05152:00000000000000003300006300003300
#05156:0000000000000000000000000000000000000000000000000023000000000000
#0515b:00000000000000005300004300000000
#05157:0000000000000000000000000000000000000023000000000000000000000000
#02759:0000000000000043
#02753:0000000000000033
#02752:0000000000000000000000000000000000000023000000000000000000000000
#02756:0063
#05352:36363633
#05358:0046000046000000
#0535b:00000043
#05558:46464600
#05552:0036000036000000
#04752:00000000000000003300006300003300
#04756:0000000000000000000000000000000000000000000000000023000000000000
#04757:00000000000000006300003300000000
#0475b:0000000000000000000000000000000000000023000000000000000000000000
#0505b:00000000000000004300005300004300
#05057:0000000000000000000000000000000000000000000000000023000000000000
#05052:00000000000000006300003300000000
#05056:0000000000000000000000000000000000000023000000000000000000000000
#05957:0000000000000000000000000000000043000000000000000023000000000000
#05956:0000000000000000000000000000000000000023000000000000000000000000
#05952:0053
#0595b:00000000000000000000006300000000
#002320:0013
#002360:00000000000000000000002300000000
#0023b1:00000000000000000000001300000000
#002371:0000000000000023
#0033b1:13
#003371:00000023000000000000000000000000
#003320:00000013000000000000000000000000
#003360:0000002300000000
#003320:0013
#003360:00000000000000000000002300000000
#0033b1:00000000000000000000001300000000
#003371:0000000000000023
#0043b1:0013
#004371:00000000000000000000002300000000
#004320:00000000000000000000001300000000
#004360:0000000000000023
#0063b0:00000000000000001300002300000000
#006370:0000000000000000000000000000000000000053000000000000000000000000
#006321:00000000000000000000001300000000
#006371:0000000000000023
#007321:13000023000000000000000000000000
#007361:0000005300000000000000000000000000000000000000000000000000000000
#0073b0:00000013000000000000000000000000
#007360:0000002300000000
#0073b0:00000000000000001300002300000000
#007370:0000000000000000000000000000000000000053000000000000000000000000
#007321:00000000000000000000001300000000
#007371:0000000000000023
#008321:00000000000000001300002300000000
#008361:0000000000000000000000000000000000000053000000000000000000000000
#0083b0:00000000000000000000001300000000
#008360:0000000000000023
#010320:00000000000000001300003300002300
#010360:0000000000000000000000000000000000000053000000000053000000000000
#0113b0:13000033000023000000000000000000
#011370:0000005300000000005300000000000000000000000000000000000000000000
#011320:00000000000000001300003300002300
#011360:0000000000000000000000000000000000000053000000000053000000000000
#0133b0:0013230000000000
#013320:0000001323000000
#0133b1:00000000000000001300002300000000
#013371:0000000000000000000000000000000000000053000000000000000000000000
#013320:00000000000000000000001300002300
#013360:0000000000000000000000000000000000000000000000000053000000000000
#014320:0013
#014360:00000000000000000000002300000000
#0153b0:0013
#015370:00000000000000000000002300000000
#016320:0000132300000000
#0163b0:00000000000000001300002300000000
#016370:0000000000000000000000000000000000000053000000000000000000000000
#016321:00000000000000000000001300002300
#016361:0000000000000000000000000000000000000000000000000053000000000000
#0183b1:00000000000000001300002300000000
#018371:0000000000000000000000000000000000000053000000000000000000000000
#018360:00000000000000000000001300002300
#018320:0000000000000000000000000000000000000000000000000053000000000000
#019320:13000023000000000000000000000000
#019360:0000005300000000000000000000000000000000000000000000000000000000
#019371:00000013000023000000000000000000
#0193b1:0000000000000000005300000000000000000000000000000000000000000000
#0193b1:00000000000000001300002300000000
#019371:0000000000000000000000000000000000000053000000000000000000000000
#019360:00000000000000000000001300002300
#019320:0000000000000000000000000000000000000000000000000053000000000000
#020320:00000000000000001300002300000000
#020360:0000000000000000000000000000000000000053000000000000000000000000
#020371:00000000000000000000001300002300
#0203b1:0000000000000000000000000000000000000000000000000053000000000000
#0223b1:00000000000000001300003300002300
#022371:0000000000000000000000000000000000000053000000000053000000000000
#022360:00000000000000000000001300002300
#022320:0000000000000000000000000000000000000000000000000053000000000000
#023320:13000033000023000000000000000000
#023360:0000005300000000005300000000000000000000000000000000000000000000
#023371:00000013000023000000000000000000
#0233b1:0000000000000000005300000000000000000000000000000000000000000000
#0233b1:00000000000000001300003300002300
#023371:0000000000000000000000000000000000000053000000000053000000000000
#023360:00000000000000000000001300002300
#023320:0000000000000000000000000000000000000000000000000053000000000000
#024370:0013000000000000
#0243b0:00230000
#024360:0013
#024320:0000000000230000
#025360:0014000000000000
#025320:00000054240000000000000000000000
#025360:0000001400000000
#0253a0:00000000000000542400000000000000
#025321:00000000000000001300002300000000
#025361:0000000000000000000000000000000000000053000000000000000000000000
#0253b0:00000000000000000000001300002300
#025370:0000000000000000000000000000000000000000000000000053000000000000
#026370:00000000000000001300002300000000
#0263b0:0000000000000000000000000000000000000053000000000000000000000000
#027360:00000000000000001300002300000000
#027320:0000000000000000000000000000000000000053000000000000000000000000
#0283b0:0000132300000000
#028321:0000001323000000
#028370:0013
#0283b0:0000000000000000000000000000000000000053000000000000000000000000
#028380:00000000000000000000002300000000
#028351:00000000000000000000001300000000
#028321:0000000000000000000000000000000000000000000000000053000000000000
#028361:0000000000000023
#029321:0000000013005323
#029351:00000000000000000053003300000000
#0293b0:0000000013005323
#029380:00000000000000000053003300000000
#038370:13
#038320:0023000000000000
#038320:00130000
#038370:0000002300000000
#038370:00001333
#038320:0000000000330023
#039370:13
#0393b0:0000005300002300000000000000000000000000000000000000000000000000
#039361:00000013000023000000000000000000
#039321:0000000000000000005300000000000000000000000000000000000000000000
#039371:0013
#0393b1:0000000000000000000000000000000000000053000023000000000000000000
#039360:00000000000000000000001300002300
#039320:0000000000000000000000000000000000000000000000000053000000000000
#040320:0000132300000000
#0403b0:0000000013230000
#040320:0000000000001323
#041370:1300000000000000005300000000000000000000000000000000000000000000
#0413b0:0000005300000000000000002300000000000000000000000000000000000000
#041390:00000033000000000000000000000000
#041341:00000013000000000000000000000000
#041321:0000000000000000005300000000000000000000000000000000000000000000
#041361:0000002300000000
#042361:13
#0423b1:0023000000000000
#0423b1:00130000
#042361:0000002300000000
#042361:00001333
#0423b1:0000000000330023
#043361:13
#043321:0000005300002300000000000000000000000000000000000000000000000000
#043370:00000013000023000000000000000000
#0433b0:0000000000000000005300000000000000000000000000000000000000000000
#043360:0013
#043320:0000000000000000000000000000000000000053000023000000000000000000
#043371:00000000000000000000001300002300
#0433b1:0000000000000000000000000000000000000000000000000053000000000000
#0443b1:0000132300000000
#044321:0000000013230000
#0443b1:0000000000001323
#045321:1323000000000000
#0453b1:0000132300000000
#0463b1:1323000000000000
#046321:0000132300000000
#046361:00000000000000001300002300000000
#046321:0000000000000000000000000000000000000053000000000000000000000000
#0463b0:00000000000000000000001300002300
#046370:0000000000000000000000000000000000000000000000000053000000000000
#047350:0013230000000000
#0473b1:0000132300000000
#047320:0000001323000000
#047371:00000000000000001300002300000000
#0473b1:0000000000000000000000000000000000000053000000000000000000000000
#047320:00000000000000000000001300002300
#047360:0000000000000000000000000000000000000000000000000053000000000000
#049320:13
#049370:0000005300002300000000000000000000000000000000000000000000000000
#0493b0:0013
#049360:0000000000000000000000000000000000000053000023000000000000000000
#0503b0:1323000000000000
#050320:0000132300000000
#050320:00000000000000001300002300000000
#050360:0000000000000000000000000000000000000053000000000000000000000000
#0503b1:00000000000000000000001300002300
#050371:0000000000000000000000000000000000000000000000000053000000000000
#051351:0013230000000000
#051380:0000132300000000
#051321:0000001323000000
#0513b0:00000000000000001300002300000000
#051370:0000000000000000000000000000000000000053000000000000000000000000
#051321:00000000000000000000001300002300
#051361:0000000000000000000000000000000000000000000000000053000000000000
#052381:13230000000000000000000000000000
#052320:00132300000000000000000000000000
#0523b1:00001323000000000000000000000000
#052350:00000013230000000000000000000000
#052350:00000000000000001323000000000000
#0523b1:00000000000000000013230000000000
#052320:00000000000000000000132300000000
#052381:00000000000000000000001323000000
#056321:16
#056361:0022000000000000
#056380:1622000000000000
#056320:0000162200000000
#056381:00160000
#0563c1:0000002200000000
#0573b1:00000000000000001300002300000000
#057371:0000000000000000000000000000000000000053000000000000000000000000
#057320:00000000000000000000001300002300
#057360:0000000000000000000000000000000000000000000000000053000000000000
#058320:13000023000000000000000000000000
#058360:0000005300000000000000000000000000000000000000000000000000000000
#0583b1:00000013000023000000000000000000
#058371:0000000000000000005300000000000000000000000000000000000000000000
#0583b1:00000000000000001300002300000000
#058371:0000000000000000000000000000000000000053000000000000000000000000
#058320:00000000000000000000001300002300
#058360:0000000000000000000000000000000000000000000000000053000000000000
#059320:00000000000000001300002300000000
#059360:0000000000000000000000000000000000000053000000000000000000000000
#0593b1:00000000000000000000001300002300
#059371:0000000000000000000000000000000000000000000000000053000000000000
#061321:0014
#061361:00000000000000000000002400000000
#0613a0:00000000000000000000001400000000
#061360:0000000000000024
