This file was generated by Ched 2.6.4.0.
#TITLE ""
#ARTIST ""
#DESIGNER ""
#DIFFICULTY 0
#PLAYLEVEL
#SONGID ""
#WAVE ""
#WAVEOFFSET 0
#JACKET ""
#REQUEST "ticks_per_beat 480"
#00002: 4
#BPM01: 153
#00008: 01
#TIL00: ""
#HISPEED 00
#MEASUREHS 00
#00018:1616
#00012:00160000
#0021a:1414
#00214:00140000
#00210:41
#0041a:1414
#00414:00140014
#00612:1414
#00618:00140000
#00812:1414
#00818:00140014
#0101a:1414
#01014:00140000
#01010:41
#0111a:1414
#01212:14
#01214:0014
#01218:00140000
#0131a:14
#01312:00140000
#01318:0014
#01314:00000014
#01618:14
#01614:0014
#02212:1414
#02218:00140000
#02312:1414
#0241a:14
#02418:0014
#02414:00140000
#02512:14
#02514:0014
#0251a:00140000
#02518:00000014
#02814:14
#02818:0014
#03614:1414
#03618:00140000
#03818:0014
#03814:00140000
#03812:00000014
#0381a:24
#0381f:21
#0391a:14
#03919:0014
#03913:0014
#03910:41
#0401a:14140000
#04014:00001414
#04214:0014
#04218:00140000
#0421a:00000014
#04212:14
#04312:14
#04313:0014
#04319:0014
#04412:14140000
#04418:00001414
#04512:14
#04516:00140000
#0451a:0014
#04812:1616
#04818:00160016
#04912:16
#04918:0016
#05312:0014
#0531a:14
#05316:00140000
#00518:14
#0051a:0000001400000000
#00519:00343400
#00914:14
#00912:0000001400000000
#00913:00343400
#05212:14140000
#05218:0014
#05214:00000014
#0611a:0014
#06112:14
#0141a:14
#01512:14
#02612:14
#02610:41
#0271a:14
#0551a:0014
#05512:14
#05516:00140000
#0541a:14140000
#05414:0014
#05418:00000014
#0181a:1414
#01814:00140000
#01810:41
#0201a:1414
#02014:00140014
#02118:14
#0211a:0000001400000000
#02119:00343400
#0571a:1414
#05714:00140000
#0591a:1414
#05914:00140014
#06018:14
#0601a:0000001400000000
#06019:00343400
#0301f:11
#0171a:24
#01714:00240000
#01718:0024
#01712:00000024
#04612:2626
#04618:00260000
#0561a:24242400
#05612:24242400
#05012:2626
#05018:00260000
#05010:41
#02912:24
#02918:00240000
#02914:0024
#03118:003636003636000000000000
#03312:003636003636000000000000
#03518:003636003636000000000000
#04952:16
#04958:0016
#00558:54
#0055a:0000002400000000
#00954:64
#00952:0000002400000000
#06152:14
#0615a:0014
#06254:0000001400000000
#00152:00000016
#0145a:64
#01552:54
#02652:54
#0275a:64
#0455a:0014
#02158:54
#0215a:0000002400000000
#03158:0016
#03352:0016
#03558:0016
#04158:001400
#06058:54
#0605a:0000002400000000
#0555a:0014
#05352:0014
#001320:1600003600002600
#0033a0:14
#003380:0024
#003341:14
#003321:0024
#005381:14000024
#005391:00343400
#0053a1:0000005400000000
#007321:14
#007341:0024
#007380:14
#0073a0:0024
#009340:14000024
#009330:00343400
#009320:0000005400000000
#0143a0:14
#014380:0024
#015320:14
#015340:0024
#0193a0:14
#019380:0024
#019341:14
#019321:0024
#021381:14000024
#021391:00343400
#0213a1:0000005400000000
#026321:14
#026341:0024
#0273a1:14
#027381:0024
#030381:163636260000000000000000
#030321:000000000000163636260000
#031381:163636003636260000000000
#031361:00360000
#032321:163636260000000000000000
#032381:000000000000163636260000
#033321:163636003636260000000000
#033341:00360000
#034381:163636260000000000000000
#034321:000000000000163636260000
#035381:163636003636260000000000
#035361:00360000
#037331:14000034000034000000000024000000
#037390:14000034000034000000000024000000
#0413a0:14
#041390:003400000000
#041380:002400
#047380:1626
#047360:00360000
#051380:1626
#051360:00360000
#0583a0:14
#058380:0024
#058341:14
#058321:0024
#060381:14000024
#060391:00343400
#0603a1:0000005400000000
#062341:14000034000024000000000000000000
