This file was generated by Ched 2.6.4.0.
#TITLE ""
#ARTIST ""
#DESIGNER ""
#DIFFICULTY 0
#PLAYLEVEL
#SONGID ""
#WAVE ""
#WAVEOFFSET 0
#JACKET ""
#REQUEST "ticks_per_beat 480"
#00002: 4
#BPM01: 150
#00008: 01
#TIL00: ""
#HISPEED 00
#MEASUREHS 00
#00118:14
#00214:14
#00318:14
#00414:14
#0051a:14
#00612:14
#0071a:14
#00812:14
#0091a:14
#00910:41
#01014:14
#0111a:14
#01214:14
#01318:14
#01412:14
#01518:14
#01612:14
#02918:14
#02914:0014
#03018:2616
#0301f:21
#03112:2616
#03110:41
#03218:16
#03212:0016
#03412:2616
#03518:2616
#03612:16
#03618:0016
#03818:2616
#03912:2616
#04018:16
#04012:0016
#04212:16
#04218:0016
#04210:41
#04712:00000016
#04718:00260000
#04812:00000016
#04818:00260000
#04918:00160016
#05118:00000016
#05112:00260000
#05110:00410000
#05218:00000016
#05212:00260000
#05312:00160016
#05512:00000016
#05518:00260000
#05612:00000016
#05618:00260000
#05718:00160016
#05912:00160000
#05918:00000016
#06318:00160000
#06312:00000016
#08818:00140000
#08012:00140000
#0811a:00140000
#08214:00140000
#08318:00140000
#07918:00140000
#07910:00410000
#07614:00140000
#0731a:00140000
#07012:00140000
#06814:00140000
#06918:00140000
#07118:00140000
#07212:00140000
#07414:00140000
#0751a:00140000
#07718:00140000
#07812:00140000
#08418:00140000
#08514:00140000
#08614:00140000
#08718:00140000
#0171f:11
#06418:00260000
#06410:00410000
#06512:00260000
#06618:00260000
#0173a0:1434
#0183a0:3424
#019320:1434
#020320:3424
#021380:1434
#022380:3424
#023340:1434
#024340:3424
#0253a0:1424
#026320:1424
#027380:1424
#028340:1424
#033380:1626
#037320:1626
#041380:1626
#043320:1626
#044380:1626
#045320:1636
#046320:00000026
#050380:00160026
#054320:00160026
#058380:00160026
#060320:00160026
#061380:00160026
#062320:00160026
#064380:00160026
#065320:00160026
#066380:00160000
#067380:00260000
#088320:00000016
#092320:56
#098320:24
