This file was generated by Ched 2.6.4.0.
#TITLE ""
#ARTIST ""
#DESIGNER ""
#DIFFICULTY 0
#PLAYLEVEL
#SONGID ""
#WAVE ""
#WAVEOFFSET 0
#JACKET ""
#REQUEST "ticks_per_beat 480"
#00002: 4
#BPM01: 150
#00008: 01
#TIL00: ""
#HISPEED 00
#MEASUREHS 00
#00519:0000000000130000
#00517:00000013
#00512:00130013
#00514:0000000000000013
#00516:1313
#0051b:0013
#0061b:0000001300000000
#00616:13
#00912:2300001300001300
#00917:0013000000000013
#0091b:13
#00916:00130000
#00910:41
#0101b:13001313
#01018:0013001300000000
#01015:00130000
#01016:0000000000000013
#01012:13
#01117:1313000000001313
#01112:1300131300000000
#0111b:00131300
#0121b:1300001300000000
#01215:0013000013000000
#01212:13130013
#01217:0000000000000013
#01218:00130000
#0251b:1300130000000023
#02518:0013000000000000
#02512:0023002300000013
#02515:23230000
#02618:13
#02612:0013
#0261b:00231300
#02615:0023000000000000
#02718:1323132300000000
#02715:2313230000000000
#08714:00130000
#08719:00000013
#0871b:13
#08814:1313000000130000
#08819:0013
#0291b:1313000000000000
#0291a:0000141400000000
#02919:0000000015151500
#02912:1313141415151500
#02415:00000013
#02418:0000000000000013
#00717:1313
#00714:0000000000130000
#00716:00000013
#0071b:00130013
#00719:0000000000000013
#00712:0013
#0011b:23001313
#00117:0000130000130000
#00112:00131313
#00116:2300000000000013
#00212:1313
#00216:00000013
#00217:0000001300000000
#0131b:2300001300001300
#01316:0013000000000013
#01312:13
#01317:00130000
#01412:13001313
#01415:0013001300000000
#01418:00130000
#0141b:13
#01516:1313000000001300
#0151b:1300131300000000
#01512:00131300
#01718:13000013
#01715:1300000000130013
#01712:00131300
#0171b:00131300
#0171f:11
#01816:0000001300000013
#01812:1313
#01817:00000013000000001300000000000000
#0181b:1300000000000013
#01916:13
#0191b:1313
#01912:00130013
#02115:13000013
#02118:1300000000130013
#0211b:00131300
#02112:00131300
#02217:0000001300000013
#02212:1300000000000013
#0221b:1313
#02216:00000013000000001300000000000000
#02317:13
#0231b:00130013
#02312:1313
#03114:0000000000000013
#03119:0000000000000013
#03116:00001313
#0311b:0000001313001300
#03117:23
#03110:41
#0321b:00131300
#03217:13000013
#03212:13
#03216:0013
#03314:0000001300000000
#03319:0000001300000000
#0331b:13
#03318:0013000013000000
#03312:13
#03315:0013000013000000
#03712:00132300
#03718:0000131300001300
#03715:2313000000130013
#0371b:2323
#03516:0000000000000013
#0351b:0000000013000013
#03512:23
#03917:00000013
#03914:0000000000000013
#03912:00000013
#03919:0000000000000013
#0391b:13
#03916:23
#04119:0000001300000000
#04114:0000001300000000
#04115:13
#04112:0013000013000000
#04118:13
#0411b:0013000013000000
#04116:0000000000000014
#04212:1400000000000013
#0421b:0000000000000013
#0421a:14
#04218:0014000000000000
#04214:0000001400000000
#04216:00140000
#04210:41
#04717:00000000000000130000000013000000
#04712:00000013
#04716:0000000000130000
#0471b:00130000
#04714:00240000
#03017:0013
#03012:0000001313000000
#0301b:00000013
#03019:0000000000000013
#03016:23000013
#03014:0000000000000013
#0301f:21
#04816:00001300000000130000000013000000
#0481b:0013000000001300
#04817:1300000000130000
#04812:13130000
#04818:00240000
#0491b:0013000013000000
#04912:13130013
#04917:13130013
#04916:0013000013000000
#05016:1300000000000013
#0501b:1300000013000013
#05012:00130013
#05017:00130013
#05019:0000000000130000
#05014:0000000000130000
#0511b:00000000000000130000000013000000
#05117:00130000
#05112:00240000
#05110:00410000
#05212:00001300000000130000000013000000
#05216:13130000
#05217:0013000000000000
#0521b:13
#0521a:00240000
#05712:0013000013000000
#0571b:13130013
#05716:13130013
#05717:0013000013000000
#05817:1300000000000013
#05812:1300000013000013
#0581b:00130013
#05816:00130013
#05814:0000000000130000
#05819:0000000000130000
#06312:1300001300000000
#0631a:00130000
#06317:0000001300000000
#06319:0013
#0631b:0000000000130000
#06315:00130000
#06314:0013
#06316:0000000000130000
#06216:13
#06212:0013000000000000
#06814:0013
#06812:00000013
#06912:13
#07612:0013
#07613:00000013
#07617:00000023
#08016:00131300
#0801b:0013
#08017:00000013
#08012:00000013
#0811b:1300000000130000
#08117:00130000
#08116:13
#08115:0013
#08312:00130013
#08317:0000130000000013
#0831b:0013
#08316:0013
#0851b:00130013
#08516:0000130000000013
#08512:1313
#08517:0013
#0661a:00141400
#06616:0000001400140000
#06612:0000140000140000
#0711b:1313
#07117:00130000
#07112:00130000
#07115:0000000000130000
#07217:0013000000000000
#07212:0013
#07214:00000013
#0721b:00000023
#0741b:1313
#07412:00130000
#07419:00000013
#07418:00130000
#07416:0000000000130000
#0751b:13000013
#07517:00130000
#07512:00240000
#07317:00000013
#0731b:00130000
#07316:13130000
#07312:0000000000130000
#05517:00000000000000130000000000000000
#0551b:00130000
#05518:0013000000000000
#05516:00240000
#05515:23
#0361b:0000130000130000
#03617:1313
#03616:0000000000130000
#03612:2323
#03812:13000013
#03819:0000000000000013
#03817:23000013
#03814:0000000000000013
#05616:00001300240000130000000000000000
#05612:13130000
#0561b:0013000000000000
#05617:13
#02013:0013000000000000
#02015:13131300
#02016:0013000000000000
#02018:13131300
#0201a:0000001300000000
#02017:0000001300000000
#02012:0000000000130000
#0201b:0000000000130000
#02818:13131313131313131313131300000000
#02819:0013000000130000001300000013000000130000001300000000000000000000
#02817:0000001300000013000000130000001300000013000000130000000000000000
#02815:13131313131313131313131300000000
#02816:0013000000130000001300000013000000130000001300000000000000000000
#02814:0000001300000013000000130000001300000013000000130000000000000000
#06717:12
#06715:00260000
#0671b:00000023
#08914:1800001800001800
#08917:00000012000000000012000000000012
#09014:0018000018000018
#09017:00000000001200000000001200000000
#09117:00120000000000120000000000120000
#09114:0000180000180000
#09215:1600001600000000
#09217:00000012000000000012000000000000
#09216:00000014
#07714:13
#00312:13001313
#00316:0000130000130000
#0031b:00131313
#00317:1300000000000013
#0041b:1313
#00417:00000013
#00416:0000001300000000
#00812:0000001300000000
#00817:13
#03412:0013
#03414:0000000000000013
#03416:00000013
#03419:0000000000000013
#0341b:23000013
#04012:00131300
#04016:13000013
#0401b:13
#04017:0013
#0431b:00000000000013000000001300001300
#04315:0000001300000013
#04312:00000013000000000000000000000000
#04316:2424
#05317:0013000000000013
#05312:0013000013000013
#05316:00130013
#0531b:00230023
#0541b:00001323
#05415:0000000013130000
#05418:0000231300000013
#05412:00230023
#0601b:0013000000130000
#06012:0013000000130000
#06017:00000000000000130000000000000000
#06016:00000000000000000000000000000013
#06018:00240000
#06014:00000024
#0611b:0013000000000013
#06112:0013000000000000
#06116:00240000
#05912:00140000
#05914:0000001400000000
#05918:0000000000140000
#0591a:00140000
#05916:0014000014000000
#08419:0013000000000000
#08414:13
#0841b:00000000000000130000000000000000
#08417:0000000000130000
#08614:0013000000000000
#08619:13
#08612:00000000000000130000000000000000
#08616:0000000000130000
#0791b:00130000
#07914:0000000013000033
#07917:00000013
#07916:00230000
#07910:00410000
#08216:00130000
#08212:0000000000130000
#0821b:00130000
#08218:0013
#0441b:0000000000000013
#04417:00000013
#04412:0000000000130000
#04416:24
#0451b:00000013
#06412:0024240000240000
#0641a:0024000000002400
#06416:00000000240000240000000024000024
#06410:00410000
#07017:00000023
#0651a:0024240000000000
#06516:00240000
#01618:24252600
#01613:00250000
#01614:24
#01612:0026
#01758:43
#01755:33
#02155:33
#02158:43
#04757:00000000000000230000000013000000
#04752:00000013
#0475b:00630000
#04754:18140000
#03057:0013
#03052:0013
#03056:13
#03156:0013
#0315b:0013
#03157:13
#0355b:0013
#03552:13
#03556:0013
#04856:00000000000000230000000013000000
#0485b:00000013
#04852:00530000
#04858:00140000
#04952:00530053
#04956:0063
#04957:00130000
#05056:6300000000000023
#05052:00530053
#05057:00130053
#0505b:0000000000000023
#0515b:00000000000000230000000013000000
#05157:33530000
#05152:33140013
#05252:00000000000000230000000013000000
#05256:00630000
#0525a:00140000
#0525b:00000013
#0575b:00630063
#05757:0053
#05756:00130000
#05857:5300000000000023
#0585b:00630063
#05852:0000000000000023
#05856:00130063
#0635a:00630000
#06357:0000002300000000
#06359:0063
#0635b:0000000000230000
#06355:00630000
#06352:0000002300000000
#06354:0063
#06356:0000000000230000
#06358:00000033
#06353:00000033
#0715b:6363
#07157:00530000
#07152:00530000
#07155:0000000000230000
#07257:0023000000000000
#0745b:6363
#07452:00530000
#07459:00000053
#07458:00530000
#07456:0000000000230000
#0755b:63000063
#07557:00530000
#07552:00140000
#07357:00000053
#0735b:00630000
#07356:00630000
#07352:0000000000230000
#08157:00530000
#08156:63
#0815b:0000000000230000
#08152:00130000
#08052:00000053
#08056:0063
#05557:00000000000000230000000000000000
#0555b:00630013
#05556:00140000
#05552:00000013
#0365b:0000630000230000
#03657:00005333
#03656:0000000000230000
#03652:53005333
#03852:53
#03857:13
#03856:0013
#0385b:0013
#0395b:63
#03956:13
#03957:0013
#03952:0013
#05656:00000000140000230000000000000000
#05652:00530013
#0565b:00000013
#00957:0023000000000000
#0095b:63
#00952:0000002300000000
#00956:00630000
#01356:0023000000000000
#01352:53
#0135b:0000002300000000
#01357:00530000
#0195b:6363
#01952:00530053
#02053:0023000000000000
#02055:63536300
#02056:0023000000000000
#02058:63536300
#0205a:0000002300000000
#02057:0000002300000000
#02052:0000000000230000
#0205b:0000000000230000
#02352:5353
#0235b:00630000
#02652:0053
#0265b:0063
#02858:53535353535353535353535300000000
#02859:0023000000230000002300000023000000230000002300000000000000000000
#02857:0000002300000023000000230000002300000023000000230000000000000000
#02855:53535353535353535353535300000000
#02856:0023000000230000002300000023000000230000002300000000000000000000
#02854:0000002300000023000000230000002300000023000000230000000000000000
#06656:0000000000640000
#06757:22
#06755:00160000
#08954:6800006800006800
#08957:00000022000000000022000000000022
#09054:0068000068000068
#09057:00000000002200000000002200000000
#09157:00220000000000220000000000220000
#09154:0000680000680000
#09255:6600006600000000
#09257:00000022000000000022000000000000
#09256:00000064
#03252:53
#03256:0063
#0335b:63000043
#03358:0023000023000000
#03352:53000033
#03355:0023000023000000
#03452:0013
#0345b:13
#03457:0013
#0405b:63
#04057:0053
#04155:63000013
#04152:0023000053000000
#04158:53000013
#0415b:0023000063000000
#04252:14
#0595a:00140000
#0595b:43
#05956:43
#0795b:00630000
#07957:00000023
#07956:00130000
#08256:00630000
#08252:0000000000230000
#0185b:63
#01857:00000023000000000000000000000000
#02252:53
#02256:00000023000000000000000000000000
#05352:0000000053000023
#05356:00000063
#05357:0000000000000023
#0535b:00630063
#06452:00140000
#0645a:00000014
#07057:00000053
#06058:00140000
#06054:00000014
#06156:00140000
#04456:14
#01658:1446
#01653:00150000
#01652:0036
#04356:1414
#06556:00140000
#02452:0013
#0245b:0013
#05456:43
#0545b:43
#0023b0:13
#002380:00000023000000000000000000000000
#002351:00000013000000000000000000000000
#002321:0000002300000000
#002371:0013
#0023b1:00000023
#004321:13
#004351:00000023000000000000000000000000
#004380:00000013000000000000000000000000
#0043b0:0000002300000000
#004360:0013
#004320:00000023
#0053b0:13
#005370:00230000
#0063b0:13
#006370:00000023000000000000000000000000
#006321:00000013000000000000000000000000
#006361:0000002300000000
#006361:0013
#006321:00000023
#0063b0:0013
#006370:00000023
#007320:13
#007360:00230000
#008320:13
#008360:00000023000000000000000000000000
#0083b1:00000013000000000000000000000000
#008371:0000002300000000
#008371:0013
#0083b1:00000023
#008320:0013
#008360:00000023
#0093b0:13230000
#009370:0053000000000000
#009361:00132300
#009321:0000005300000000
#0093b0:0013
#009370:00000023
#010320:0013
#010360:00000023
#011360:0013
#011320:00000023
#0123b0:0013
#012370:00000023
#013320:13230000
#013360:0053000000000000
#013371:00132300
#0133b1:0000005300000000
#013320:0013
#013360:00000023
#0143b0:0013
#014370:00000023
#015370:0013
#0153b0:00000023
#0183b0:1300002300000000
#018370:00000053000000000000000000000000
#0193b0:13
#019370:00230000
#019321:00130000
#019361:0023
#0193b0:0013
#020380:33333323
#020360:0053000000000000
#0203a0:0000003300000000
#0203b0:0000000000530000
#019321:00000013
#020351:33333323
#020331:0053000000000000
#020371:0000003300000000
#020321:0000000000530000
#022321:1300002300000000
#022361:00000053000000000000000000000000
#023321:13
#023361:00230000
#0233b0:00130000
#023370:0023
#023321:0013
#023361:00000023
#024321:1323
#024351:00330000
#0243b0:1323
#024380:00330000
#025380:0000001300000000
#0253b0:0000000000230000
#025321:0000001300000000
#025351:0000000000230000
#0263b1:00135300
#026381:00000023
#026320:00135300
#026350:00000023
#027380:0000001300003300
#0273b0:0000000000330033
#028380:33535353535353535353535323000000
#028390:0053000000530000005300000053000000530000005300000000000000000000
#028370:0000005300000053000000530000005300000053000000530000000000000000
#027351:0000001300003300
#027321:0000000000330033
#028351:33535353535353535353535323000000
#028361:0053000000530000005300000053000000530000005300000000000000000000
#028341:0000005300000053000000530000005300000053000000530000000000000000
#0303b1:13
#030371:0000002300000000
#031321:13
#031361:0000002300000000
#032321:13
#032361:00230000
#032361:0013
#032321:00000023
#0333b1:13230000
#033381:0053000000000000
#033320:13230000
#033350:0053000000000000
#033350:0013
#033320:00000023
#033381:0013
#0333b1:00000023
#034361:13
#034321:0000002300000000
#034370:0000001323000000
#035370:13
#0353b0:0000002300000000
#035361:0000001323000000
#036321:13
#036361:00230000
#0363b0:0000130000530000
#036370:00003323
#036321:00001323
#036361:0000000000530000
#038321:13
#038361:0000003323000000
#0383b0:0000001323000000
#0393b0:13
#039370:0000003323000000
#039321:0000001323000000
#0403b1:13
#040371:00230000
#040371:0013
#0403b1:00000023
#041351:13230000
#041321:0053000000000000
#041380:13230000
#0413b0:0053000000000000
#0413b0:0013
#041380:00000023
#041321:0013
#041351:00000023
#042321:0014
#042361:00000024
#0433b1:13
#043381:00000023000000000000000000000000
#043321:0013
#043351:00000000000000000000002300000000
#0443b1:13
#044371:0000000000230000
#044321:0000000000000013
#045361:00000023
#045371:0000000000000012
#047341:28
#0473b1:0000130000230000
#047371:00000000000000530000000000000000
#048321:0000130000230000
#048361:00000000000000530000000000000000
#049321:00130033
#049361:0033
#050361:3323
#050321:00330000
#050321:00000013
#050361:0000000000000053
#051321:23
#050370:00000013
#0503b0:0000000000000053
#051370:23
#051370:0000130000230000
#0513b0:00000000000000530000000000000000
#051321:0000000000132300
#052361:0000130000230000
#052321:00000000000000530000000000000000
#0523b0:0000000000132300
#0533b0:00130000
#053370:0023
#053321:0000000013000053
#053361:00000033
#054361:23
#0533b0:00000013
#053370:0000000000000053
#0543b0:23
#0553b0:0000130000332300
#055370:00000000000000530000000000000000
#055321:0000000000132300
#056321:0000130000332300
#056361:00000000000000530000000000000000
#0563b0:0000000000132300
#0573b0:00130033
#057370:0033
#058370:3323
#0583b0:00330000
#0583b0:00000013
#058370:0000000000000053
#0593b0:23
#058361:00000013
#058321:0000000000000053
#059361:23
#0593a1:00000014
#060361:24
#060351:00130000
#060321:00000000000000230000000000000000
#060381:00000013
#0603b1:00000000000000000000000000000023
#061321:00130000
#061361:0000000000000023
#0623b1:0013000000000000
#063371:23
#0633a1:00130000
#063371:0000005300000000
#063391:0033
#0633b1:0000000000530000
#063381:00000023
#063350:00130000
#063320:0000005300000000
#063340:0033
#063360:0000000000530000
#063330:00000023
#064360:0000140000240000
#0643a0:00000000000000340000000000000000
#064360:00000014
#064320:00000000000000000000000000000034
#065360:0024000000000000
#0653a0:00140000
#066360:24
#066360:0000000000140000
#067370:52
#067350:00260000
#067321:00130000
#068351:00230000
#0673b0:00000013
#068370:0000000000003333
#069370:3333330000000000
#0703b0:00230000
#069321:00130000
#070351:23
#070361:00130000
#071321:23
#070370:00000013
#0713b0:3333
#071370:00330000
#072370:0053000000000000
#0723b0:0023
#071321:00130000
#071351:0000000000530000
#072321:00230000
#0723b0:0000000000001333
#0733b0:3333330000000000
#073370:00000033
#0743b0:3333
#074380:00330000
#074390:00000033
#0753b0:33000033
#075370:00330000
#076370:0023
#073361:00130000
#073321:0000000000530000
#074361:23
#074321:00130000
#074361:0000000000530000
#075321:23
#075361:0013
#076321:00230000
#076370:00000013
#0793b0:23
#077321:00130000
#078361:23
#078361:00130000
#079321:23
#0793b1:00130000
#079371:00000053
#0803b1:00230000
#079320:00000013
#079340:0000000000000033
#080350:23
#080361:0013
#080321:00000033
#081361:33
#081321:00230000
#081370:00130000
#0813b0:0000000000530000
#082370:23
#081321:00000013
#081351:0000000000000033
#082321:23
#082361:00130000
#082321:0000000000530000
#083361:23
#0823b0:00000013
#082380:0000000000000033
#0833b0:23
#084360:00130000
#084320:0000000000230000
#084370:00000013
#085370:23
#086370:00130000
#0863b0:0000000000230000
#086360:00000013
#087360:23
#087390:00132300
#087341:000000000000000000000000000000000000000000000000000000000000000000000000000000000000000000000000130000000000000000000053005300000000000000000000230000000000000000000000000000000000000000000000
#087321:0000000000530000
#087391:000000000000000000000000000000000000000000000000000000000000000000000000000000000000130000000053
#087371:000000000000000000000000000000000000000000000000000000000000000000000000000000000000000000000000000000000000000000000000000000000000000000000000000000000000000000000000000000000000000000000053
#0883a1:53
#088381:005300000000000000000000000000000000000000000000000000000000000000000000000000000000000000000000000000000000000000000000000000000000000000000000000000000000000000000000000000000000000000000000
#088391:005300000000230000000000000000000000000000000000000000000000000000000000000000000000000000000000
#088341:000000000000000000000000000000000000000000000000130053000053000000530053000053000053000053005300230000000000000000000000000000000000000000000000000000000000000000000000000000000000000000000000
#088351:000000000000000000000000000000000000000000000000005300530000530053000000530000005300005300000053000000000000000000000000000000000000000000000000000000000000000000000000000000000000000000000000
#088331:000000000000000000000000000000000000000000000000000000005300005300000000005300530000530000000000000000000000000000000000000000000000000000000000000000000000000000000000000000000000000000000000
#088361:000000000000000000000000000000000000000000000000000000000000000000005300000000000000000000530000000000000000000000000000000000000000000000000000000000000000000000000000000000000000000000000000
#088341:000000000000000000000000000000000000000000000000000000000000000000000000000000000000000000000000000000000000000000000000000000000000000000000000180000580000005800005800000000580000580000580000
#088331:000000000000000000000000000000000000000000000000000000000000000000000000000000000000000000000000000000000000000000000000000000000000000000000000005800000058000000000058005800000058000000000058
#088351:000000000000000000000000000000000000000000000000000000000000000000000000005800005800580058005800
#088361:000000000000000000000000000000000000000000000000000000000000000000000000000058580000005800000058
#088321:000000000000000000000000000000000000000000000000000000000000000000000000000000000000000000000000000000000000000000000000000000000000000000000000000000000000000000580000000000000000005800000000
#089341:5800005800005800
#089371:00000052000000000052000000000052
#090341:0058000058000058
#090371:00000000005200000000005200000000
#091371:00520000000000520000000000520000
#091341:0000580000580000
#092351:5600005600000000
#092371:00000052000000000052000000000000
#092361:00000054
#093371:00000052
#098371:22
