This file was generated by Ched 2.6.4.0.
#TITLE ""
#ARTIST ""
#DESIGNER ""
#DIFFICULTY 0
#PLAYLEVEL
#SONGID ""
#WAVE ""
#WAVEOFFSET 0
#JACKET ""
#REQUEST "ticks_per_beat 480"
#00002: 4
#BPM01: 150
#00008: 01
#TIL00: ""
#HISPEED 00
#MEASUREHS 00
#00512:0000130000130000
#00518:00131300
#0051b:13000013
#00515:1300000000000013
#01215:0000001300000013
#01218:13130000
#01212:0013000000000000
#0121b:0013
#02618:13
#02615:0023000000000000
#08812:0000000000160000
#08818:12
#08816:0012000000000000
#0011b:0013
#00115:0000000000130000
#00118:23130013
#00112:2300130000000013
#0171b:00000013
#01715:1300000000000013
#01712:0000000000130000
#0171f:11
#01812:0013
#01818:0000000000000013
#0181b:13
#03115:0000000000000013
#03118:00000013
#03112:0014
#0311a:24
#03110:41
#03012:0014
#03018:00000013
#03015:0000000000000013
#0301a:24
#0301f:21
#0661a:00140000
#06614:0000001400000000
#06618:0014
#06612:0000000000140000
#08217:00130000
#0821b:0000000000130000
#08212:00130000
#08216:0000000000130000
#08017:00000013
#0801b:0013
#08012:00000013
#08016:0013
#06712:12260000
#06718:0013
#06715:0000000000130000
#0671b:00000023
#08914:18
#08913:0000001a00001a00
#08916:00000014000000000014000000000014
#00315:13130013
#0031b:1300130000000013
#00312:0013
#00318:0000000000130000
#0531b:0013230000000000
#05315:0013130000000000
#05318:00000013
#05312:00000023
#08415:0013000000000000
#08412:13
#08318:0000000000000013
#0831b:00130013
#08316:00130000
#08317:0013
#08312:0013
#0811b:00130000
#08117:0000000000130000
#08116:00130000
#08112:0000000000130000
#0071b:0000130000130000
#00715:00131300
#00712:13000013
#00718:1300000000000013
#00912:13
#00915:0000130000000013
#0091b:00000013
#00910:41
#01018:1313
#01015:0013000000000013
#0101b:00130000
#01012:0000001300000000
#01115:0000001300000013
#0111b:13
#01112:0013000000000000
#01118:00130000
#0131b:13
#01318:0000130000000013
#01312:00000013
#01415:1313
#01418:0013000000000000
#01412:00130000
#0141b:0000001300000000
#0151b:13
#01515:0013000000000000
#01512:0000001300000000
#01518:00130000
#01918:0013
#01915:13
#02012:1300001300000000
#0201b:1300001300000000
#02018:00130000
#02015:00130000
#02112:00000013
#02118:1300000000000013
#0211b:0000000000130000
#0221b:0013
#02215:0000000000000013
#02212:13
#02315:0013
#02318:13
#02418:13
#0241b:00130000
#02412:13
#02415:00130000
#02515:0013000000000023
#02518:23230000
#02715:1300130000130000
#02718:0023000000130000
#0271b:0000001300000013
#02712:0000002300000013
#02714:00000033
#02719:00000033
#02912:13
#0291b:13
#02915:00130000
#02914:00001414
#02918:0000001300140000
#0341a:0014
#03415:00000013
#03418:0000000000000013
#03412:24
#0351a:0014
#03512:2400000000000013
#03518:0000000000000013
#03814:0014
#03818:00000013
#03815:0000000000000013
#03817:00000014000000000000000000000000
#0381a:24
#0471a:00000000000000140000000000000000
#04712:00000014
#04717:00240000
#04819:13
#04814:0013000000000000
#0481a:00000000000000140000000000000000
#04812:00000014
#04817:00240000
#04918:1313
#04915:0013000000000000
#0491b:00130000
#0491a:00000013
#05012:0000000000131300
#05017:13
#0501b:00130013
#05112:00000000000000140000000000000000
#0511a:00000014
#05115:00240000
#05110:00410000
#05214:13
#05219:0013000000000000
#05212:00000000000000140000000000000000
#0521a:00000014
#05215:00240000
#03315:0000001300000000
#03318:0013
#0331b:13
#0321b:13
#03212:0013
#04312:0000000000000014
#04314:00000014000000002400000000000000
#0431a:0000001400000000
#04318:24000000000000000000001400000000
#04415:00000013
#04418:24
#03918:0000000014000013
#03915:00000014000000000000000013000000
#03912:24
#0361b:0013
#03612:13
#03615:0023
#03618:23
#04218:13131300
#04215:0013001300000000
#04212:0000000000000014
#04210:41
#0411b:0000000000000013
#04112:13
#04115:0013
#04115:0013
#04118:0000001300000000
#04118:0000001300000000
#04012:13
#0401b:0013
#03715:00132300
#03718:0000001300000000
#03712:23000013
#0371b:23000013
#05418:00001323
#05415:0000000000130000
#05412:00230000
#0541b:00230000
#05715:1313
#05718:0013000000000000
#05712:00130000
#05713:00000013
#0581b:0000000000131300
#05816:13
#05812:00130013
#05512:23000014
#05516:00000000000000140000000000000000
#0551a:00240000
#0551b:23
#0561a:14000014
#05616:00001400000000140000000000000000
#05612:00240000
#06217:13
#0611a:0014000000000000
#06114:00240000
#06018:00000000000000140000000024000000
#06012:0000000000140000
#06014:00000000240000000000000000000014
#0601a:0014000000000000
#05915:00131313
#05912:0013000000000000
#05918:0000001300130000
#06318:00130000
#0631b:0013
#06315:00130000
#06312:0013
#06817:0013000000000000
#06815:00000023
#0681b:0000000000000023
#06916:0000000000000013
#06912:23230000
#06918:0023000000000000
#07117:00130000
#0711b:0013
#07217:1300000000000023
#07212:00000023
#07517:13000013
#0751a:00130000
#0741b:00130013
#07418:0013
#0761b:0013000000000000
#07616:00000023
#07917:00130000
#07912:00130000
#07910:00410000
#08618:0013000000000000
#0861b:13
#08515:0000000000000013
#08512:00130013
#08517:00130000
#08516:0013
#0851b:0013
#0871b:00000013
#08712:0000000000000013
#09013:001a00001a000000
#09016:00000000001400000000001400000000
#09014:0000000000000018
#09116:00140000000000140000000000140000
#09114:0000180000180000
#09215:1600001600001600
#09216:00000014000000000014000000000000
#06418:0024000000002400
#06414:0000240000240000
#0641a:00000000000000240000000000000000
#06412:00000000000000000000000000000024
#06410:00410000
#0651a:0024000000000000
#06512:00240000
#0161a:24242400
#01612:24242400
#0701b:00000023
#07314:23
#07319:0023000000000000
#07316:00230000
#07318:00000023
#03052:0014
#08257:00530000
#0825b:0000000000230000
#08252:00530000
#08256:0000000000230000
#08057:00000053
#0805b:0063
#08052:00000053
#08056:0063
#06652:0000000000640000
#06752:22160000
#0675b:00000063
#08954:68
#08953:0000006a00006a00
#08956:00000024000000000024000000000024
#05355:00630000
#05352:00000053
#05358:00000053
#0535b:00630000
#0815b:00630000
#08157:0000000000230000
#08156:00630000
#08152:0000000000230000
#0185b:63
#00952:53
#00955:00630000
#0135b:63
#01358:00530000
#01958:0053
#01955:63
#02052:5300002300000000
#0205b:6300002300000000
#02058:00530000
#02055:00630000
#02252:53
#02355:0063
#02358:53
#02458:5313
#0245b:00630000
#02452:5313
#02455:00630000
#02752:0000005300000053
#02755:0000000000230000
#02758:0000000000230000
#0275b:0000006300000063
#03152:0014
#0345a:0014
#0355a:0014
#03854:0014
#03857:00000024000000000000000000000000
#0385a:64
#0475a:00000000000000240000000000000000
#04752:16000014
#04757:00540000
#0485a:00000000000000240000000000000000
#04852:00000014
#04857:00540000
#0495b:00630000
#04958:0053
#0495a:00000063
#05057:53
#0505b:00630000
#05152:00000000000000240000000000000000
#0515a:00000014
#05155:00640000
#05252:00000000000000240000000000000000
#0525a:00000014
#05255:00640000
#0325b:63
#03252:0053
#0335b:63
#03958:0014
#03955:00000024000000000000000000000000
#03952:54
#03655:0063
#0365b:0063
#03652:53
#03658:53
#04258:0053
#04152:53
#04052:53
#0405b:0063
#05752:00530000
#05755:0063
#05753:00000053
#05856:63
#05852:00530000
#05552:00000014
#05556:00000000000000240000000000000000
#0555a:00640000
#0565a:00000014
#05656:00000000000000240000000000000000
#05652:00540000
#05955:00000063
#06358:00530000
#0635b:0063
#06355:00630000
#06352:0053
#06952:00530000
#06956:0000000000000023
#06857:0023000000000000
#07157:00530000
#0715b:0063
#07257:23
#0705b:00000063
#07358:00000053
#07557:53000053
#0755a:00630000
#0745b:00630063
#07458:0053
#0765b:0023000000000000
#07957:00530000
#07952:00530000
#09053:006a00006a000000
#09056:00000000002400000000002400000000
#09054:0000000000000068
#09156:00240000000000240000000000240000
#09154:0000680000680000
#09255:6600006600006600
#09256:00000024000000000024000000000000
#06154:00640000
#04458:54
#0023b0:1300002300000000
#002380:00000033000000000000000000000000
#002320:0013
#002350:00000023
#004320:1300002300000000
#004350:00000033000000000000000000000000
#0043b0:0013
#004380:00000023
#006380:1300002300000000
#0063b0:00000033000000000000000000000000
#006350:0013
#006320:00000023
#008350:1300002300000000
#008320:00000033000000000000000000000000
#008380:0013
#0083b0:00000023
#009320:1323
#009350:00330000
#011380:0013
#0113b0:00000023
#0133b0:1323
#013380:00330000
#0153b0:0013
#015380:00000023
#017380:1323
#0183b0:13
#018370:0000002300000000
#019350:13
#019320:00230000
#019380:0013
#0193b0:00000023
#020320:1300003300000000
#020350:00332300
#0203b1:1300003300000000
#020381:00332300
#021351:1323
#022321:13
#022361:0000002300000000
#023381:13
#0233b1:00230000
#023351:0013
#023321:00000023
#024381:1323
#0243b1:00330000
#024320:1323
#024350:00330000
#025350:0000001300000000
#025320:0000000000230000
#026380:00130000
#0263b0:0023
#027320:0000001300000033
#027350:0000000000330000
#027340:00000033
#028350:00000023
#0273b1:0000001300000033
#027381:0000000000330000
#027391:00000033
#028381:00000023
#0303a1:14
#030361:0000002400000000
#0313a1:14
#031361:0000002400000000
#0323b1:13
#032381:00230000
#032321:0013
#032351:00000023
#0333b1:13
#033381:00230000
#034321:14
#034361:0000002400000000
#035321:14
#035361:0000002400000000
#036321:13
#036351:00230000
#036380:13
#0363b0:00230000
#0363b0:0013
#036380:00000023
#036351:0013
#036321:00000023
#0383a1:1400002400000000
#038371:00000054000000000000000000000000
#039321:1400002400000000
#039351:00000054000000000000000000000000
#040321:13
#040351:00230000
#0403b1:0013
#040381:00000023
#041321:13
#041351:00230000
#042381:0013
#0423b1:00000023
#044381:14
#0443b1:0000000000230000
#0443b1:0000000000000013
#045381:00000023
#045351:0000000000000013
#047321:26
#047371:0000140000240000
#0473a1:00000000000000540000000000000000
#048371:0000140000240000
#0483a1:00000000000000540000000000000000
#0493b1:00130000
#049381:0033
#0493a1:00000033
#050371:3323
#0503b1:00330000
#051351:0000140000240000
#051321:00000000000000540000000000000000
#052351:0000140000240000
#052321:00000000000000540000000000000000
#053351:00130000
#053321:0023
#0533b0:00130000
#053380:0023
#053380:00000013
#0543b0:23
#053321:00000013
#054351:23
#0553a1:0000140000240000
#055361:00000000000000540000000000000000
#056321:0000140000240000
#056361:00000000000000540000000000000000
#057321:00130000
#057351:0033
#057331:00000033
#058361:3323
#058321:00330000
#059351:00000013
#060321:23
#061341:00140000
#061321:0000000000000023
#062321:0013000000000000
#063361:23
#063381:00130023
#0633b1:0033
#063350:00130023
#063320:0033
#065320:00140000
#066360:24
#066320:0000000000140000
#067320:52260000
#0673b0:00000013
#068370:0053000000000000
#0683b0:0023
#069320:00130000
#069360:0000000000000053
#070320:0023
#0703b0:00000013
#071370:33330000
#0713b0:0033
#072370:53
#0723b0:0023
#073360:00132300
#073380:00000013
#0743b0:33330033
#074380:0033
#075370:33000033
#0753a0:00330000
#0763b0:0053000000000000
#076370:0023
#076360:00000013
#079320:23
#0763b1:00000013
#079371:23
#079371:00130000
#0803b1:00230000
#079320:00130000
#080360:00230000
#0803b0:0013
#080370:00000033
#0813b0:23
#080361:0013
#080321:00000033
#081361:23
#0813b1:00130000
#081371:0000000000530000
#0823b1:23
#081360:00130000
#081320:0000000000530000
#082360:23
#082370:00130000
#0823b0:0000000000530000
#083370:23
#082321:00130000
#082361:0000000000530000
#083321:23
#084381:0000130000230000
#0843b1:00000000000000330000000000000000
#084351:00000013
#085351:23
#086351:0000130000230000
#086321:00000000000000330000000000000000
#086381:00000013
#087381:23
#087341:00132300
#088381:000000000000140054565556260000000000000000000000
#088371:000000000000000000000000005400540000000000000000000000000000000000000000000000000000000000000000
#088391:000000000000005400000000000000000000000000000000
#088361:000000000000000000000000000000000055000000550057000000000000000000000000000000000000000000000000
#088351:000000000000000000000000000000000000005600000000000000000000000000000000000000000000000000000000
#088341:00000018
#088331:000000000000000000000000000000000000000000000000000000000000000000000000005800000000000000000058
#088351:000000000000000000000000000000000000005800000058
#088321:000000000000000000000000000000000000000000000000000000000000000000000000000000580058005800580000
#088361:000000000000000000000000000000000000000058585800
#089341:58
#089361:00000054000000000054000000000054
#089331:0000005a00005a00
#090331:005a00005a000000
#090361:00000000005400000000005400000000
#090341:0000000000000058
#091361:00540000000000540000000000540000
#091341:0000580000580000
#092351:5600005600005600
#092361:00000054000000000054000000000054
#098371:22
