This file was generated by Ched 2.6.4.0.
#TITLE ""
#ARTIST ""
#DESIGNER ""
#DIFFICULTY 0
#PLAYLEVEL
#SONGID ""
#WAVE ""
#WAVEOFFSET 0
#JACKET ""
#REQUEST "ticks_per_beat 480"
#00002: 4
#BPM01: 150
#00008: 01
#TIL00: ""
#HISPEED 00
#MEASUREHS 00
#00914:0000000000000013
#0091b:2313000000130000
#00917:0000131313000000
#00912:00131313
#00916:23
#00910:41
#0101b:13000013
#01016:1313000000130000
#01012:0000131313000000
#01017:0000130013000013
#01117:0013000000000013
#01112:13130013
#01114:0013000000000000
#01119:0000001300000000
#0111b:1313
#01116:0000001300000000
#01217:1300000000000013
#01212:1313
#01214:0013001300000000
#0121b:00130013
#01218:0013
#01216:0000130000130000
#0251a:13131300
#02516:0013001300000000
#02512:0000000000000013
#02517:23231300
#02513:0023002300000000
#0251b:0000000000000023
#0261a:13
#02614:0013000000000000
#02615:00231300
#02618:0013
#02613:23
#02619:0023000000000000
#02419:00000013
#02414:0000000000000013
#0241b:0013000000000000
#0071b:1300001300000000
#00712:0013000013000000
#00716:1300000000130000
#00714:00000013
#00719:00000013
#00718:0000130000000013
#0011b:13001313
#00112:2300001300130013
#00116:00130013
#00117:0013000000000000
#00212:0000001300001300
#00216:1313
#00214:00000013000000000000000000000000
#0021b:13
#00219:00130000
#00217:0000001300000000
#0031b:1300001300130013
#00312:13001313
#00317:00130013
#00316:0013000000000000
#01719:13
#01716:1300000000000013
#01712:0013000000000000
#01718:00130000
#0171b:0000001300130013
#01717:00000013
#0171f:11
#01816:13000013000013000000000000001300
#0181b:1300000000001313
#01817:0013
#01812:0013
#01819:00000000000000130000000000000000
#03012:23000013
#03019:0000000000000013
#03017:00000013
#0301b:13
#0301f:21
#03112:1300000000000013
#03117:0000000000000013
#03116:00000013
#0311b:23000013
#03110:41
#0321b:13131300
#03216:13130000
#03212:0013000013001300
#03217:000000000000000000000000000000000000000000000000000000000000000000000000000000000000000000000000000000000000000000000000000000000000000000000000000000000000000000000000000000000000000000000000000000000000000000000000000000000000000000000000000000000000000000000000000000000000000000000000000000000000000000000000000000000000000000000000000000000000000000000000000000000000000000000000000000000000000000000000000000000000000000000000000000000000000000000000000000000000000000000000000000000000000000000000000000000000000000000000000000000000000000000000000000000000000000000000000000000000000000000000000000000000000000000000000000000000000000000000000000000000000000000000000000000000000000000000000000000000000000000000000000000000000000000000000000000000000000000000000000000000000000000000000000000000000000000000000000000000000000000000000000000000000000000000000000000000000000000000000000000000000000000000000000000000000000000000000000000000000000000000000000000000000000000000000000000000000000000000000000000000000000000000000000000000000000000000000000000000000000000000000000000000000000000000000000000000000000000000000000000000000000000000000000000000000000000000000000000000000000000000000000000000000000000000000000000000000000000000000000000000000000000000000000000000000000000000000000000000000000000000000000000000000000000000000000000000000000000000000000000000000000000000000000000000000000000000000000000000000000000000130000000000000000000000000000000000000000000000000000000000000000000000000000000000000000000000000000000000000000000000000000000000000000000000000000000000000000000000000000000000000000000000000000000000000000000000000000000000000000000000000000000000000000000000000000000000000000000000000000000000000000000000000000000000000000000000000000000000000000000000000000000000000000000000000000000000000000000000000000000000000000000000000000000000000000000000000000000000000000000000000000000000000000000000000000000000000000000000000000000000000000000000000000000000000000000000000000000000000000000000000000000000000000000000000000000000000000000000000000000000000000000000000000000000000000000000000000000000000000000000000000000000000000000000000000000000000000000000000000000000000000000000000000000000000000000000000000000000000000000000000000000000000000000000000000000000000000000000000000000000000000000000000000000000000000000000000000000000000000000000131300000000000000000000000000000000000000000000000000000000000000000000000000000000000000000000000000000000000000000000000000000000000000000000000000000000000000000000000000000000000000000000000000000000000000000000000000000000000000000000000000000000000000000000000000000000000000000000000000000000000000000000000000000000000000000000000000000000000000000000000000000000000000000000000000000000000000000000000000000000000000000000000000000000000000000000000000000000000000000000000000000000000000000000000000000000000000000000000000000000000000000000000000000000000000000000000000000000000000000000000000000000000000000000000000000000000000000000000000000000000000000000000000000000000000000000000000000000000000000000000000000000000000000000000000000000000000000000000000000000000000000000000000000000000000000000000000000000000000000000000000000000000000000000000000000000000000000000000000000000000000000000000000000000000000000000000000000000000000000000000000000000000000000000000000000000000000000000000000000000000000000000000000000000000000000000000000000000000000000000000000000000000000000000000000000000000000000000000000000000000000000000000000000000000000000000000000000000000000000000000000000000000000000000000000000000000000000000000000000000000000000000000000000000000000000000000000000000000000000000000000000000000000000000000000000000000000000000000000000000000000000000000000000000000000000000000000000000000000000000
#03314:0000001300000000
#03319:0000001300000000
#0331b:00000013000000001300000000001300
#03312:0000130000000013
#03316:0013000013000000
#03317:00130000
#03712:23000013
#03717:00000013
#03719:0000000000130013
#03714:0000000000130013
#0371b:0023
#03412:23000013
#03414:0000000000000013
#03417:13
#0341b:00000013
#03812:00000013
#03816:2300000000000013
#0381b:13000013
#04112:00000013000000001300000000001300
#0411b:0000130000000013
#04119:0000001300000000
#04114:0000001300000000
#04117:0013000013000000
#04116:00130000
#04219:0013001300000000
#04215:0000000000000016
#0421b:13000013
#04216:1300000000130000
#04212:00130013
#04217:00130000
#04214:0033003300000000
#04210:41
#0431b:0000001300000000000000001300000000000013000000000000000013000000
#04317:1313
#04315:00000013000000000000001300000000
#04312:2300000000000000001300000000000023000000000000000013000000000000
#0441b:0000001300001300
#04414:00000013000000000000000000001300
#04415:0000001313000000
#04417:0000130000130000
#04419:0000000000000013
#04412:2300000000130000
#0561b:1300230000130013
#05616:0000130000130013
#05612:0000001300000000
#05618:0013
#0591b:0013000013000000
#05912:0013130000000000
#05914:0000001300130000
#05917:0000130000000013
#05916:0013
#05919:0000003300330000
#06815:0013
#06812:13000000130000130000000013000000
#06817:0013000000130000
#06816:0000000000000013
#0681b:00000023
#0681a:0000000000000023
#06912:13130000
#06915:00000000000000130000000000000000
#06916:00000013
#06914:0000000000000013
#0691b:0000000000130000
#06919:23
#06918:0023000000000000
#06917:00230000
#0831b:0013000000001300
#08312:1300000000000013
#08316:0013000000000000
#0841b:13130000
#08412:0013000000000013
#08417:00000000000000130000000000000000
#08416:13130013
#0851b:1300130000000013
#08512:00000013
#06612:001c0000
#06615:0000000000160000
#06613:0000001a00000000
#06614:0018
#07416:13
#07415:0013
#07412:00000013
#07413:00130000
#0741b:13000000130000130000000013000000
#07418:0000000013130000
#07419:0000000000000013
#07514:13
#07512:00130000
#07516:00000013
#07517:13
#07518:00000000260000130000000000000000
#0751b:00000013
#07519:0000000000000013
#06717:1200000000130000
#0671b:00000000000000131300000023000000
#06715:0000000000000013
#06712:00000013
#06713:002a0000
#0041b:0000001300001300
#00417:1313
#00419:00000013000000000000000000000000
#00412:13
#00414:00130000
#00416:0000001300000000
#0051b:0013000013000000
#00517:1300000000130000
#00519:00000013
#00514:00000013
#00515:0000130000000013
#00512:1300001300000000
#00616:0000001300001300
#00612:13000013000000001300000000000000
#00617:13130000
#0061b:0000001300000000
#00817:0000001300001300
#0081b:13000013000000001300000000000000
#00816:13130000
#00812:000000000000000000130000000000000033000000000000
#00813:000033
#00814:0000000000330000
#01319:0000000000000013
#01312:2313000000130000
#01316:0000131313000000
#0131b:00131313
#01317:23
#01412:13000013
#01417:1313000000130000
#0141b:0000131313000000
#01416:0000130013000013
#0151b:13130013
#01519:0013000000000000
#01514:0000001300000000
#01512:1313
#01516:0013000000000000
#01517:0000001300000000
#01912:1300000000130000
#01916:0013000000000000
#01917:0000001300000000
#0191b:0000000000000013
#0201b:13131300
#02017:0013000000000000
#02015:0000001300000000
#02012:0013130013000000
#02018:0000001300000000
#02114:13
#02117:1300000000000013
#0211b:0013000000000000
#02115:00130000
#02112:0000001300130013
#02116:00000013
#02217:13000013000013000000000000001300
#02216:0013
#02212:1300000000001313
#0221b:0013
#02214:00000000000000130000000000000000
#0231b:1300000000130000
#02317:0013000000000000
#02316:0000001300000000
#02312:0000000000000013
#02714:14
#02719:0014000000000000
#02712:0000142400002414
#02716:000000000000000000000000000000000000000000000000000000000000000000000000000000000000000000000000000000000000000000000000000000000000000000000000000000000000000000000000000000000000000000000000000000000000000000000000000000000000000000000000000000000000000000000000000000000000000000000000000000000000000000000000000000000000000000000000000000000000000000000000000000000000000000000000000000000000000000000000000000000000000000000000000000000000000000000000000000000000000000000000000000000000000000000000000000000000000000000000000000000000000000000000000000000000000000000000000000000000000000000000000000000000000000000000000000000000000000000000000000000000000000000000000000000000000000000000000000000000000000000000000000000000000000000000000000000000000000000000000000000000000000000000000000000000000000000000000000000000000000000000000000000000000000000000000000000000000000000000000000000000000000000000000000000000000000000000000000000000000000000000000000000000000000000000000000000000000000000000000000000000000000000000000000000000000000000000000000000000000000000000000000000000000000000000000000000000000000000000000000000000000000000000000000000000000000000000000000000000000000000000000000000000000000000000000000000000000000000000000000000000000000000000000000000000000000000000000000000000000000000000000000000000000000000000000000000000000000000000000000000000000000000000000000000000000000000000000000000000000000000000000000000000000000000000000000000000000000000000000000000000000000000000000000000000000000000000000000000000000000000000000000000000000000000000000000000000000000000000000000000000000000000000000000000000000000000000000000000000000000000000000000000000000000000000000000000000000000000000000000000000000000000000000000000000000000000000000000000000000000000000000000000000000000000000000000000000000000000000000000000000000000000000000000000000000000000000000000000000000000000000141400000000000000000000000000000000000000000000000000000000000000000000000000000000000000000000000000000000000000000000000000000000000000000000000000000000000000000000000000000000000000000000000000000000000000000000000000000000000000000000000000000000000000000000000000000000000000000000000000000000000000000000000000000000000000000000000000000000000000000000000000000000000000000000000000000000000000000000000000000000000000000000000000000000000000000000000000000000000000000000000000000000000000000000000000000000000000000000000000000000000000000000000000000000000000000000000000000000000000000000000000000000000000000000000000000000000000000000000000000000000000000000000000000000000000000000000000000000000000000000000000000000000000000000000000000000000000000000000000000000000000000000000000000000000000000000000000000000000000000000000000000000000000000000000000000000000000000000000000000000000000000000000000000000000000000000000000000000000000000000000000000000000000000000000000000000000000000000000000000000000000000000000000000000000000000000000000000000000000000000000000000000000000000000000000000000000000000000000000000000000000000000000000000000000000000000000000000000000000000000000000000000000000000000000000000000000000000000000000000000000000000000000000000000000000000000000000000000000000000000000000000000000000000000000000000000000000000000000000000000000000000000000000000000000000000000000000000000000000000000000000000000000000000000000000000000000000000000000000000000000000000000000000000000000000000000000000000000000000000000000000000000000000000000000000000000000000000000000000000000000000000000000000000000000000000000000000000000000000000000000000000000000000000000000000000000000000000000000000000000000000000000000000000000000000000000000000000000000000000000000000000000000000000000000000000000000000000000000000000000000000000000000000000000000000000000000000000000000000000000
#0271a:0000241400001424
#02718:24
#02713:0024000000000000
#02916:00140000
#02915:0000001600000000
#02914:0013000018000000
#02913:00000000001a0000
#02912:1300001c
#0291b:13
#02919:0013000000000000
#03516:13000013
#03517:0000000000000013
#03512:0000000000000013
#0351b:23000013
#03614:0000001300000013
#03619:0000001300000013
#03617:0013000023000000
#03612:0013000013000000
#0361b:1300000000130000
#03616:2300000000130000
#08918:16000016
#08912:1600121600000000
#0891c:0000000000120000
#08718:00000014
#08714:0000140000000014
#08712:13
#08818:0014000000000000
#08813:0000000000140000
#08819:0000000000140000
#03912:13000013
#0391b:0000000000000013
#03916:0000000000000013
#03917:23000013
#04012:13131300
#04017:13130000
#0401b:0013000013001300
#04016:000000000000000000000000000000000000000000000000000000000000000000000000000000000000000000000000000000000000000000000000000000000000000000000000000000000000000000000000000000000000000000000000000000000000000000000000000000000000000000000000000000000000000000000000000000000000000000000000000000000000000000000000000000000000000000000000000000000000000000000000000000000000000000000000000000000000000000000000000000000000000000000000000000000000000000000000000000000000000000000000000000000000000000000000000000000000000000000000000000000000000000000000000000000000000000000000000000000000000000000000000000000000000000000000000000000000000000000000000000000000000000000000000000000000000000000000000000000000000000000000000000000000000000000000000000000000000000000000000000000000000000000000000000000000000000000000000000000000000000000000000000000000000000000000000000000000000000000000000000000000000000000000000000000000000000000000000000000000000000000000000000000000000000000000000000000000000000000000000000000000000000000000000000000000000000000000000000000000000000000000000000000000000000000000000000000000000000000000000000000000000000000000000000000000000000000000000000000000000000000000000000000000000000000000000000000000000000000000000000000000000000000000000000000000000000000000000000000000000000000000000000000000000000000000000000000000000000000000000000000000000000000000000000000000000000000000000000000000000000000000130000000000000000000000000000000000000000000000000000000000000000000000000000000000000000000000000000000000000000000000000000000000000000000000000000000000000000000000000000000000000000000000000000000000000000000000000000000000000000000000000000000000000000000000000000000000000000000000000000000000000000000000000000000000000000000000000000000000000000000000000000000000000000000000000000000000000000000000000000000000000000000000000000000000000000000000000000000000000000000000000000000000000000000000000000000000000000000000000000000000000000000000000000000000000000000000000000000000000000000000000000000000000000000000000000000000000000000000000000000000000000000000000000000000000000000000000000000000000000000000000000000000000000000000000000000000000000000000000000000000000000000000000000000000000000000000000000000000000000000000000000000000000000000000000000000000000000000000000000000000000000000000000000000000000000000000000000000000000000000000131300000000000000000000000000000000000000000000000000000000000000000000000000000000000000000000000000000000000000000000000000000000000000000000000000000000000000000000000000000000000000000000000000000000000000000000000000000000000000000000000000000000000000000000000000000000000000000000000000000000000000000000000000000000000000000000000000000000000000000000000000000000000000000000000000000000000000000000000000000000000000000000000000000000000000000000000000000000000000000000000000000000000000000000000000000000000000000000000000000000000000000000000000000000000000000000000000000000000000000000000000000000000000000000000000000000000000000000000000000000000000000000000000000000000000000000000000000000000000000000000000000000000000000000000000000000000000000000000000000000000000000000000000000000000000000000000000000000000000000000000000000000000000000000000000000000000000000000000000000000000000000000000000000000000000000000000000000000000000000000000000000000000000000000000000000000000000000000000000000000000000000000000000000000000000000000000000000000000000000000000000000000000000000000000000000000000000000000000000000000000000000000000000000000000000000000000000000000000000000000000000000000000000000000000000000000000000000000000000000000000000000000000000000000000000000000000000000000000000000000000000000000000000000000000000000000000000000000000000000000000000000000000000000000000000000000000000000000000000000000
#04712:0000000013000013
#04716:0000230000130000
#0471b:0000130000130000
#04717:0000001300000013
#0481b:1300000013000013
#04817:0000230000130000
#04812:0000130000130000
#04816:0000001300000013
#05117:00130000
#0511b:0013001300130000
#05119:0000000000000013
#05114:0000000000000013
#05116:0000000000130000
#05112:0013230013000000
#05110:00410000
#0521b:13231300
#05219:0000000000000013
#05214:0000000000000013
#05216:00130000
#05212:0000001300130000
#05217:0000000000130000
#05312:1300130000000013
#05317:0000230000000013
#0531b:0000001300001300
#05314:0000000000130000
#05319:0000000000130000
#05316:0000001300002300
#06416:0000000024000000240000130000000000000000240000002400000000000000
#06417:0000000000000000000000000000000000000000000000000000001300000000
#06412:00002300000000230000000023000000
#0641b:00000000230000000000230000000023
#06410:00410000
#02819:00141414141313131300000000000000
#02816:000000000000000000000000000000000000000000000000000000000000000000000000000000000000000000000000000000000000000000000000000000000000000000000000000000000000000000000000000000000000000000000000000000000000000000000000000000000000000000000000000000000000000000000000000000000000000000000000000000000000000000000000000000000000000000000000000000000000000000000000141400000000000000000000000000000000000000000000000000000000000000000000000000000000000000000000000000000000000000000000000000000000000000000000000000000000000000000000000000000000000000000000000000000000000000000000000000000000000000000000141400000000000000000000000000000000000000000000000000000000000000000000000000000000000000000000000000000000000000000000000000000000000000000000000000000000000000000000000000000000000000000000000000000000000000000000000000000000000000000000141400000000000000000000000000000000000000000000000000000000000000000000000000000000000000000000000000000000000000000000000000000000000000000000000000000000000000000000000000000000000000000000000000000000000000000000000000000000000000000000001300000000000000000000000000000000000000000000000000000000000000000000000000000000000000000000000000000000000000000000000000000000000000000000000000000000000000000000000000000000000000000000000000000000000000000000000000000000000000000000130000000000000000000000000000000000000000000000000000000000000000000000000000000000000000000000000000000000000000000000000000000000000000000000000000000000000000000000000000000000000000000000000000000000000000000000000000000000000000000000001300000000000000000000000000000000000000000000000000000000000000000000000000000000000000000000000000000000000000000000000000000000000000000000000000000000000000000000000000000000000000000000000000000000000000000000000000000000000000000000130000000000000000000000000000000000000000000000000000000000000000000000000000000000000000000000000000000000000000000000000000000000000000000000000000000000000000000000000000000000000000000000000000000000000000000000000000000000000000000000130000000000000000000000000000000000000000000000000000000000000000000000000000000000000000000000000000000000000000000000000000000000000000000000000000000000000000000000000000000000000000000000000000000000000000000000000000000000000000000000130000000000000000000000000000000000000000000000000000000000000000000000000000000000000000000000000000000000000000000000000000000000000000000000000000000000000000000000000000000000000000000000000000000000000000000000000000000000000000000000001300000000000000000000000000000000000000000000000000000000000000000000000000000000000000000000000000000000000000000000000000000000000000000000000000000000000000000000000000000000000000000000000000000000000000000000000000000000000000000000130000000000000000000000000000000000000000000000000000000000000000000000000000000000000000000000000000000000000000000000000000000000000000000000000000000000000000000000000000000000000000000000000000000000000000000000000000000000000000000000000000000000000000000000000000000000000000000000000000000000000000000000000000000000000000000000000000000000000000000000000000000000000000000000000000000000000000000000000000000000000000000000000000000000000000000000000000000000000000000000000000000000000000000000000000000000000000000000000000000000000000000000000000000000000000000000000000000000000000000000000000000000000000000000000000000000000000000000000000000000000000000000000000000000000000000000000000000000000000000000000000000000000000000000000000000000000000000000000000000000000000000000000000000000000000000000000000000000000000000000000000000000000000000000000000000000000000000000000000000000000000000000000000000000000000000000000000000000000000000000000000000000000000000000000000000000000000000000000000000000000000000000000000000000000000000000000000000000000000000000
#02813:00141414140000000000000000000000
#02817:000000000000000000000000000000000000000000000000000000000000000000000000000000000000000000000000000000000000000000000000000000000000000000000000000000000000000000000000000000000000000000000000000000000000000000000000000000000000000000000000000000000000000000000000000000000000000000000000000000000000000000000000000000000000000000000000000000000000000000000000000000000000000000000000000000000000000000000000000000000000000000000000000000000000000000000000000000000000000000000000000000000000000000000000000000000000000000000000000000000000000000000000000000000000000000000000000000000000000000000000000000000000000000000000000000000000000000000000000000000000000000000000000000000000000000000000000000000000000000000000000000000000000000000000000000000000000000000000000000000000000000000000000000000000000000000000000000000000000000000000000000000000000000000000000000000000000000000000000000000000000000000000000000000000000000000000000000000000000000000000000000000000000000000000000000000000000000000000000000000000000000000000000000000000000000000000000000000000000000000000130000000000000000000000000000000000000000000000000000000000000000000000000000000000000000000000000000000000000000000000000000000000000000000000000000000000000000000000000000000000000000000000000000000000000000000000000000000000000000000000001300000000000000000000000000000000000000000000000000000000000000000000000000000000000000000000000000000000000000000000000000000000000000000000000000000000000000000000000000000000000000000000000000000000000000000000000000000000000000000000130000000000000000000000000000000000000000000000000000000000000000000000000000000000000000000000000000000000000000000000000000000000000000000000000000000000000000000000000000000000000000000000000000000000000000000000000000000000000000000000001300000000000000000000000000000000000000000000000000000000000000000000000000000000000000000000000000000000000000000000000000000000000000000000000000000000000000000000000000000000000000000000000000000000000000000000000000000000000000000000001300000000000000000000000000000000000000000000000000000000000000000000000000000000000000000000000000000000000000000000000000000000000000000000000000000000000000000000000000000000000000000000000000000000000000000000000000000000000000000000001300000000000000000000000000000000000000000000000000000000000000000000000000000000000000000000000000000000000000000000000000000000000000000000000000000000000000000000000000000000000000000000000000000000000000000000000000000000000000000000130000000000000000000000000000000000000000000000000000000000000000000000000000000000000000000000000000000000000000000000000000000000000000000000000000000000000000000000000000000000000000000000000000000000000000000000000000000000000000000000001300000000000000000000000000000000000000000000000000000000000000000000000000000000000000000000000000000000000000000000000000000000000000000000000000000000000000000000000000000000000000000000000000000000000000000000000000000000000000000000000000000000000000000000000000000000000000000000000000000000000000000000000000000000000000000000000000000000000000000000000000000000000000000000000000000000000000000000000000000000000000000000000000000000000000000000000000000000000000000000000000000000000000000000000000000000000000000000000000000000000000000000000000000000000000000000000000000000000000000000000000000000000000000000000000000000000000000000000000000000000000000000000000000000000000000000000000000000000000000000000000000000000000000000000000000000000000000000000000000000000000000000000000000000000000000000000000000000000000000000000000000000000000000000000000000000000000000000000000000000000000000000000000000000000000000000000000000000000000000000000000000000000000000000000000000000000000000000000000000000000000000000000000000000000000000000000000000000000000000000
#02814:00000000001313131300000000000000
#02818:00000000000000000013131300000000
#02815:00000000000000000013131300000000
#0281a:14
#02812:24
#05517:0000130000130013
#0551b:0000001300000000
#05515:0013
#05512:0016230000130013
#05518:2516000000000000
#05513:25
#05712:13000013
#05719:0013
#05716:0000001300000000
#0571b:0000000000130000
#05714:0000000000000013
#0581b:13000000000000130000130013000000
#05812:00131313
#05816:0000001300130000
#05817:0013000013000000
#06015:0016000000000000
#0601b:1300000000000000230000000000000000130000000000002300000000000000
#06012:1300000000000000000000130000000000000000130000000000001300000000
#06016:00130013
#06018:00000000000000130000000000000013
#06212:1300130000000013
#06219:0013000000000000
#06214:00001300000000130000000000000000
#06215:0000000000131300
#06217:0000000013000013
#0621b:0000000000130000
#06119:00000000000000130000000000000000
#06118:0000000000131300
#06116:0000000013000013
#0611b:0013000000000000230000000000000000000000000000000000000013000000
#06112:0013000000130000
#0631b:13
#05012:00000000000000130000130013000000
#05017:1300001300130000
#0501b:0013130013001300
#05016:0013
#04912:1300001300000013
#0491b:0013
#04914:00000013
#04919:0000000000130000
#05419:0013000000000000
#05414:0013000000000014
#05418:0000001300122314
#05415:00000000000000130000000023000000
#05412:0013
#0541b:00231300
#05416:0000000000120000
#07012:13131300
#0701b:00130023
#0701b:00000023
#07017:00000000000000131300000000000000
#07014:0000000000130013
#07016:00000013
#07117:1313
#0711b:00000000130000000000000000000013
#07112:13000000000000130000000013000000
#07114:0000000000000013
#07116:00230000
#07217:0000000000130013
#0721b:00000013
#07216:13
#07215:00130000
#07212:00000000000000131300000023000000
#07213:0000000000000023
#0731b:13130000
#07318:00000000000000130000000000000000
#07317:00000013
#07319:0000000000000013
#07314:23
#07315:0023000000000000
#07316:00230000
#07312:00000023
#07617:13
#0761b:00130000
#07618:0000000000000000000000000000130013000000000000000000001400000014
#07615:0000000000130013
#07612:00000013
#0761a:0000000000000000000000000000000000000000000000000014000000140000
#07619:00000000000000000000000024141414
#07712:13000000000000130000000000001300
#07715:00130013
#07719:14141414141414141414141414141414
#0771a:0014000000140000001400000014000000140000001400000014000000140000
#07718:0000001400000014000000140000001400000014000000140000001400000014
#07815:13000000130000130000130000000000
#07812:00001313
#07814:0000000000000013
#07819:14141414141414141414141414141414
#0781a:0014000000140000001400000014000000140000001400000014000000140000
#07818:0000001400000014000000140000001400000014000000140000001400000014
#07916:13
#07915:00000000000000130000130000000000
#07918:0013
#0791b:00000013
#07919:0000000000000013
#07912:00230000
#07910:00410000
#08018:00000000000000130000130000000000
#08015:0013
#08012:00000013
#08014:0000000000000013
#08017:13
#08112:00000000000000130000000000000000
#0811a:0013
#08116:1300000000130000
#0811b:00000013
#08117:0000000000000013
#0821b:13000000000000130000000000000000
#08217:0013000000130000
#08213:0013
#08212:0013000000001300
#08216:0000000000000013
#08612:13130000
#0861b:0013000000000013
#08616:00000000000000130000000000000000
#08617:13130013
#04518:0013000013141500
#04515:00000013000000001300000000000000
#0451b:13130000
#04519:0000001300000000
#04514:0000001300140000
#04513:00000015
#04512:00130000
#09012:1216000000001216
#09018:0016
#0901c:0000001200000000
#09212:00000000001215000000000014000000
#0921a:00000014
#0921c:00000000000000000000001200000000
#09219:15
#09112:0000000012160000
#0911c:0012000000000012
#09118:00160000
#06518:0000000000000000001400000014000000150000001500000016000000160000
#06514:0000000000000000000000140000001400000000000000000000000000000000
#06513:0000000000000000000000000000000000000015000000150000000000000000
#06512:0000000023000000240000000000000000000000000000000000001600000016
#06515:00000000000000000000150015161616
#06516:00000000241414141415001500000000
#0651b:0023000000000000
#01615:0016001600000000
#01618:2626
#01612:26260000
#01759:43
#01756:63
#01752:0023000000000000
#01758:00530000
#0175b:0000002300000000
#07456:63
#07455:0063
#07452:00000053
#07453:00530000
#0745b:00130000
#07554:63
#07552:00530000
#07556:00000063
#07558:00160000
#06655:0000000000660000
#06757:22
#06753:001a0000
#0675b:00000063
#00156:00630000
#00152:0000002300000000
#0015b:63
#00157:0023000000000000
#00357:00530000
#0035b:0000002300000000
#00352:53
#00356:0023000000000000
#00555:00630000
#00552:0000002300000000
#00557:53
#0055b:0023000000000000
#00758:00530000
#0075b:0000002300000000
#00756:63
#00752:0023000000000000
#00957:0053
#0095b:0000000000230000
#01052:0053
#01056:0000000000230000
#0115b:6363
#01157:0023000000000000
#01152:00530000
#01156:0000002300000000
#01256:0000000000230000
#01252:0053
#01356:0063
#01352:0000000000230000
#0145b:0063
#01457:0000000000230000
#01552:5353
#01556:0023000000000000
#0155b:00630000
#01557:0000002300000000
#0185b:63
#01856:00000023000000000000000000000000
#01852:0053
#0205b:63636300
#02057:0023000000000000
#02055:0000002300000000
#02052:00535300
#02058:0000002300000000
#02154:33
#02157:53
#0215b:0023000000000000
#02155:00630000
#02152:0000002300000000
#02252:53
#02257:00000023000000000000000000000000
#0225b:0063
#02655:0053
#02658:0063
#02756:000000000000000000000000000000000000000000000000000000000000000000000000000000000000000000000000000000000000000000000000000000000000000000000000000000000000000000000000000000000000000000000000000000000000000000000000000000000000000000000000000000000000000000000000000000000000000000000000000000000000000000000000000000000000000000000000000000000000000000000000000000000000000000000000000000000000000000000000000000000000000000000000000000000000000000000000000000000000000000000000000000000000000000000000000000000000000000000000000000000000000000000000000000000000000000000000000000000000000000000000000000000000000000000000000000000000000000000000000000000000000000000000000000000000000000000000000000000000000000000000000000000000000000000000000000000000000000000000000000000000000000000000000000000000000000000000000000000000000000000000000000000000000000000000000000000000000000000000000000000000000000000000000000000000000000000000000000000000000000000000000000000000000000000000000000000000000000000000000000000000000000000000000000000000000000000000000000000000000000000000000000000000000000000000000000000000000000000000000000000000000000000000000000000000000000000000000000000000000000000000000000000000000000000000000000000000000000000000000000000000000000000000000000000000000000000000000000000000000000000000000000000000000000000000000000000000000000000000000000000000000000000000000000000000000000000000000000000000000000000000000000000000000000000000000000000000000000000000000000000000000000000000000000000000000000000000000000000000000000000000000000000000000000000000000000000000000000000000000000000000000000000000000000000000000000000000000000000000000000000000000000000000000000000000000000000000000000000000000000000000000000000000000000000000000000000000000000000000000000000000000000000000000000000000000000000000000000000000000000000000000000000000000000000000000000000000000000000000000000000000242400000000000000000000000000000000000000000000000000000000000000000000000000000000000000000000000000000000000000000000000000000000000000000000000000000000000000000000000000000000000000000000000000000000000000000000000000000000000000000000000000000000000000000000000000000000000000000000000000000000000000000000000000000000000000000000000000000000000000000000000000000000000000000000000000000000000000000000000000000000000000000000000000000000000000000000000000000000000000000000000000000000000000000000000000000000000000000000000000000000000000000000000000000000000000000000000000000000000000000000000000000000000000000000000000000000000000000000000000000000000000000000000000000000000000000000000000000000000000000000000000000000000000000000000000000000000000000000000000000000000000000000000000000000000000000000000000000000000000000000000000000000000000000000000000000000000000000000000000000000000000000000000000000000000000000000000000000000000000000000000000000000000000000000000000000000000000000000000000000000000000000000000000000000000000000000000000000000000000000000000000000000000000000000000000000000000000000000000000000000000000000000000000000000000000000000000000000000000000000000000000000000000000000000000000000000000000000000000000000000000000000000000000000000000000000000000000000000000000000000000000000000000000000000000000000000000000000000000000000000000000000000000000000000000000000000000000000000000000000000000000000000000000000000000000000000000000000000000000000000000000000000000000000000000000000000000000000000000000000000000000000000000000000000000000000000000000000000000000000000000000000000000000000000000000000000000000000000000000000000000000000000000000000000000000000000000000000000000000000000000000000000000000000000000000000000000000000000000000000000000000000000000000000000000000000000000000000000000000000000000000000000000000000000000000000000000000000000000000000000
#0275a:0000006400000000
#02752:0000005400000000
#02557:0023
#0255a:0023
#02556:0000005300000000
#02553:0000005300000000
#0305b:63
#03052:13
#03054:0043
#0305a:0043
#03152:53
#0315b:13
#03159:0033
#03153:0033
#03256:63630000
#03252:0023000053005300
#0325b:00636343
#03257:000000000000000000000000000000000000000000000000000000000000000000000000000000000000000000000000000000000000000000000000000000000000000000000000000000000000000000000000000000000000000000000000000000000000000000000000000000000000000000000000000000000000000000000000000000000000000000000000000000000000000000000000000000000000000000000000000000000000000000000000000000000000000000000000000000000000000000000000000000000000000000000000000000000000000000000000000000000000000000000000000000000000000000000000000000000000000000000000000000000000000000000000000000000000000000000000000000000000000000000000000000000000000000000000000000000000000000000000000000000000000000000000000000000000000000000000000000000000000000000000000000000000000000000000000000000000000000000000000000000000000000000000000000000000000000000000000000000000000000000000000000000000000000000000000000000000000000000000000000000000000000000000000000000000000000000000000000000000000000000000000000000000000000000000000000000000000000000000000000000000000000000000000000000000000000000000000000000000000000000000000000000000000000000000000000000000000000000000000000000000000000000000000000000000000000000000000000000000000000000000000000000000000000000000000000000000000000000000000000000000000000000000000000000000000000000000000000000000000000000000000000000000000000000000000000000000000000000000000000000000000000000000000000000000000000000000000000000000000000000000230000000000000000000000000000000000000000000000000000000000000000000000000000000000000000000000000000000000000000000000000000000000000000000000000000000000000000000000000000000000000000000000000000000000000000000000000000000000000000000000000000000000000000000000000000000000000000000000000000000000000000000000000000000000000000000000000000000000000000000000000000000000000000000000000000000000000000000000000000000000000000000000000000000000000000000000000000000000000000000000000000000000000000000000000000000000000000000000000000000000000000000000000000000000000000000000000000000000000000000000000000000000000000000000000000000000000000000000000000000000000000000000000000000000000000000000000000000000000000000000000000000000000000000000000000000000000000000000000000000000000000000000000000000000000000000000000000000000000000000000000000000000000000000000000000000000000000000000000000000000000000000000000000000000000000000000000000000000000000000000232300000000000000000000000000000000000000000000000000000000000000000000000000000000000000000000000000000000000000000000000000000000000000000000000000000000000000000000000000000000000000000000000000000000000000000000000000000000000000000000000000000000000000000000000000000000000000000000000000000000000000000000000000000000000000000000000000000000000000000000000000000000000000000000000000000000000000000000000000000000000000000000000000000000000000000000000000000000000000000000000000000000000000000000000000000000000000000000000000000000000000000000000000000000000000000000000000000000000000000000000000000000000000000000000000000000000000000000000000000000000000000000000000000000000000000000000000000000000000000000000000000000000000000000000000000000000000000000000000000000000000000000000000000000000000000000000000000000000000000000000000000000000000000000000000000000000000000000000000000000000000000000000000000000000000000000000000000000000000000000000000000000000000000000000000000000000000000000000000000000000000000000000000000000000000000000000000000000000000000000000000000000000000000000000000000000000000000000000000000000000000000000000000000000000000000000000000000000000000000000000000000000000000000000000000000000000000000000000000000000000000000000000000000000000000000000000000000000000000000000000000000000000000000000000000000000000000000000000000000000000000000000000000000000000000000000000000000000000000000000
#03457:53
#03452:13
#03456:0033
#0345b:0033
#03556:63
#0355b:13
#03557:0043
#03552:0043
#08958:66000066
#08952:5600225600000000
#0895c:0000000000220000
#0385b:6333
#03856:1333
#03952:5343
#03957:1343
#04057:53530000
#0405b:0023000063006300
#04052:00535333
#04056:000000000000000000000000000000000000000000000000000000000000000000000000000000000000000000000000000000000000000000000000000000000000000000000000000000000000000000000000000000000000000000000000000000000000000000000000000000000000000000000000000000000000000000000000000000000000000000000000000000000000000000000000000000000000000000000000000000000000000000000000000000000000000000000000000000000000000000000000000000000000000000000000000000000000000000000000000000000000000000000000000000000000000000000000000000000000000000000000000000000000000000000000000000000000000000000000000000000000000000000000000000000000000000000000000000000000000000000000000000000000000000000000000000000000000000000000000000000000000000000000000000000000000000000000000000000000000000000000000000000000000000000000000000000000000000000000000000000000000000000000000000000000000000000000000000000000000000000000000000000000000000000000000000000000000000000000000000000000000000000000000000000000000000000000000000000000000000000000000000000000000000000000000000000000000000000000000000000000000000000000000000000000000000000000000000000000000000000000000000000000000000000000000000000000000000000000000000000000000000000000000000000000000000000000000000000000000000000000000000000000000000000000000000000000000000000000000000000000000000000000000000000000000000000000000000000000000000000000000000000000000000000000000000000000000000000000000000000000000000000000230000000000000000000000000000000000000000000000000000000000000000000000000000000000000000000000000000000000000000000000000000000000000000000000000000000000000000000000000000000000000000000000000000000000000000000000000000000000000000000000000000000000000000000000000000000000000000000000000000000000000000000000000000000000000000000000000000000000000000000000000000000000000000000000000000000000000000000000000000000000000000000000000000000000000000000000000000000000000000000000000000000000000000000000000000000000000000000000000000000000000000000000000000000000000000000000000000000000000000000000000000000000000000000000000000000000000000000000000000000000000000000000000000000000000000000000000000000000000000000000000000000000000000000000000000000000000000000000000000000000000000000000000000000000000000000000000000000000000000000000000000000000000000000000000000000000000000000000000000000000000000000000000000000000000000000000000000000000000000000000232300000000000000000000000000000000000000000000000000000000000000000000000000000000000000000000000000000000000000000000000000000000000000000000000000000000000000000000000000000000000000000000000000000000000000000000000000000000000000000000000000000000000000000000000000000000000000000000000000000000000000000000000000000000000000000000000000000000000000000000000000000000000000000000000000000000000000000000000000000000000000000000000000000000000000000000000000000000000000000000000000000000000000000000000000000000000000000000000000000000000000000000000000000000000000000000000000000000000000000000000000000000000000000000000000000000000000000000000000000000000000000000000000000000000000000000000000000000000000000000000000000000000000000000000000000000000000000000000000000000000000000000000000000000000000000000000000000000000000000000000000000000000000000000000000000000000000000000000000000000000000000000000000000000000000000000000000000000000000000000000000000000000000000000000000000000000000000000000000000000000000000000000000000000000000000000000000000000000000000000000000000000000000000000000000000000000000000000000000000000000000000000000000000000000000000000000000000000000000000000000000000000000000000000000000000000000000000000000000000000000000000000000000000000000000000000000000000000000000000000000000000000000000000000000000000000000000000000000000000000000000000000000000000000000000000000000000000000000000000000
#0425b:13
#04256:63
#04252:00230000
#04357:5353
#0435b:0000002300000000000000000000000000000023000000000000000000000000
#04355:00000063000000000000006300000000
#04352:3300000000000000002300000000000033000000000000000023000000000000
#04455:0063
#04452:3300000000230000
#0445b:0000002300000000
#04457:00530000
#04752:16005313
#04756:0000330000630000
#0475b:0000630000630000
#04757:0000002300001300
#04758:16
#0485b:00006313
#04857:0000430000530000
#04852:0000530000530000
#04856:0000002300001300
#05656:0000630000630000
#05652:0000002300004300
#05658:0053
#0565b:0000430000630000
#05657:00000043
#05157:00530043
#0515b:0000002300630000
#05156:0000000000630000
#05152:00335343
#05155:33
#05357:0000530000000023
#05352:0000530000000023
#0535b:0000002300006300
#05356:0000002300006300
#03657:0023000053003300
#03652:0023000053003300
#0365b:6300000000230000
#03656:6300000000230000
#06456:0000000044000000340000230000000000000000340000004400000000000000
#06457:0000000000000000000000000000000000000000000000000000002300000000
#0645b:00000000630000430000000000000000
#06452:00000000000000000000000053000033
#02859:00242424242323232300000000000000
#02856:000000000000000000000000000000000000000000000000000000000000000000000000000000000000000000000000000000000000000000000000000000000000000000000000000000000000000000000000000000000000000000000000000000000000000000000000000000000000000000000000000000000000000000000000000000000000000000000000000000000000000000000000000000000000000000000000000000000000000000000000546400000000000000000000000000000000000000000000000000000000000000000000000000000000000000000000000000000000000000000000000000000000000000000000000000000000000000000000000000000000000000000000000000000000000000000000000000000000000000000000546400000000000000000000000000000000000000000000000000000000000000000000000000000000000000000000000000000000000000000000000000000000000000000000000000000000000000000000000000000000000000000000000000000000000000000000000000000000000000000000546400000000000000000000000000000000000000000000000000000000000000000000000000000000000000000000000000000000000000000000000000000000000000000000000000000000000000000000000000000000000000000000000000000000000000000000000000000000000000000000006300000000000000000000000000000000000000000000000000000000000000000000000000000000000000000000000000000000000000000000000000000000000000000000000000000000000000000000000000000000000000000000000000000000000000000000000000000000000000000000530000000000000000000000000000000000000000000000000000000000000000000000000000000000000000000000000000000000000000000000000000000000000000000000000000000000000000000000000000000000000000000000000000000000000000000000000000000000000000000000006300000000000000000000000000000000000000000000000000000000000000000000000000000000000000000000000000000000000000000000000000000000000000000000000000000000000000000000000000000000000000000000000000000000000000000000000000000000000000000000530000000000000000000000000000000000000000000000000000000000000000000000000000000000000000000000000000000000000000000000000000000000000000000000000000000000000000000000000000000000000000000000000000000000000000000000000000000000000000000000530000000000000000000000000000000000000000000000000000000000000000000000000000000000000000000000000000000000000000000000000000000000000000000000000000000000000000000000000000000000000000000000000000000000000000000000000000000000000000000000530000000000000000000000000000000000000000000000000000000000000000000000000000000000000000000000000000000000000000000000000000000000000000000000000000000000000000000000000000000000000000000000000000000000000000000000000000000000000000000000006300000000000000000000000000000000000000000000000000000000000000000000000000000000000000000000000000000000000000000000000000000000000000000000000000000000000000000000000000000000000000000000000000000000000000000000000000000000000000000000530000000000000000000000000000000000000000000000000000000000000000000000000000000000000000000000000000000000000000000000000000000000000000000000000000000000000000000000000000000000000000000000000000000000000000000000000000000000000000000000000000000000000000000000000000000000000000000000000000000000000000000000000000000000000000000000000000000000000000000000000000000000000000000000000000000000000000000000000000000000000000000000000000000000000000000000000000000000000000000000000000000000000000000000000000000000000000000000000000000000000000000000000000000000000000000000000000000000000000000000000000000000000000000000000000000000000000000000000000000000000000000000000000000000000000000000000000000000000000000000000000000000000000000000000000000000000000000000000000000000000000000000000000000000000000000000000000000000000000000000000000000000000000000000000000000000000000000000000000000000000000000000000000000000000000000000000000000000000000000000000000000000000000000000000000000000000000000000000000000000000000000000000000000000000000000000000000000000000000000000
#02853:00242424240000000000000000000000
#02857:000000000000000000000000000000000000000000000000000000000000000000000000000000000000000000000000000000000000000000000000000000000000000000000000000000000000000000000000000000000000000000000000000000000000000000000000000000000000000000000000000000000000000000000000000000000000000000000000000000000000000000000000000000000000000000000000000000000000000000000000000000000000000000000000000000000000000000000000000000000000000000000000000000000000000000000000000000000000000000000000000000000000000000000000000000000000000000000000000000000000000000000000000000000000000000000000000000000000000000000000000000000000000000000000000000000000000000000000000000000000000000000000000000000000000000000000000000000000000000000000000000000000000000000000000000000000000000000000000000000000000000000000000000000000000000000000000000000000000000000000000000000000000000000000000000000000000000000000000000000000000000000000000000000000000000000000000000000000000000000000000000000000000000000000000000000000000000000000000000000000000000000000000000000000000000000000000000000000000000000000530000000000000000000000000000000000000000000000000000000000000000000000000000000000000000000000000000000000000000000000000000000000000000000000000000000000000000000000000000000000000000000000000000000000000000000000000000000000000000000000006300000000000000000000000000000000000000000000000000000000000000000000000000000000000000000000000000000000000000000000000000000000000000000000000000000000000000000000000000000000000000000000000000000000000000000000000000000000000000000000530000000000000000000000000000000000000000000000000000000000000000000000000000000000000000000000000000000000000000000000000000000000000000000000000000000000000000000000000000000000000000000000000000000000000000000000000000000000000000000000006300000000000000000000000000000000000000000000000000000000000000000000000000000000000000000000000000000000000000000000000000000000000000000000000000000000000000000000000000000000000000000000000000000000000000000000000000000000000000000000006300000000000000000000000000000000000000000000000000000000000000000000000000000000000000000000000000000000000000000000000000000000000000000000000000000000000000000000000000000000000000000000000000000000000000000000000000000000000000000000006300000000000000000000000000000000000000000000000000000000000000000000000000000000000000000000000000000000000000000000000000000000000000000000000000000000000000000000000000000000000000000000000000000000000000000000000000000000000000000000530000000000000000000000000000000000000000000000000000000000000000000000000000000000000000000000000000000000000000000000000000000000000000000000000000000000000000000000000000000000000000000000000000000000000000000000000000000000000000000000006300000000000000000000000000000000000000000000000000000000000000000000000000000000000000000000000000000000000000000000000000000000000000000000000000000000000000000000000000000000000000000000000000000000000000000000000000000000000000000000000000000000000000000000000000000000000000000000000000000000000000000000000000000000000000000000000000000000000000000000000000000000000000000000000000000000000000000000000000000000000000000000000000000000000000000000000000000000000000000000000000000000000000000000000000000000000000000000000000000000000000000000000000000000000000000000000000000000000000000000000000000000000000000000000000000000000000000000000000000000000000000000000000000000000000000000000000000000000000000000000000000000000000000000000000000000000000000000000000000000000000000000000000000000000000000000000000000000000000000000000000000000000000000000000000000000000000000000000000000000000000000000000000000000000000000000000000000000000000000000000000000000000000000000000000000000000000000000000000000000000000000000000000000000000000000000000000000000000000000000
#02854:00000000002323232300000000000000
#02858:00000000000000000023232300000000
#02855:00000000000000000023232300000000
#0285a:64
#02852:54
#05557:0000530000530000
#0555b:0000002300003300
#05555:0063
#05552:0000330000530000
#05556:00000033
#05256:00630033
#05252:0000002300530000
#0525b:00436333
#05257:0000000000530000
#0585b:43000063
#05852:00330053
#05855:0000000000000033
#05957:00530000
#0595b:0023
#05958:43
#05952:00130000
#06158:00000053
#0615b:0023000000000000430000000000000000000000000000000000000023000000
#06152:0000000000230000
#06156:0063
#06255:00000063
#06252:0000330000000023
#0625b:0000000000230000
#06257:0053
#06852:00130000
#06857:0023000000000000
#06952:00130000
#0695b:0000000000230000
#06957:00530000
#07157:5353
#0715b:00000000630000000000000000000023
#07156:00130000
#07052:00130000
#0705b:00000063
#0705b:00000063
#0735b:00130000
#07356:00630000
#07352:00000053
#07255:00130000
#0765b:00130000
#0765a:0000000000000000000000000000000000000000000000000024000000240000
#07659:00000000000000000000000054545454
#07658:0000000000000000000000000000000000000000000000000000002400000024
#07755:00130000
#07759:54545454545454545454545454545454
#0775a:0024000000240000002400000024000000240000002400000024000000240000
#07758:0000002400000024000000240000002400000024000000240000002400000024
#07855:00130000
#07859:54545454545454545454545454545454
#0785a:0024000000240000002400000024000000240000002400000024000000240000
#07858:0000002400000024000000240000002400000024000000240000002400000024
#08057:23
#0805b:00430000
#0825b:63430000
#08257:0023000000000000
#08156:23
#08152:00330000
#08352:53330000
#08356:0023000000000000
#08456:00630063
#08452:0000000000000023
#08657:00530053
#0865b:0000000000000023
#0335b:0063
#03356:0063
#03352:0000000000130000
#03357:00000013
#04152:0053
#04157:0053
#0415b:0000000000130000
#04156:00000013
#0505b:00430063
#05057:43
#05052:00000053
#05058:0000000000000043
#0455b:43
#09052:2256000000002256
#09058:0066
#0905c:0000002200000000
#09252:00000000002255000000000054000000
#0925a:00000064
#0925c:00000000000000000000002200000000
#09259:65
#09152:0000000022560000
#0915c:0022000000000022
#09158:00660000
#06558:0000000000000000002400000024000000250000002500000026000000260000
#06554:0000000000000000000000240000002400000000000000000000000000000000
#06553:0000000000000000000000000000000000000025000000250000000000000000
#06552:0000000000000000340000000000000000000000000000000000002600000026
#06555:00000000000000000000650065666666
#06556:00000000646464646465006500000000
#01655:0026002600000000
#01658:66464600
#01652:36563600
#06056:00630063
#06052:0000000000000000000000230000000000000000000000000000002300000000
#06058:00000000000000530000000000000053
#0605b:0000000000000000430000000000000000230000000000004300000000000000
#07952:00330000
#0245b:0043
#02452:0033
#0545b:43
#05456:43
#05752:00330000
#04956:00330000
#06352:00000043
#06358:00000043
#0013b0:13230000
#001370:0053000000000000
#001361:00132300
#001321:0000005300000000
#0023b1:0013
#002371:00000023
#003321:13230000
#003361:0053000000000000
#003370:00132300
#0033b0:0000005300000000
#004320:0013
#004360:00000023
#005370:13
#0053b0:0053000000000000
#005380:00230000
#005351:00130000
#005321:0000005300000000
#005361:0023
#006371:0013
#0063b1:00000023
#007361:13
#007321:0053000000000000
#007351:00230000
#007380:00130000
#0073b0:0000005300000000
#007370:0023
#008360:0013
#008340:0000000000330000
#008330:000033
#008320:000000000000000000000000000000000033230000000000
#009370:00001323
#0093b0:0000000000530000
#010320:00001323
#010360:0000000000530000
#0113b0:13230000
#011370:0053000000000000
#011321:00132300
#011361:0000005300000000
#0113b0:0013
#011370:00000023
#012320:00001323
#012360:0000000000530000
#013360:00001323
#013320:0000000000530000
#0143b0:00001323
#014370:0000000000530000
#015320:13230000
#015360:0053000000000000
#0153b1:00132300
#015371:0000005300000000
#015320:0013
#015360:00000023
#016380:16260000
#016350:0056000000000000
#016321:00162600
#016351:0000005600000000
#017361:13
#017321:0053000000000000
#017351:00230000
#017380:00130000
#0173b0:0000005300000000
#017370:0023
#017321:00001323
#017361:0000000000330000
#0183b1:1300002300000000
#018361:00000053000000000000000000000000
#018321:0013
#018361:00000023
#019371:13
#0193b1:0053230000000000
#019360:00130000
#019320:0000005323000000
#0193b1:0013
#019371:0000000000532300
#019320:00000013
#019360:0000000000000053
#020360:23
#0203b1:13333300
#020371:0053000000000000
#020351:0000003300002300
#020320:00133300
#020380:0000003300002300
#021370:13
#0213b0:0053000000000000
#021380:00230000
#021351:00130000
#021321:0000005300000000
#021361:0023
#0213b0:00001323
#021370:0000000000330000
#022320:1300002300000000
#022370:00000053000000000000000000000000
#0223b0:0013
#022370:00000023
#023360:13
#023320:0053230000000000
#023371:00130000
#0233b1:0000005323000000
#023320:0013
#023360:0000000000532300
#0233b1:00000013
#023371:0000000000000053
#024371:23
#024320:13330000
#0243b0:0023
#0243b1:00130000
#024321:0023
#025361:0000001300230000
#0253a1:0053
#025330:0000001300230000
#025370:0053
#026350:00135300
#0263b0:00000023
#026381:00135300
#026321:00000023
#027321:0000001400000000
#027361:0054
#0273a1:0000000000240000
#0273a0:0000001400000000
#027360:000000000000000000000000000000000000000000000000000000000000000000000000000000000000000000000000000000000000000000000000000000000000000000000000000000000000000000000000000000000000000000000000000000000000000000000000000000000000000000000000000000000000000000000000000000000000000000000000000000000000000000000000000000000000000000000000000000000000000000000000000000000000000000000000000000000000000000000000000000000000000000000000000000000000000000000000000000000000000000000000000000000000000000000000000000000000000000000000000000000000000000000000000000000000000000000000000000000000000000000000000000000000000000000000000000000000000000000000000000000000000000000000000000000000000000000000000000000000000000000000000000000000000000000000000000000000000000000000000000000000000000000000000000000000000000000000000000000000000000000000000000000000000000000000000000000000000000000000000000000000000000000000000000000000000000000000000000000000000000000000000000000000000000000000000000000000000000000000000000000000000000000000000000000000000000000000000000000000000000000000000000000000000000000000000000000000000000000000000000000000000000000000000000000000000000000000000000000000000000000000000000000000000000000000000000000000000000000000000000000000000000000000000000000000000000000000000000000000000000000000000000000000000000000000000000000000000000000000000000000000000000000000000000000000000000000000000000000000000000000000000000000000000000000000000000000000000000000000000000000000000000000000000000000000000000000000000000000000000000000000000000000000000000000000000000000000000000000000000000000000000000000000000000000000000000000000000000000000000000000000000000000000000000000000000000000000000000000000000000000000000000000000000000000000000000000000000000000000000000000000000000000000000000000000000000000000000000000000000000000000000000000000000000000000000000000000000000000000000000000000005400000000000000000000000000000000000000000000000000000000000000000000000000000000000000000000000000000000000000000000000000000000000000000000000000000000000000000000000000000000000000000000000000000000000000000000000000000000000000000000000000000000000000000000000000000000000000000000000000000000000000000000000000000000000000000000000000000000000000000000000000000000000000000000000000000000000000000000000000000000000000000000000000000000000000000000000000000000000000000000000000000000000000000000000000000000000000000000000000000000000000000000000000000000000000000000000000000000000000000000000000000000000000000000000000000000000000000000000000000000000000000000000000000000000000000000000000000000000000000000000000000000000000000000000000000000000000000000000000000000000000000000000000000000000000000000000000000000000000000000000000000000000000000000000000000000000000000000000000000000000000000000000000000000000000000000000000000000000000000000000000000000000000000000000000000000000000000000000000000000000000000000000000000000000000000000000000000000000000000000000000000000000000000000000000000000000000000000000000000000000000000000000000000000000000000000000000000000000000000000000000000000000000000000000000000000000000000000000000000000000000000000000000000000000000000000000000000000000000000000000000000000000000000000000000000000000000000000000000000000000000000000000000000000000000000000000000000000000000000000000000000000000000000000000000000000000000000000000000000000000000000000000000000000000000000000000000000000000000000000000000000000000000000000000000000000000000000000000000000000000000000000000000000000000000000000000000000000000000000000000000000000000000000000000000000000000000000000000000000000000000000000000000000000000000000000000000000000000000000000000000000000000000000000000000000000000000000000000000000000000000000000000000000000000000000000000000000000000000000000
#027320:0000000000240000
#028320:14
#028390:00540054005300530000000000000000
#028360:0000005400540054000000530000005300530053000000530000000000000000
#028330:0054540000000000
#028370:0000000000000000005300000053000000000000005300000000000000000000
#028340:0000005353000000
#028380:00000000000000000053005300000000
#028350:0000000000532300
#0283a1:14
#028331:00540054000000000000000000000000
#028361:000000000000000000000000000000000000000000000000000000000000000000000000000000000000000000000000000000000000000000000000000000000000000000000000000000000000000000000000000000000000000000000000000000000000000000000000000000000000000000000000000000000000000000000000000000000000000000000000000000000000000000000000000000000000000000000000000000000000000000000000005400000000000000000000000000000000000000000000000000000000000000000000000000000000000000000000000000000000000000000000000000000000000000000000000000000000000000000000000000000000000000000000000000000000000000000000000000000000000000000000005400000000000000000000000000000000000000000000000000000000000000000000000000000000000000000000000000000000000000000000000000000000000000000000000000000000000000000000000000000000000000000000000000000000000000000000000000000000000000000000005400000000000000000000000000000000000000000000000000000000000000000000000000000000000000000000000000000000000000000000000000000000000000000000000000000000000000000000000000000000000000000000000000000000000000000000000000000000000000000000005300000000000000000000000000000000000000000000000000000000000000000000000000000000000000000000000000000000000000000000000000000000000000000000000000000000000000000000000000000000000000000000000000000000000000000000000000000000000000000000000000000000000000000000000000000000000000000000000000000000000000000000000000000000000000000000000000000000000000000000000000000000000000000000000000000000000000000000000000000000000000000000000000000000000000000000000000000000000000000000005300000000000000000000000000000000000000000000000000000000000000000000000000000000000000000000000000000000000000000000000000000000000000000000000000000000000000000000000000000000000000000000000000000000000000000000000000000000000000000000000000000000000000000000000000000000000000000000000000000000000000000000000000000000000000000000000000000000000000000000000000000000000000000000000000000000000000000000000000000000000000000000000000000000000000000000000000000000000000000000000000000000000000000000000000000000000000000000000000000000000000000000000000000000000000000000000000000000000000000000000000000000000000000000000000000000000000000000000000000000000000000000000000000000000000000000000000000000000000000000000000000000000000000000000000000000000000000000000000000000000000000000000000000000000000000000000000000000000000000000000000000000000000000000000000000000000000000000000000000000000000000000000000000000000000000000000000000000000000000000005300000000000000000000000000000000000000000000000000000000000000000000000000000000000000000000000000000000000000000000000000000000000000000000000000000000000000000000000000000000000000000000000000000000000000000000000000000000000000000000000000000000000000000000000000000000000000000000000000000000000000000000000000000000000000000000000000000000000000000000000000000000000000000000000000000000000000000000000000000000000000000000000000000000000000000000000000000000000000000000000000000000000000000000000000000000000000000000000000000000000000000000000000000000000000000000000000000000000000000000000000000000000000000000000000000000000000000000000000000000000000000000000000000000000000000000000000000000000000000000000000000000000000000000000000000000000000000000000000000000000000000000000000000000000000000000000000000000000000000000000000000000000000000000000000000000000000000000000000000000000000000000000000000000000000000000000000000000000000000000000000000000000000000000000000000000000000000000000000000000000000000000000000000000000000000000000000000000000000000000000000000000000000000000000000000000000000000000000000000000000000000000000000000000000000000000000000000000000000000000000000000000000000000000000000000000000000000000000000000000000000000000000000000000000000000000000000000000000000000000
#028391:0054545353000000
#028341:00000000005300530000000000000000
#028371:000000000000000000000000000000000000000000000000000000000000000000000000000000000000000000000000000000000000000000000000000000000000000000000000000000000000000000000000000000000000000000000000000000000000000000000000000000000000000000000000000000000000000000000000000000000000000000000000000000000000000000000000000000000000000000000000000000000000000000000000000000000000000000000000000000000000000000000000000000000000000000000000000000000000000000000000000000000000000000000000000000000000000000000000000000000000000000000000000000000000000000000000000000000000000000000000000000000000000000000000000000000000000000000000000000000000000000000000000000000000000000000000000000000000000000000000000000000000000000000000000000000000000000000000000000000000000000000000000000000000000000000000000000000000000000000000000000000000000000000000000000000000000000000000000000000000000000000000000000000000000000000000000000000000000000000000000000000000000000000000000000000000000000000000000000000000000000000000000000000000000000000000000000000000000000000000000000000000000000000000000000000000000000000000000000000000000000000000000000000000000000000000000000000000000000000000000000000000000000000000000000000000000000000000000000000000000000000000000000000000000000000000000000000000000000000000000000000000000000000000005300000000000000000000000000000000000000000000000000000000000000000000000000000000000000000000000000000000000000000000000000000000000000000000000000000000000000000000000000000000000000000000000000000000000000000000000000000000000000000000000000000000000000000000000000000000000000000000000000000000000000000000000000000000000000000000000000000000000000000000000000000000000000000000000000000000000000000000000000000000000000000000000000000000000000000000000000000000000000000000005300000000000000000000000000000000000000000000000000000000000000000000000000000000000000000000000000000000000000000000000000000000000000000000000000000000000000000000000000000000000000000000000000000000000000000000000000000000000000000000005300000000000000000000000000000000000000000000000000000000000000000000000000000000000000000000000000000000000000000000000000000000000000000000000000000000000000000000000000000000000000000000000000000000000000000000000000000000000000000000005300000000000000000000000000000000000000000000000000000000000000000000000000000000000000000000000000000000000000000000000000000000000000000000000000000000000000000000000000000000000000000000000000000000000000000000000000000000000000000000000000000000000000000000000000000000000000000000000000000000000000000000000000000000000000000000000000000000000000000000000000000000000000000000000000000000000000000000000000000000000000000000000000000000000000000000000000000000000000000000005300000000000000000000000000000000000000000000000000000000000000000000000000000000000000000000000000000000000000000000000000000000000000000000000000000000000000000000000000000000000000000000000000000000000000000000000000000000000000000000000000000000000000000000000000000000000000000000000000000000000000000000000000000000000000000000000000000000000000000000000000000000000000000000000000000000000000000000000000000000000000000000000000000000000000000000000000000000000000000000000000000000000000000000000000000000000000000000000000000000000000000000000000000000000000000000000000000000000000000000000000000000000000000000000000000000000000000000000000000000000000000000000000000000000000000000000000000000000000000000000000000000000000000000000000000000000000000000000000000000000000000000000000000000000000000000000000000000000000000000000000000000000000000000000000000000000000000000000000000000000000000000000000000000000000000000000000000000000000000000000000000000000000000000000000000000000000000000000000000000000000000000000000000000000000000000000000000000000000000000
#028351:00000000000000000053005300000000
#028381:0000000000532300
#0303b1:13
#030371:00230000
#030340:00132300
#0303a1:0000001323000000
#031321:13
#031361:00230000
#031390:00132300
#031331:0000001323000000
#032361:13330000
#032321:0053000033003300
#032371:0000000000530000
#033361:23
#0323b0:00133323
#032370:000000000000000000000000000000000000000000000000000000000000000000000000000000000000000000000000000000000000000000000000000000000000000000000000000000000000000000000000000000000000000000000000000000000000000000000000000000000000000000000000000000000000000000000000000000000000000000000000000000000000000000000000000000000000000000000000000000000000000000000000000000000000000000000000000000000000000000000000000000000000000000000000000000000000000000000000000000000000000000000000000000000000000000000000000000000000000000000000000000000000000000000000000000000000000000000000000000000000000000000000000000000000000000000000000000000000000000000000000000000000000000000000000000000000000000000000000000000000000000000000000000000000000000000000000000000000000000000000000000000000000000000000000000000000000000000000000000000000000000000000000000000000000000000000000000000000000000000000000000000000000000000000000000000000000000000000000000000000000000000000000000000000000000000000000000000000000000000000000000000000000000000000000000000000000000000000000000000000000000000000000000000000000000000000000000000000000000000000000000000000000000000000000000000000000000000000000000000000000000000000000000000000000000000000000000000000000000000000000000000000000000000000000000000000000000000000000000000000000000000000000000000000000000000000000000000000000000000000000000000000000000000000000000000000000000000000000000000000000000000000530000000000000000000000000000000000000000000000000000000000000000000000000000000000000000000000000000000000000000000000000000000000000000000000000000000000000000000000000000000000000000000000000000000000000000000000000000000000000000000000000000000000000000000000000000000000000000000000000000000000000000000000000000000000000000000000000000000000000000000000000000000000000000000000000000000000000000000000000000000000000000000000000000000000000000000000000000000000000000000000000000000000000000000000000000000000000000000000000000000000000000000000000000000000000000000000000000000000000000000000000000000000000000000000000000000000000000000000000000000000000000000000000000000000000000000000000000000000000000000000000000000000000000000000000000000000000000000000000000000000000000000000000000000000000000000000000000000000000000000000000000000000000000000000000000000000000000000000000000000000000000000000000000000000000000000000000000000000000000000000005300000000000000000000000000000000000000000000000000000000000000000000000000000000000000000000000000000000000000000000000000000000000000000000000000000000000000000000000000000000000000000000000000000000000000000000000000000000000000000000000000000000000000000000000000000000000000000000000000000000000000000000000000000000000000000000000000000000000000000000000000000000000000000000000000000000000000000000000000000000000000000000000000000000000000000000000000000000000000000000000000000000000000000000000000000000000000000000000000000000000000000000000000000000000000000000000000000000000000000000000000000000000000000000000000000000000000000000000000000000000000000000000000000000000000000000000000000000000000000000000000000000000000000000000000000000000000000000000000000000000000000000000000000000000000000000000000000000000000000000000000000000000000000000000000000000000000000000000000000000000000000000000000000000000000000000000000000000000000000000000000000000000000000000000000000000000000000000000000000000000000000000000000000000000000000000000000000000000000000000000000000000000000000000000000000000000000000000000000000000000000000000000000000000000000000000000000000000000000000000000000000000000000000000000000000000000000000000000000000000000000000000000000000000000000000000000000000000000000000000000000000000000000000000000000000000000000000000000000000000000000000000000000000000000000000000000000000000000000000000
#0333b0:1323000000000000
#033360:0013
#033320:0000000000230000
#0333b1:0013
#033371:00000023
#034371:13
#0343b1:00230000
#034360:00132300
#0343b1:0000001323000000
#035361:13
#035321:00230000
#035370:00132300
#035321:0000001323000000
#0363b1:13230000
#036371:0053000000000000
#036360:13230000
#036320:0053000000000000
#036320:00001323
#036360:0000000000530000
#036371:00001323
#0363b1:0000000000530000
#037371:13
#0373b1:0023000000000000
#037360:0013000000000000
#037320:00230000
#0373b1:00130000
#037371:0000002300000000
#037320:0000001300000000
#037360:0023
#0383b0:13
#038370:00230000
#038321:00130000
#038361:0000005323000000
#0383b0:0000001323000000
#039320:13
#039360:00230000
#0393b1:00130000
#039371:0000005323000000
#039320:0000001323000000
#040370:13330000
#0403b0:0053000033003300
#040360:0000000000530000
#041370:23
#040321:00133323
#040361:000000000000000000000000000000000000000000000000000000000000000000000000000000000000000000000000000000000000000000000000000000000000000000000000000000000000000000000000000000000000000000000000000000000000000000000000000000000000000000000000000000000000000000000000000000000000000000000000000000000000000000000000000000000000000000000000000000000000000000000000000000000000000000000000000000000000000000000000000000000000000000000000000000000000000000000000000000000000000000000000000000000000000000000000000000000000000000000000000000000000000000000000000000000000000000000000000000000000000000000000000000000000000000000000000000000000000000000000000000000000000000000000000000000000000000000000000000000000000000000000000000000000000000000000000000000000000000000000000000000000000000000000000000000000000000000000000000000000000000000000000000000000000000000000000000000000000000000000000000000000000000000000000000000000000000000000000000000000000000000000000000000000000000000000000000000000000000000000000000000000000000000000000000000000000000000000000000000000000000000000000000000000000000000000000000000000000000000000000000000000000000000000000000000000000000000000000000000000000000000000000000000000000000000000000000000000000000000000000000000000000000000000000000000000000000000000000000000000000000000000000000000000000000000000000000000000000000000000000000000000000000000000000000000000000000000000000000000000000000000000530000000000000000000000000000000000000000000000000000000000000000000000000000000000000000000000000000000000000000000000000000000000000000000000000000000000000000000000000000000000000000000000000000000000000000000000000000000000000000000000000000000000000000000000000000000000000000000000000000000000000000000000000000000000000000000000000000000000000000000000000000000000000000000000000000000000000000000000000000000000000000000000000000000000000000000000000000000000000000000000000000000000000000000000000000000000000000000000000000000000000000000000000000000000000000000000000000000000000000000000000000000000000000000000000000000000000000000000000000000000000000000000000000000000000000000000000000000000000000000000000000000000000000000000000000000000000000000000000000000000000000000000000000000000000000000000000000000000000000000000000000000000000000000000000000000000000000000000000000000000000000000000000000000000000000000000000000000000000000000000005300000000000000000000000000000000000000000000000000000000000000000000000000000000000000000000000000000000000000000000000000000000000000000000000000000000000000000000000000000000000000000000000000000000000000000000000000000000000000000000000000000000000000000000000000000000000000000000000000000000000000000000000000000000000000000000000000000000000000000000000000000000000000000000000000000000000000000000000000000000000000000000000000000000000000000000000000000000000000000000000000000000000000000000000000000000000000000000000000000000000000000000000000000000000000000000000000000000000000000000000000000000000000000000000000000000000000000000000000000000000000000000000000000000000000000000000000000000000000000000000000000000000000000000000000000000000000000000000000000000000000000000000000000000000000000000000000000000000000000000000000000000000000000000000000000000000000000000000000000000000000000000000000000000000000000000000000000000000000000000000000000000000000000000000000000000000000000000000000000000000000000000000000000000000000000000000000000000000000000000000000000000000000000000000000000000000000000000000000000000000000000000000000000000000000000000000000000000000000000000000000000000000000000000000000000000000000000000000000000000000000000000000000000000000000000000000000000000000000000000000000000000000000000000000000000000000000000000000000000000000000000000000000000000000000000000000000000000000000000000
#041321:1323000000000000
#041371:0013
#0413b1:0000000000230000
#041320:0013
#041360:00000023
#042360:1323
#042340:0033003300000000
#042320:00330000
#0423b1:0000000013230000
#043371:13
#0433b1:0000005300000000000000000000000000000000000000000000000000000000
#043381:00000023000000000000000000000000
#043350:00000013000000000000000000000000
#043320:0000000000000000005300000000000000000000000000000000000000000000
#043360:0000002300000000
#043370:0013
#0433b0:0000000000000000000000000000000000000053000000000000000000000000
#043380:00000000000000000000002300000000
#043351:00000000000000000000001300000000
#043321:0000000000000000000000000000000000000000000000000053000000000000
#043361:0000000000000023
#0443b1:13
#044371:00000023000000000000000000000000
#044371:00130000
#0443b1:0000005300000000
#044381:0023
#044350:0013
#044320:0000000000530000
#044360:00000023
#045320:13
#045350:0023000000000000
#0453c0:0000000000000012
#047320:26
#045321:0000000000000012
#047381:26
#0473b1:00132300
#047371:0000005300000000
#047320:00001323
#047360:0000000000530000
#0473b1:0000000000130000
#047371:00000023
#048321:13
#048361:0023000000000000
#0483b0:0013000000000000
#048370:00230000
#048321:00132300
#048361:0000005300000000
#0483b0:00001323
#048370:0000000000530000
#048321:0000000000130000
#048361:00000023
#0493b1:13
#049371:0023000000000000
#049320:0013000000000000
#049360:00230000
#0493b1:0000132300000000
#049341:0000000013230000
#049391:0000000000001323
#050321:1323000000000000
#050361:00130000
#050321:0000002300000000
#050321:00000013
#050351:0000000000000053
#051351:23
#0503b0:00000013
#050380:0000000000000023
#051371:00132300
#0513b1:0000005300000000
#051320:00001323
#051360:0000000000530000
#0513b1:0000000000130000
#051371:00000023
#052361:13
#052321:0023000000000000
#052370:0013000000000000
#0523b0:00230000
#052361:00132300
#052321:0000005300000000
#0523b0:00001323
#052370:0000000000530000
#052321:0000000000130000
#052361:00000023
#053371:13
#0533b1:0023000000000000
#053360:0013005300000000
#053320:00332300
#053371:00132300
#0533b1:0000005300000000
#0533b1:00000013
#053371:0000000000000053
#0543b1:23
#053360:00000013
#053320:0000000000000053
#054360:23
#054360:00130000
#054320:0000002300000000
#055370:00130000
#0553b0:0000005300000000
#055380:0023
#055351:0013
#055321:0000000000530000
#055361:00000023
#055370:0000000000130000
#0553b0:00000023
#056360:13
#056320:0023000000000000
#056371:0013000000000000
#0563b1:00230000
#056360:00130000
#056320:0000005300000000
#056350:0023
#056381:0013
#0563b1:0000000000530000
#056371:00000023
#056360:0000000000130000
#056320:00000023
#057370:13
#0573b0:0023000000000000
#057361:0013000000000000
#057321:00230000
#0573b0:0000132300000000
#057340:0000000013230000
#057390:0000000000001323
#058320:1323000000000000
#058370:00130000
#0583b0:0000002300000000
#0583b0:00000013
#058380:0000000000000053
#059380:23
#058321:00000013
#058351:0000000000000023
#059370:00130023
#059390:0000003300330000
#0593b0:0033
#059321:0000000000001323
#060361:00130000
#060321:0000000000000000000000530000000000000000000000000000000000000000
#060351:00000000000000230000000000000000
#060380:00000000000000130000000000000000
#0603b0:0000000000000000000000000000000000530000000000000000000000000000
#060370:0000000000230000
#060360:00000013
#060320:0000000000000000000000000000000000000000000000000000005300000000
#060350:00000000000000000000000000000023
#060381:00000000000000000000000000000013
#0613b1:0053000000000000000000000000000000000000000000000000000000000000
#061371:0023000000000000
#061321:00130000
#061361:00000000000000230000000000000000
#061361:0013
#061321:0000000000530000
#061351:00000023
#061380:00000013
#0613b0:0000000000000053
#062370:23
#0623b0:00130000
#062370:00000000000000230000000000000000
#062370:0013
#0623b0:0000000000530000
#062380:00000023
#062351:00000013
#062321:0000000000000053
#063361:23
#063351:000000000000000000000000000000000000000000000000000000000000000000000000000000000000000000000000000000000000000000000000000000000000000000000000000000000000000000000000000000000000000000000000000000000000000000000000000000000000000000000000000000000000000000000000000000000000000000000000000000000000000000000000000000000000000000000000000000000000000000000000000000000000000000000000000000000000000000000000000000000000000000000000000000000000000000000000000000000000000000000000000000000000000000000000000000000000000000000000000000000000000000000000000000000000000000000000000000000000000000000000000000000000000000000000000000000000000000000000000000000000000000000000000000000000000000000000000000000000000000000000000000000000000000000000000000000000000000000000000000000000000000000000000000000000000000000000000000000000000000000000000000000000000000000000000000000000000000000000000000000000000000000000000000000000000000000000000000000000000000000000130000000000000000000000000000000000000000000000000000000000000000000000000000000000000000000000000000000000000000000000000000000000000000000000000000000000000000000000000000000000000000000000000000000000000000000000000000000000000000000000000000000000000000000000000000000000000000000000000000000000000000000000000000000000000000000000000000000000000000000000000000000000000000000000000000000000000000000000000000000000000000000000000000000000000000000000000000000000000000000000330000000000000000000000000000000000000000000000000000000000000000000000000000000000000000000000000000000000000000000000000000000000000000000000000000000000000000000000000000000000000000000000000000000000000000000000000000000000000000000000000000000000000000000000000000000000000000000000000000000000000000000000000000000000000000000000000000000000000000000000000000000000000000000000000000000000000000000000000000000000000000000000000000000000000000000000000000000000000000000000005300000000000000000000000000000000000000000000000000000000000000000000000000000000000000000000000000000000000000000000000000000000000000000000000000000000000000000000000000000000000000000000000000000000000000000000000000000000000000000000000000000000000000000000000000000000000000000000000000000000000000000000000000000000000000000000000000000000000000000000000000000000000000000000000000000000000000000000000000000000000000000000000000000000000000000000000000000000000000000000330000000000000000000000000000000000000000000000000000000000000000000000000000000000000000000000000000000000000000000000000000000000000000000000000000000000000000000000000000000000000000000000000000000000000000000000000000000000000000000000000000000000000000000000000000000000000000000000000000000000000000000000000000000000000000000000000000000000000000000000000000000000000000000000000000000000000000000000000000000000000000000000000000000000000000000000000000000000000000000000000000000000000000000000000000000000000000000000000000000000000000000000000000000000000000000000000000000000000000000000000000000000000000000000000000000000000000000000000000000000000000000000000000000000000000000000000000000000000000000000000000000000000000000000000000000000000000000000000000000000000000000000000000000000000000000000000000000000000000000000000000000000000000000000000000000000000000000000000000000000000000000000000000000000000000000000000000000000000000000000000000000000000000000000000000000000000000000000000000000000000000000000000000000000000000000000000000000000000000000000000000000000000000000000000000000000000000000000000000000000000000000000000000000000000000000000000000000000000000000000000000000000000000000000000000000000000000000000000000000000000000000000000000000000000000000000000000000000000000000000000000000000000000000000000000000000000000000000000000000000000000000000000000000000000000000000000000000000000000000000
#063321:000000000000000000000000000000000000000000000000000000000000000000000000000000000000000000000000000000000000000000000000000000000000000000000000000000000000000000000000000000000000000000000000000000000000000000000000000000000000000000000000000000000000000000000000000000000000000000000000000000000000000000000000000000000000000000000000000000000000000000000000000000000000000000000000000000000000000000000000000000000000000000000000000000000000000000000000000000000000000000000000000000000000000000000000000000000000000000000000000000000000000000000000000000000000000000000000000000000000000000000000000000000000000000000000000000000000000000000000000000000000000000000000000000000000000000000000000000000000000000000000000000000000000000000000000000000000000000000000000000000000000000000000000000000000000000000000000000000000000000000000000000000000000000000000000000000000000000000000000000000000000000000000000000000000000000000000000000000000000000000000000000000000000000000000000000000000000000000000000000000000000000000000000000000000000000000000000000000000000000000000000000000000000000000000000000000000000000000000000000000000000000000000000000000000000000000000000000000000000000000000000000000000000000000000000000000000000000000000000000000000000000000000000000000000000000000000000000000000000000000000000000000000000000000000000000000000000000000000000000000000000000000000000000000000000000000000000000000000000000000000005300000000000000000000000000000000000000000000000000000000000000000000000000000000000000000000000000000000000000000000000000000000000000000000000000000000000000000000000000000000000000000000000000000000000000000000000000000000000000000000000000000000000000000000000000000000000000000000000000000000000000000000000000000000000000000000000000000000000000000000000000000000000000000000000000000000000000000000000000000000000000000000000000000000000000000000000000000000000000000000330000000000000000000000000000000000000000000000000000000000000000000000000000000000000000000000000000000000000000000000000000000000000000000000000000000000000000000000000000000000000000000000000000000000000000000000000000000000000000000000000000000000000000000000000000000000000000000000000000000000000000000000000000000000000000000000000000000000000000000000000000000000000000000000000000000000000000000000000000000000000000000000000000000000000000000000000000000000000000000000005300000000000000000000000000000000000000000000000000000000000000000000000000000000000000000000000000000000000000000000000000000000000000000000000000000000000000000000000000000000000000000000000000000000000000000000000000000000000000000000000000000000000000000000000000000000000000000000000000000000000000000000000000000000000000000000000000000000000000000000000000000000000000000000000000000000000000000000000000000000000000000000000000000000000000000000000000000000000000000000230000000000000000000000000000000000000000000000000000000000000000000000000000000000000000000000000000000000000000000000000000000000000000000000000000000000000000000000000000000000000000000000000000000000000000000000000000000000000000000000000000000000000000000000000000000000000000000000000000000000000000000000000000000000000000000000000000000000000000000000000000000000000000000000000000000000000000000000000000000000000000000000000000000000000000000000000000000000000000000000000000000000000000000000000000000000000000000000000000000000000000000000000000000000000000000000000000000000000000000000000000000000000000000000000000000000000000000000000000000000000000000000000000000000000000000000000000000000000000000000000000000000000000000000000000000000000000000000000000000000000000000000000000000000000000000000000000000000000000000000000000000000000000000000000000000000000000000000000000000000000000000000000000000000000000000000000000000000000000000000
#0633b0:000000000000000000000000000000000000000000000000000000000000000000000000000000000000000000000000000000000000000000000000000000000000000000000000000000000000000000000000000000000000000000000000000000000000000000000000000000000000000000000000000000000000000000000000000000000000000000000000000000000000000000000000000000000000000000000000000000000000000000000000000000000000000000000000000000000000000000000000000000000000000000000000000000000000000000000000000000000000000000000000000000000000000000000000000000000000000000000000000000000000000000000000000000000000000000000000000000000000000000000000000000000000000000000000000000000000000000000000000000000000000000000000000000000000000000000000000000000000000000000000000000000000000000000000000000000000000000000000000000000000000000000000000000000000000000000000000000000000000000000000000000000000000000000000000000000000000000000000000000000000000000000000000000000000000000000000000000000000000000000000130000000000000000000000000000000000000000000000000000000000000000000000000000000000000000000000000000000000000000000000000000000000000000000000000000000000000000000000000000000000000000000000000000000000000000000000000000000000000000000000000000000000000000000000000000000000000000000000000000000000000000000000000000000000000000000000000000000000000000000000000000000000000000000000000000000000000000000000000000000000000000000000000000000000000000000000000000000000000000000000330000000000000000000000000000000000000000000000000000000000000000000000000000000000000000000000000000000000000000000000000000000000000000000000000000000000000000000000000000000000000000000000000000000000000000000000000000000000000000000000000000000000000000000000000000000000000000000000000000000000000000000000000000000000000000000000000000000000000000000000000000000000000000000000000000000000000000000000000000000000000000000000000000000000000000000000000000000000000000000000005300000000000000000000000000000000000000000000000000000000000000000000000000000000000000000000000000000000000000000000000000000000000000000000000000000000000000000000000000000000000000000000000000000000000000000000000000000000000000000000000000000000000000000000000000000000000000000000000000000000000000000000000000000000000000000000000000000000000000000000000000000000000000000000000000000000000000000000000000000000000000000000000000000000000000000000000000000000000000000000330000000000000000000000000000000000000000000000000000000000000000000000000000000000000000000000000000000000000000000000000000000000000000000000000000000000000000000000000000000000000000000000000000000000000000000000000000000000000000000000000000000000000000000000000000000000000000000000000000000000000000000000000000000000000000000000000000000000000000000000000000000000000000000000000000000000000000000000000000000000000000000000000000000000000000000000000000000000000000000000000000000000000000000000000000000000000000000000000000000000000000000000000000000000000000000000000000000000000000000000000000000000000000000000000000000000000000000000000000000000000000000000000000000000000000000000000000000000000000000000000000000000000000000000000000000000000000000000000000000000000000000000000000000000000000000000000000000000000000000000000000000000000000000000000000000000000000000000000000000000000000000000000000000000000000000000000000000000000000000000000000000000000000000000000000000000000000000000000000000000000000000000000000000000000000000000000000000000000000000000000000000000000000000000000000000000000000000000000000000000000000000000000000000000000000000000000000000000000000000000000000000000000000000000000000000000000000000000000000000000000000000000000000000000000000000000000000000000000000000000000000000000000000000000000000000000000000000000000000000000000000000000000000000000000000000000000000000000000000000000
#063380:000000000000000000000000000000000000000000000000000000000000000000000000000000000000000000000000000000000000000000000000000000000000000000000000000000000000000000000000000000000000000000000000000000000000000000000000000000000000000000000000000000000000000000000000000000000000000000000000000000000000000000000000000000000000000000000000000000000000000000000000000000000000000000000000000000000000000000000000000000000000000000000000000000000000000000000000000000000000000000000000000000000000000000000000000000000000000000000000000000000000000000000000000000000000000000000000000000000000000000000000000000000000000000000000000000000000000000000000000000000000000000000000000000000000000000000000000000000000000000000000000000000000000000000000000000000000000000000000000000000000000000000000000000000000000000000000000000000000000000000000000000000000000000000000000000000000000000000000000000000000000000000000000000000000000000000000000000000000000000000000000000000000000000000000000000000000000000000000000000000000000000000000000000000000000000000000000000000000000000000000000000000000000000000000000000000000000000000000000000000000000000000000000000000000000000000000000000000000000000000000000000000000000000000000000000000000000000000000000000000000000000000000000000000000000000000000000000000000000000000000000000000000000000000000000000000000000000000000000000000000000000000000000000000000000000000000000000000000000000000000005300000000000000000000000000000000000000000000000000000000000000000000000000000000000000000000000000000000000000000000000000000000000000000000000000000000000000000000000000000000000000000000000000000000000000000000000000000000000000000000000000000000000000000000000000000000000000000000000000000000000000000000000000000000000000000000000000000000000000000000000000000000000000000000000000000000000000000000000000000000000000000000000000000000000000000000000000000000000000000000330000000000000000000000000000000000000000000000000000000000000000000000000000000000000000000000000000000000000000000000000000000000000000000000000000000000000000000000000000000000000000000000000000000000000000000000000000000000000000000000000000000000000000000000000000000000000000000000000000000000000000000000000000000000000000000000000000000000000000000000000000000000000000000000000000000000000000000000000000000000000000000000000000000000000000000000000000000000000000000000005300000000000000000000000000000000000000000000000000000000000000000000000000000000000000000000000000000000000000000000000000000000000000000000000000000000000000000000000000000000000000000000000000000000000000000000000000000000000000000000000000000000000000000000000000000000000000000000000000000000000000000000000000000000000000000000000000000000000000000000000000000000000000000000000000000000000000000000000000000000000000000000000000000000000000000000000000000000000000000000230000000000000000000000000000000000000000000000000000000000000000000000000000000000000000000000000000000000000000000000000000000000000000000000000000000000000000000000000000000000000000000000000000000000000000000000000000000000000000000000000000000000000000000000000000000000000000000000000000000000000000000000000000000000000000000000000000000000000000000000000000000000000000000000000000000000000000000000000000000000000000000000000000000000000000000000000000000000000000000000000000000000000000000000000000000000000000000000000000000000000000000000000000000000000000000000000000000000000000000000000000000000000000000000000000000000000000000000000000000000000000000000000000000000000000000000000000000000000000000000000000000000000000000000000000000000000000000000000000000000000000000000000000000000000000000000000000000000000000000000000000000000000000000000000000000000000000000000000000000000000000000000000000000000000000000000000000000000000000000000
#0643b0:00000000130000230000000000000000
#064360:0000000000000000000000530000000000000000000000000000000000000000
#064320:00000000000000000000000013000023
#064370:0000000000000000000000000000000000000000000000000000005300000000
#065360:00000000145454545455005500000000
#065380:0000000000000000005400000054000000550000005500000056000000560000
#065340:0000000000000000000000540000005400000000000000000000000000000000
#065330:0000000000000000000000000000000000000055000000550000000000000000
#065350:00000000000000000000550055565656
#065320:0000000000000000000000000000000000000000000000000000005600000056
#066340:28
#066350:0000000000160000
#067370:52
#067330:002a0000
#067320:0000000013230000
#0673b0:00000013
#068370:0053000000000000
#0683b0:0023
#069370:00130000
#0693b0:0000000000530000
#070370:23
#069321:0000000013230000
#0703b0:00000013
#071370:3333
#0713b0:00000000330000000000000000000053
#072370:0023
#071321:0000000013230000
#073360:00130000
#073320:0023
#0733b1:0000000013230000
#073321:00000013
#074361:33
#074331:00330000
#074351:0033
#074321:00000033
#075341:33
#075321:00330000
#075361:00000033
#076321:0023
#0753b0:0000000013230000
#076391:00000000000000000000000014545454
#0763a1:0000000000000000000000000000000000000000000000000054000000540000
#076381:0000000000000000000000000000000000000000000000000000005400000054
#077391:54545454545454545454545454545454
#0773a1:0054000000540000005400000054000000540000005400000054000000540000
#077381:0000005400000054000000540000005400000054000000540000005400000054
#078391:54545454545454545454545454545454
#0783a1:0054000000540000005400000054000000540000005400000054000000540000
#078381:0000005400000054000000540000005400000054000000540000005400000054
#079391:24
#077350:0000000013230000
#0793b1:00000000130000230000000000000000
#079321:00000013
#079361:0000000000000033
#080321:23
#080370:13
#0803b0:00230000
#080321:00000000130000230000000000000000
#0803b1:00000013
#080371:0000000000000033
#0813b1:23
#081360:13
#081320:00230000
#081371:00000000130000230000000000000000
#081361:00000013
#081321:0000000000000033
#082361:23
#0823b0:13230000
#082370:0053000000000000
#082361:00000000130000230000000000000000
#082371:00000013
#0823b1:0000000000000033
#083371:23
#083320:13230000
#083360:0053000000000000
#0833b1:00130000
#083371:0000005323000000
#083320:0013
#083360:0000000000532300
#084360:00130000
#084320:00000000000000230000000000000000
#084320:0000000013230000
#0843b1:0000000000132300
#084360:00000013
#084320:0000000000000053
#085360:23
#085320:00130000
#085360:0000005323000000
#0853b1:0013
#085371:0000000000532300
#086371:00130000
#0863b1:00000000000000230000000000000000
#0863b1:0000000013230000
#086320:0000000000132300
#086371:00000013
#0863b1:0000000000000053
#087371:23
#087381:00142400
#087340:000000000000000000000000000000000000000000000000000000000000000000000000000000000000000000000000140000000000000000000054005400000000000000000000240000000000000000000000000000000000000000000000
#087320:000000000000000000000000000000000000000000000000000000000000000000000000000000000000000000000000000000000000000000000000000000000000000000000000000000000000000000000000000000000000000000000000000000000000000000000000000000000000000000000054000000000000000000000000000000000000000000000000000000000000000000000000000000000000000000000000000000000000000000000000000000000000000000000000
#087360:000000000000000000000000000000000000000000000000000000000000000000000000000000000000000000000000000000000000000000000000000000000000000000000000000000000000000000000000000000000000000000000000000000000000000000000000000000000000000000000000005400000000000000000000000000000000000000000000000000000000000000000000000000000000000000000000000000000000000000000000000000000000000000000000
#087380:0000000000000000000000000000000000000000000000000000000014000054
#087370:000000000000000000000000000000000000000000000000000000000000000000000000000000000000000000000054
#0873a0:000000000000000000000000000000000000000000000000000000000000000000000000000000000000000000000000000000000000000000000000000000000000000000000000000000000000000000000000000000000000000000000054
#088380:24
#088341:1454000024000000000000000000000000000000000000000000000000000000
#088321:005400000000000000000000000000000000000000000000000000000000000000000000000000000000000000000000000000000000000000000000000000000000000000000000000000000000000000000000000000000000000000000000
#088351:005400000000000000000000000000000000000000000000000000000000000000000000000000000000000000000000
#088361:000000000000000000000000000000000000000000000000140054000054000000540054000054000054000054005400240000000000000000000000000000000000000000000000000000000000000000000000000000000000000000000000
#088351:000000000000000000000000000000000000000000000000005400540000540054000000540000005400005400000054000000000000000000000000000000000000000000000000000000000000000000000000000000000000000000000000
#088371:000000000000000000000000000000000000000000000000000000005400005400000000005400540000540000000000000000000000000000000000000000000000000000000000000000000000000000000000000000000000000000000000
#088341:000000000000000000000000000000000000000000000000000000000000000000005400000000000000000000540000000000000000000000000000000000000000000000000000000000000000000000000000000000000000000000000000
#0883a1:000000000000000000000000000000000000000000000000000000000000000000000000000000000000000000000000000000000000000000000000000000000000000000000000140000540000005400000054000000000054000000540054
#0883b1:000000000000000000000000000000000000000000000000000000000000000000000000000000000000000000000000000000000000000000000000000000000000000000000000005300000000000000530000005300530000005300000000
#088381:000000000000000000000000000000000000000000000000000000000000000000000000005600560000000056000000
#088361:000000000000000000000000000000000000005800000000
#088391:000000000000000000000000000000000000000000000000000000000000000000000000000000000000000000000000000000000000000000000000000000000000000000000000000000000055000000005500000055000000000055000000
#088371:000000000000000000000000000000000000000000000000000000000000000000000000000000005700570000570057
#089381:56000056
#0893c1:0000000000520000
#0903c1:0000005200000000
#090381:0056
#0913c1:0052000000000052
#091381:00560000
#092391:55
#0923c1:00000000000000000000005200000000
#0923a1:00000054
#0933b1:00530000
#0983c1:22
#088320:000000000000000000000000000000000000000000000000000000000000000000000000000000000000000000000000000000000000000000000000000000000000000000000000145855575356555754585657545856585557545856575457
#089320:5600525600000000
#090320:5256000000005256
#091320:0000000052560000
#092320:00000000005255000000000054000000
#093320:00530000
#098320:22
