This file was generated by Ched 2.6.4.0.
#TITLE ""
#ARTIST ""
#DESIGNER ""
#DIFFICULTY 0
#PLAYLEVEL
#SONGID ""
#WAVE ""
#WAVEOFFSET 0
#JACKET ""
#REQUEST "ticks_per_beat 480"
#00002: 4
#BPM01: 150
#00008: 01
#TIL00: ""
#HISPEED 00
#MEASUREHS 00
#0011a:14
#00114:0014
#00118:00000014
#00214:14
#0021a:0014
#00312:14
#00318:0014
#00314:00000014
#00418:14
#00412:0014
#00518:14
#00514:0014
#0051a:00000014
#00614:14
#00618:0014
#00714:14
#00718:0014
#00712:00000014
#00818:14
#00814:0014
#0091a:1414
#00914:00140014
#00910:41
#01018:1414
#01012:00140000
#01112:1414
#01118:00140014
#01214:1414
#0121a:00140000
#0131a:14
#01314:00140000
#01318:0014
#01312:00000014
#0141a:14
#01414:00140000
#01418:0014
#01512:14
#01518:00140000
#01514:0014
#0151a:00000014
#01712:00000014
#0171f:11
#01912:1414
#0191a:00140014
#02012:14
#02016:00140000
#0201a:0014
#0211a:00000014
#0231a:1414
#02312:00140014
#0241a:14
#02416:00140000
#02412:0014
#0291a:00140000
#02916:0014
#02912:00000014
#03014:0000140000000014
#03018:2600001400001400
#03012:0016
#0301f:21
#03114:0000140000000014
#03118:2600001400001400
#03112:0016
#03110:41
#03418:0000140016000014
#03414:0000001400001400
#03412:26
#03518:0000140016000014
#03514:0000001400001400
#03512:26
#03812:0000140016000014
#03818:2600001400001400
#03914:0000140000000014
#0391a:0000001400001400
#03912:0016
#03918:26
#04214:14
#0421a:00140000
#04212:0014
#04210:41
#04712:00001416
#0471a:0000000000140000
#04718:00260000
#04818:14260000
#04814:0014000000000000
#04812:00001416
#0481a:0000000000140000
#04918:14
#04914:0014000000000000
#05314:14
#05318:0014000000000000
#05514:0014
#0551a:0000000000140000
#05512:00000016
#05518:00260000
#05618:14260000
#05612:0014000000001600
#05614:0014
#0561a:0000000000140000
#05718:14
#05712:0014000000000000
#05912:00140000
#0591a:0014
#05914:00000014
#0631a:00140000
#06316:0014
#06312:00000014
#06418:00000014
#06412:00000014
#06414:00140000
#0641a:00140000
#06410:00410000
#06514:00140000
#0651a:00140000
#06512:0000000000140000
#06518:0000000000140000
#07516:0014
#07512:00000014
#0751a:00140000
#07618:14
#07612:00140000
#0761a:0014
#07614:00000014
#07718:14
#08312:00000014
#0841a:14000014
#08416:00140000
#08412:0014
#0851a:00000014
#08612:14000014
#08616:00140000
#0861a:0014
#08714:00000014
#08818:14
#08812:00140000
#08918:00000015000000000015000000000015
#08917:1700001700001700
#0501a:00140000
#05016:0014
#05018:0000000000340000
#0581a:00140000
#05816:0014
#05818:0000000000340000
#05412:00140000
#05416:0014
#05414:0000000000340000
#06014:00000014
#06018:00140000
#0611a:00140000
#06212:00140000
#07112:00140000
#0711a:0014
#07114:00000014
#06614:00141400
#06618:0000001400000000
#06712:0014
#06718:00000014
#06716:00280000
#06814:14
#0681a:00140000
#06812:0014
#06816:00000014
#0691a:14
#07218:14
#07212:00140000
#0721a:0014
#07216:00000014
#07312:14
#07916:0014
#0791a:00000014
#07912:00140000
#07910:00410000
#08014:14
#0801a:00140000
#08012:0014
#08018:00000014
#08114:14
#0511a:0014
#05112:0000260000140000
#05118:00000016
#05110:00410000
#05214:14
#05218:0014000000001600
#0521a:0014
#05212:0000260000140000
#09018:00000000001500000000001500000000
#09017:0017000017000017
#09118:00150000000000150000000000150000
#09117:0000170000170000
#09218:00000015000000000015000000000015
#09217:1700001700001700
#0331a:14
#03316:0000343400000000
#03712:14
#03716:0000343400000000
#01612:24
#01618:00240000
#01614:0024
#02814:0000340034343434
#04116:0000003400000000
#04514:0034
#04516:0000000000000034
#01654:0014
#03058:16
#03052:0016
#03158:16
#03152:0016
#03458:0016
#03452:16
#03558:0016
#03552:16
#03852:0016
#03858:16
#03952:0016
#03958:16
#04654:00000018
#04752:00000016
#04758:00160000
#04852:00000016
#04858:00160000
#05552:00000016
#05558:00160000
#05652:00000016
#05658:00160000
#06458:00000054
#06452:00000054
#06454:00640000
#0645a:00640000
#06554:00640000
#0655a:00640000
#06552:0000000000240000
#06558:0000000000240000
#08957:6700006700006700
#08958:00000025000000000025000000000025
#0505a:00640000
#05056:0024
#0585a:00640000
#05856:0054
#05452:00540000
#05456:0024
#06054:00000064
#06058:00540000
#0615a:00640000
#06252:00540000
#06756:00180000
#05158:00000016
#05152:00160000
#05258:00000016
#05252:00160000
#09058:00000000002500000000002500000000
#09057:0067000067000067
#09158:00250000000000250000000000250000
#09157:0000670000670000
#09258:00000025000000000025000000000025
#09257:6700006700006700
#0335a:64
#03752:54
#0173a0:14
#017380:0024
#018380:14
#0183a0:0024
#021320:14
#021340:0024
#022340:14
#022320:0024
#0253a0:14000024
#025380:00343400
#026320:14000024
#026340:00343400
#027380:14000024
#0273a0:00343400
#028340:1400340034343434
#029320:28
#0323a0:14240000
#032320:00001424
#0333a0:14
#033360:0000343424000000
#036320:14240000
#0363a0:00001424
#037320:14
#037360:0000343424000000
#040380:14240000
#040340:00001424
#0413a0:14
#041360:0000343424000000
#0433a0:14
#043380:00240000
#043320:0014
#043340:00000024
#0443a0:14
#044360:0024
#044320:00000014
#045320:34
#045340:0034
#045360:0000000000003434
#046340:00000028
#049380:00140000
#0493a0:0024
#049340:00000014
#050320:24
#0503a0:00140024
#050360:0034
#050380:0000000000340000
#053340:00140000
#053320:0024
#053380:00000014
#0543a0:24
#054320:00140024
#054360:0034
#054340:0000000000340000
#0573a0:00140000
#057380:0024
#057320:00000014
#058340:24
#0583a0:00140024
#058360:0034
#058380:0000000000340000
#060380:00140000
#0603a0:0024
#060340:00000014
#061320:24
#0613a0:00140000
#061360:00000024
#062320:14340000
#063360:24
#0643a0:00140000
#064380:0024
#064341:00140000
#064321:0024
#064321:00000014
#065341:24
#064380:00000014
#0653a0:24
#0653a0:00140000
#065380:0000000000540000
#0663a0:24
#065341:00140000
#065321:0000000000540000
#066341:24
#066381:0000000000140000
#067361:00280000
#069341:00140000
#070321:24
#070381:00140000
#0713a1:24
#073381:00140000
#0743a1:24
#074341:00140000
#075321:24
#077321:00140000
#078341:24
#0783a1:00140000
#079381:24
#0813a1:00140000
#082381:24
#082321:00140000
#083341:24
#0833a1:00140000
#083381:0024
#085321:00140000
#085341:0024
#0873a1:00140000
#087381:0024
#088371:0000000017575757
#088381:00000000000000000055005500550055
#089371:5700005700005700
#089381:00000055000000000055000000000055
#090371:0057000057000057
#090381:00000000005500000000005500000000
#091381:00550000000000550000000000550000
#091371:0000570000570000
#092371:5700005700005700
#092381:00000055000000000055000000000055
#098391:23
