This file was generated by Ched 2.7.0.0.
#TITLE ""
#ARTIST ""
#DESIGNER ""
#DIFFICULTY 0
#PLAYLEVEL
#SONGID ""
#WAVE ""
#WAVEOFFSET 0
#JACKET ""
#REQUEST "ticks_per_beat 480"
#00002: 4
#BPM01: 102
#00008: 01
#TIL00: ""
#HISPEED 00
#MEASUREHS 00
#0001a:14
#02514:14
#0011a:14
#00214:14
#00314:14
#0081a:14
#00810:41
#00912:14
#01018:14
#01114:14
#0121a:14
#01412:14
#01812:16
#01818:0016
#01912:16
#01918:0016
#02218:16
#02212:0016
#02318:16
#02312:0016
#01318:14
#01514:14
#02712:14
#0331a:14
#03412:14
#0351a:14
#0381a:14
#03912:14
#04512:14
#04818:1616
#04912:1616
#0601a:14
#06012:0014
#0611a:14
#06112:0014
#06118:00000024
#04212:14
#0421a:0014
#05212:0016
#05218:16
#0241a:14
#02410:41
#02618:14
#03012:14
#0301a:0014
#03112:14
#0311a:0014
#0441a:0014
#05412:14
#05410:00410000
#05518:14
#05614:14
#0571a:14
#0401f:11
#03214:24
#03210:41
#01618:2626
#01610:41
#02012:2626
#04618:26
#04612:0026
#0461f:21
#04610:0041
#06214:24
#04718:26
#04712:0026
#004380:14
#005380:24
#006320:14
#007320:24
#017380:1626
#021320:1626
#028380:14
#0283a0:0034
#0293a0:34
#029380:0024
#036340:14
#037340:24
#040380:14
#041380:24
#043340:14
#044320:24
#050380:1626
#051320:1626
#053380:1626
#058340:14
#058320:0034
#059320:34
#059340:0024
