This file was generated by Ched 2.7.0.0.
#TITLE ""
#ARTIST ""
#DESIGNER ""
#DIFFICULTY 0
#PLAYLEVEL
#SONGID ""
#WAVE ""
#WAVEOFFSET 0
#JACKET ""
#REQUEST "ticks_per_beat 480"
#00002: 4
#BPM01: 102
#00008: 01
#TIL00: ""
#HISPEED 00
#MEASUREHS 00
#00015:13
#00012:000000000013000000130000000000000000130000000000
#00018:000000131300000000000000
#0001b:130000000000000000000013000000000000000000000000
#00115:130000000000000013000000000000133333000000000000
#0011b:1300001300000000
#00118:00130013
#00112:000000000013000000000000000000000000000000000000
#00417:13
#00414:0013000000000000
#0041b:000000130000001300000000
#00412:130000000000000000000013000000000000000013000000
#00416:000000000000130000000000000000130013000000000000
#00419:0013000000001300
#00517:130000000000000000000000000000133333000000000000
#00516:0013000000000000
#0051b:00130000
#00512:000000000000000000130000000000133333000000000000
#00812:00130000
#00817:001300
#0081b:130000000000000000000013000000000000000000130000
#00818:000000000000000000000000000000000013000000000000
#00815:0000000000000013
#00816:1313
#00810:41
#0111b:1313000000000013
#01118:00130000
#01115:000000130000000013000000000000000000000000000000
#01112:00130000
#01212:0000131300000000
#01217:0013130000000000
#01215:000000000000000000000000000000130000000000000013
#0121b:000000000000000000000000000000000000000000000013
#01318:000013000000130000000000000000000000000013000013
#01312:000000130013000000000000000000000000000000130000
#01315:000000000000000013000013000000000000000000000000
#0131b:000000000000000000000013000000000000000000000000
#01412:000013000000000000130000000000000013000000000000
#0141b:000000130000000013000013000000000000000000130000
#01415:000000000013000000000000000013000000000000000000
#01418:0000000000130000
#01512:000000130013000000000013000000000000000000000000
#01518:000000130000330033000000
#01515:000000001300003300000000
#0151b:000000000000000000000013000000000000000000000000
#01618:260000130000000000000000000013000000000000130000
#01615:000000000000000000130000130000000000130000000013
#01612:000000000000260000000000000013000000000000130000
#0161b:000000000000000000000000230000000023000000000000
#01610:41
#01712:0013001300000000
#0171b:000000130000000000130000000033133300000000000000
#01718:1313
#01715:00130013
#01812:000013000000000000000000000000000000000000130000
#01817:000000130000000000000000000000000000000013000000
#01814:000000000013000000000000000000000000130000000000
#01819:000000000000130000000000000000000013000000000000
#0181b:000000000000000000130000000013000000000000000000
#01816:000000000000000013000000000000130000000000000000
#01815:130000000000000000000000000000000000000000000013
#01915:0013002300000000
#01912:00131300
#0191b:0023000013000013
#01918:230000000000230000000000000000000013000000000000
#02312:0023000013000000
#02315:2300230000130013
#02318:000000130000000000230000000000130000000000000013
#0231b:00131300
#02415:130000130000130000001300
#02412:000000130000000000000000000000000013000000000000
#02418:000000000000000013000013000000000000000000000000
#0241b:0000000000000013
#02410:41
#02518:130000001300001300000000
#0251b:000013000013000000000013000000000000130000000000
#02515:000000000000130000000000230000000023000000000000
#02512:1300001300000000
#00218:13
#0021b:000000000013000000130000000000000000130000000000
#00215:000000131300000000000000
#00212:130000000000000000000013000000000000000000000000
#00318:130000000000000013000000000000133333000000000000
#00312:1300001300000000
#00315:00130013
#0031b:000000000013000000000000000000000000000000000000
#00616:13
#00619:0013000000000000
#00612:000000130000001300000000
#0061b:130000000000000000000013000000000000000013000000
#00614:0013000000001300
#00617:000000000000130000000000000000130013000000000000
#00915:000000000013000000000000000000000000000000000000
#00912:1300001300000013
#0091b:0000000013000013
#00917:13
#00918:000000000000000000130000000000000013000000000000
#00916:0013
#01015:1300000000130000
#0101b:000000000000000013000000000000000013000000000000
#01012:000000000000000000130000000000000000000000000013
#01018:0000000000000013
#02015:000000130000000000000000000013000000000000130000
#02018:000000000000260000130000130000000000130000000013
#0201b:000000000000000000000000000013000000000000130000
#02012:260000000000000000000000230000000023000000000000
#0211b:0013001300000000
#02112:000000130000000000130000000033133300000000000000
#02115:1313
#02118:00130013
#03015:000000130000000000000000000013000000000000000000
#03012:13001313
#0301b:13131300
#03018:000013000000000000000000000000130000000000000000
#0311b:13
#03112:13
#03118:001300000000000000000000
#03115:0013000000000000
#03114:0013
#03119:0013
#03116:00000024
#0261b:000000130000000000000000000000000013000000000000
#02615:000000000000000013000013000000000000000000000000
#02618:000000130000130000001300
#02612:0000000000000013
#02715:130000001300001300000000
#02712:000013000013000000000013000000000013000000000000
#02718:00131300
#0271b:1300001300130000
#02713:000000000000000000000033
#02714:000000000000000000000000000000000000000000000033
#0271a:000000000000000000000000000000000000003300000000
#02719:000000000033
#03217:000000000013000000000000000000000000000000000000
#03212:2400130000000013
#03214:0000001300000000
#03219:001300
#0321b:000000000000000000000013000000130000000000000000
#0321a:24
#03210:41
#0331b:0000001300000000
#03315:001300
#03318:00131313
#03312:000000000013000000000013000000130000000000130000
#03316:13
#03512:0000001300000000
#03518:001300
#03515:00131313
#0351b:000000000013000000000013000000130000000000130000
#03517:13
#0341b:1300130000000013
#03416:000000000013000000000000000000000000000000000000
#03419:0000001300000000
#03414:001300
#03412:000000000000000000000013000000130000000000000000
#0361b:000000000013130000000000000000000013130000000000
#03612:130000000000000000000013130000000000000000000013
#03614:000000000013
#03619:0000000000000013
#03618:23
#0371b:000000000013130000000000000000000000130000000000
#03716:000000000013130000000000000000000000000000000000
#03714:00000013
#03712:0000001300000000
#03717:23
#03815:000013000000000000130013000000000000000013000000
#03812:000000000013000000000000000013000000130000000000
#0381b:000000000000000000000013000000000000000000000013
#03818:000000000000000000000000000000130013000000130000
#03915:000000000012000012000000000000130013000000000013
#03919:0000121200000000
#0391b:000000000000000000000012000013000000130000000000
#03912:000000000013
#03918:000013000000000000000000000000000000000000130000
#03913:000000000000000000000012000000000000000000000000
#04012:000000000013130000000000000000000013130000000000
#0401b:130000000000000000000013130000000000000000000013
#04019:000000000013
#04014:0000000000000013
#0401f:11
#04112:000000000013130000000000000000000000140000000000
#04117:000000000013130000000000000000000000000014000000
#0411a:00000014
#04114:000000000000000000000023000000000000000000001400
#0411b:0000001300000000
#04116:23
#04212:14141414
#0421a:14141414
#04215:001400000000000000001300
#04218:000000001400000000000000000000000000000000130000
#04217:001400
#04214:000000000014000000000000
#04216:000000000000000000000000000014000014000000000000
#04315:000000130000000000001300
#04318:13001313
#04312:000000000000000000130000000000000000130000000013
#0431b:0013000000130013
#04412:00131313
#0441b:000000000000001300001300
#04418:00001313
#04415:0023002300230023
#04615:0013001300130013
#04612:00131313
#0461b:000000000000000000000000000000000013000000000000
#04618:000000000000001300001300
#0461f:21
#04610:0041
#04815:13
#0481b:1313000000130013
#04812:00130013
#04819:0000001300000000
#04814:0013
#04915:000000000000000000000000130000000013000000000000
#04918:000000000000130000000000000013000000001300000000
#04912:130000000000000000130000000013000000001300000000
#0491b:000000130000000000000000000000000013000000000000
#05016:0013000000000000
#05017:0000001313000013
#0501b:000000130000001300130000
#05012:23001313
#05015:000000000000000000000000000000000013000000000000
#05019:00000000000000000000000000130013
#0511b:13130000
#05117:0013001300000000
#05119:00130013001300130000000000000000
#05112:1313000013001300
#05118:000000000000000000000000000013000013000000000000
#05115:00130000
#0521b:130000000013000000000000000013000000000013000000
#05212:000013000000000013000000000000000013000000000013
#05217:0013001300001300
#05216:0000130000130013
#0531b:0013000013000000
#05318:230000000000000000000000000000130000000000000013
#05319:00130000
#05317:0000001300000000
#05312:0000002313000000
#05315:000000000000000000000000000000130000000000000013
#05316:0023000000000000
#05314:00230000
#05412:0026130000130000
#05418:0026130000000000
#05415:000000000000000013000013000000000000000000000000
#05416:000000000000000000000000000000000013000000000000
#05419:00000013
#05414:000000000013
#05417:0000000000000013
#05410:00410000
#05512:131300
#05518:000013000013000000130000000013000000000000000000
#05515:000000000000130000000000230000000023000000000000
#0551b:130000000000000000000013000000000000130000000000
#05517:0000000000000013
#05612:0013000000000000
#05618:000000130000000013000013000000000000000000000000
#0561b:0000130000130000
#05617:000000000000000000000000000000000013000000000000
#05614:00000013
#05619:000000000013
#05616:0000000000000013
#05615:13130000
#0571b:130000000000000013000000000000130000003333003333
#05715:000013000013000000130000000013000000000000130000
#05718:00131300
#05712:130000000000000000000013000000000013000000000000
#06112:14142400
#0611a:14142400
#06115:001400000000000000000000
#06118:001400000000
#06117:000000001400000000220000
#06114:000000000014000000000000
#04515:0000000000000013
#04518:0000000000000013
#04514:000000000000232323230000
#04519:000000000000232323230000
#00716:130000000000000000000000000000133333000000000000
#00717:0013000000000000
#00712:00130000
#0071b:000000000000000000130000000000133333000000000000
#0221b:000013000000000000000000000000000000000000130000
#02216:000000130000000000000000000000000000000013000000
#02219:000000000013000000000000000000000000130000000000
#02214:000000000000130000000000000000000013000000000000
#02212:000000000000000000130000000013000000000000000000
#02217:000000000000000013000000000000130000000000000000
#02218:130000000000000000000000000000000000000000000013
#04718:0013001300130013
#0471b:13131313
#04712:130000000000000000000000000000000013000000000000
#04715:000000000000001300001300
#0601b:13131300
#0601b:13
#06015:000000130000000000000000000013130000000000000000
#06012:13001313
#06012:13
#06018:000013130000000000000000000000130000000000000000
#02919:0000001300000013
#0291b:13130000
#02917:0013
#02916:00000013
#02914:0000000000000013
#02812:00130000
#02814:0000001300000013
#02816:2313
#02817:00000013
#02819:0000000000000013
#05914:0000001300000013
#05912:13130000
#05916:0013
#05917:00000013
#05919:0000000000000013
#0581b:00130000
#05819:0000001300000013
#05817:2313
#05816:00000013
#05814:0000000000000013
#01352:00000013
#01358:000000000000000000000000000000000000130000000053
#0135b:000000000000000000000063000000000000000000000000
#01355:000000000000000000000063000000000000000000000000
#02355:0000000000230000
#02352:00005333
#0235b:00006343
#02358:0000000000230000
#0045b:00630000
#00452:000000000000000000000053000000000000000000000000
#0085b:63
#00856:0063
#00057:00000013
#0005b:000000000000000000000063000000000000000000000000
#00252:000000000000000000000053000000000000000000000000
#00256:00000013
#00557:5300000000230000
#00556:0063000000004300
#0055b:00630043
#00552:0000000000230000
#00652:00530000
#0065b:000000000000000000000063000000000000000000000000
#00957:53
#00956:0063
#01552:000000000000000000000053000000000000000000000000
#0155b:000000000000000000000053000000000000000000000000
#01758:53005333
#0175b:0023001300230000
#01755:00630033
#01752:0013002300000000
#02155:63006343
#02158:00530043
#02152:0023001300230000
#0215b:0013002300000000
#0125b:000000000000000000000000000000000013000000000000
#03352:0000000000530063
#03358:00006353
#0335b:0000000000130013
#03355:00000013
#0365b:00630000
#03652:5353
#03658:13
#04052:00530000
#0405b:6363
#0505b:00130023
#05057:0000000000000023
#05059:00000000000000000000000000630053
#05052:13
#05157:0023002300000000
#0515b:23230000
#05159:00630053006300530000000000000000
#05152:00000053
#0535b:00006343
#05358:000000000000000000000000000000230000000000000053
#05352:00005333
#05355:000000000000000000000000000000230000000000000063
#0105b:000000000000000000000000000000000013000000000000
#01052:000000000000000000000000000000000000000000000013
#01452:000000000000000000000000000000000053000000000000
#01455:000000000063000000000000000000000000000000000000
#0145b:000000000000000000000063000000000000000000000000
#02658:13
#03756:0000000000130000
#03759:0000000000130000
#03752:0000005300000000
#0465b:43
#04652:33
#04655:0013001300130013
#02558:000000000000005300000000
#0255b:00000023
#03155:0063000000000000
#03152:00130000
#0315b:00130000
#03158:005300000000000000000000
#01658:16
#01652:00160000
#02052:16
#02058:00160000
#04352:000000130000000000000000000000130000000000000013
#0435b:0000001300000000
#00358:0000000000230000
#00155:0000000000230000
#04554:00000053
#04559:00000063
#04555:0000000000000023
#04558:0000000000000023
#00756:6300000000230000
#00757:0053000000003300
#00752:00530033
#0075b:0000000000230000
#02455:13
#0325b:0000000000130000
#03252:3400000000000013
#0325a:44
#03452:0000000000130000
#0345b:0000000000000013
#03555:00005363
#0355b:0000000000630053
#03552:0000000000130013
#03558:00000013
#04758:0013001300130013
#04952:000000000000000000000000000000000000002300000000
#04958:000000000000000000000000000000000000002300000000
#04955:000000000000000000000000000000000053000000000000
#0495b:000000000000000000000000000000000053000000000000
#05452:0016000000000000
#05458:0016000000000000
#05557:0000000000000023
#0555b:00000053
#05558:000000000000005300000000
#0565b:43
#03058:0000000000230000
#03055:0023000000000000
#03052:00330000
#0305b:00000043
#06055:0023000000000000
#06052:53330000
#06058:0000000000230000
#0605b:00006343
#0415b:0000006300000000
#04157:0000000000130000
#04154:0000000000130000
#01159:00000043
#01153:00000043
#02856:1363
#02852:00000013
#02957:0053
#0295b:00000013
#05857:1353
#0585b:00000013
#05956:0063
#05952:00000013
#0003b0:000000000000000000000013000000000000000000000000
#000370:00000023
#001350:000000000000000000000013000000333333000000000000
#001320:00000023
#002320:000000000000000000000013000000000000000000000000
#002360:00000023
#003380:000000000000000000000013000000333333000000000000
#0033b0:00000023
#0043b0:00130000
#004370:000000000000000000000023000000000000000000000000
#004321:000000000000000000000013000000000000000000000000
#004361:000000000000002300000000
#005371:13
#0053b1:0023000000000000
#005360:0013000000000000
#005320:00230000
#0053b1:00130000
#005371:0000002300000000
#005321:000000000000000000000013000000333333000000000000
#005361:00000023
#005370:000000000000000000000013000000333333000000000000
#0053b0:00000023
#006320:00130000
#006360:000000000000000000000023000000000000000000000000
#0063b1:000000000000000000000013000000000000000000000000
#006371:000000000000002300000000
#007361:13
#007321:0023000000000000
#007370:0013000000000000
#0073b0:00230000
#007321:00130000
#007361:0000002300000000
#0073b1:000000000000000000000013000000333333000000000000
#007371:00000023
#007360:000000000000000000000013000000333333000000000000
#007320:00000023
#0083b0:13
#008370:00230000
#008360:0013
#008320:000000000000000000000000000000000023000000000000
#009370:13
#0093b0:000000000023000000000000000000000000000000000000
#009360:0013
#009320:000000000000000000000000000000000023000000000000
#0103b0:13
#010380:0023000000000000
#010351:0013000000000000
#010321:002300
#010381:000000000000000000000013000000000000000000000000
#0103b1:0000000000230000
#011381:000000000000000000000013003300330033000000000000
#011391:000000000000333333230000
#011320:000000000000000000000013003300330033000000000000
#011330:000000000000333333230000
#011360:000000000000000000000000000000000000000000000013
#012320:0023000000000000
#012370:000000000000000000000013000000000000000000000000
#0123b0:000000000000000000000000000000000023000000000000
#013350:000000000000000000000013000000000000000000000000
#013320:00000023
#0133b1:000000000000000000000013000000000000000000000000
#013381:00000023
#013381:000000000000000000000000000000000000000000000013
#0143b1:002300000000000000000000
#014351:000000000013000000000000000000000000000000000000
#014321:002300
#0143b1:000000000000000000000013000000000000000000000000
#014381:000000000000002300000000
#014321:000000000000000000000000000000000013000000000000
#014351:0000000000000023
#014381:000000000000000000000000000000000000000000000013
#015381:0023000000000000
#015321:000000000000000000000013000000000000000000000000
#015351:000000000000003300230000
#0153b0:000000000000000000000013000000000000000000000000
#015380:000000000000330033230000
#016320:13
#016350:0023000000000000
#0163b0:00130000
#016380:0000002300000000
#017380:13230000
#0173b0:0053000000000000
#017351:00132300
#017321:0000005300000000
#017380:00001323
#0173b0:000000000000000000000000000033533300000000000000
#018360:000000000000000000000013000023000000000000000000
#019350:000000000000001300000000
#019320:000000000000000000000000000000000023000000000000
#019320:00000013
#019350:0000000000000023
#0203b0:13
#020380:0023000000000000
#020320:00130000
#020350:0000002300000000
#021350:13230000
#021320:0053000000000000
#021381:00132300
#0213b1:0000005300000000
#021350:00001323
#021320:000000000000000000000000000033533300000000000000
#022370:000000000000000000000013000023000000000000000000
#023320:00001323
#023350:0000000000530000
#0233b1:00001323
#023381:0000000000530000
#0243b1:13
#024381:0023000000000000
#024381:000000000000000000000000000000130023000000000000
#0243b1:000000000000000000132300
#025381:000000000000001300000000
#0253b1:000000000000000000000000000000000023000000000000
#0253b1:00000013
#026381:23
#026320:13
#026350:0023000000000000
#026350:000000000000000000000000000000130023000000000000
#026320:000000000000000000132300
#0273b0:00000013
#0273a0:000000000000000000000000000000000000003300000000
#027390:000000000033
#027370:0000000000000023
#027321:0000000000000013
#027331:000000000000000000000033
#027341:000000000000000000000000000000000000000000000033
#028361:23
#0283b0:1323
#028370:000000000033330000000000000000000000000000000000
#028390:0000003300000000
#028361:0013
#028321:00000023
#029321:1323
#029361:000000000033330000000000000000000000000000000000
#029341:0000003300000000
#029370:0013
#0293b0:00000023
#030350:0013000000000000
#030320:00230000
#030380:0000000000130000
#0303b0:00000023
#031380:001300000000000000000000
#0313b0:00230000
#031351:0013000000000000
#031321:00230000
#032361:0013
#032321:00000023
#032370:00000013
#0333b0:23
#033380:0013
#0333b0:0000000000230000
#033321:0000000000130000
#033351:00000023
#033380:00000013
#0333b0:0000000000000023
#033321:0000000000000013
#034351:23
#034371:0013
#0343b1:00000023
#034360:00000013
#035320:23
#035350:0013
#035320:0000000000230000
#0353b1:0000000000130000
#035381:00000023
#035350:00000013
#035320:0000000000000023
#0353b1:0000000000000013
#036381:23
#036320:13
#036360:00230000
#0363b1:00130000
#036371:0023
#036320:0013
#036360:00000023
#037320:0000001300000000
#037360:000000000000000000000053000000230000000000000000
#037391:000000000000000000000013000000230000000000000000
#0373b1:000000000000000000000000000000000000000000000013
#0383b1:002300000000000000000000
#038381:000000130023000000000000000000000000000000000000
#0383b1:0000132300000000
#038351:000000000000000000000000000000000000000000000013
#039321:002300000000000000000000
#0403b1:13
#040371:00230000
#040320:00130000
#040360:0023
#0403b1:0013
#040371:00000023
#0413b1:0000001300000000
#041371:000000000000000000000053000000230000000000000000
#041340:000000000000000000000013000000230000000000000000
#043350:13
#043320:0023000000000000
#043380:00130000
#0433b0:0000002300000000
#043350:0013
#043320:0000000000230000
#043380:000000000000000000000000000000000000000000000013
#0443b0:0000002300000000
#045360:140000000034340034240000000000000000000000000000
#045340:00000013
#045350:0000000000000053
#046320:23
#045391:00000013
#045381:0000000000000053
#0463b1:23
#046381:0013000000000000
#0463b1:00230000
#0463b1:0000001300000000
#046381:0023
#047351:0013000000000000
#047321:00230000
#047321:0000001300000000
#047351:0023
#048321:000013230000000000000000000000000000000000000000
#0483b1:000000000013230000000000000000000000000000000000
#048341:000000000000000013230000000000000000000000000000
#048391:000000000000000000000013230000000000000000000000
#048361:000000000000000000000000000013230000000000000000
#048371:000000000000000000000000000000000013230000000000
#048341:000000000000000000000000000000000000000013230000
#048391:000000000000000000000000000000000000000000000013
#049391:23
#049321:0013000000000000
#049351:00230000
#0493b1:0000001300000000
#049381:0023
#049351:000000000000000000000000000000000013000000230000
#049321:000000000000000000000000000000000000005300000000
#0493b0:000000000000000000000000000000000013000000230000
#049380:000000000000000000000000000000000000005300000000
#050370:13
#0503b0:0023000000000000
#050360:00130000
#050320:0000002300000000
#0503b0:00000013
#050390:00000000000000000000000000530053
#050370:0000000000000053
#0513b0:53532300
#051390:00530053005300530000000000000000
#051370:0053005300000000
#051320:00000013
#052360:23
#052320:000000000000000000000013000023000000000000000000
#0533b0:00001323
#053380:0000000000530000
#053321:00001323
#053351:0000000000530000
#053351:000000000000000000000000000000000000000000130053
#054321:0026000000000000
#053380:000000000000000000000000000000000000000000000013
#054380:0026000000000000
#054380:0013
#0543b0:0000000000230000
#055380:000000000000001300000000
#0553b0:000000000000000000000000000000000023000000000000
#0553b0:00000013
#055370:0000000000000053
#0563b0:23
#056350:0013
#056320:0000000000230000
#057370:00000013
#0573b0:000000000000000000000000000000000000003333333333
#058370:23
#058321:1323
#058361:000000000033330000000000000000000000000000000000
#058341:0000003300000000
#058370:0013
#0583b0:00000023
#0593b0:1323
#059370:000000000033330000000000000000000000000000000000
#059390:0000003300000000
#059361:0013
#059321:00000023
#060321:13230000
#060351:0053000000000000
#0603b1:00001323
#060381:0000000000530000
#061371:00000012
#062371:22
