This file was generated by Ched 2.7.0.0.
#TITLE ""
#ARTIST ""
#DESIGNER ""
#DIFFICULTY 0
#PLAYLEVEL
#SONGID ""
#WAVE ""
#WAVEOFFSET 0
#JACKET ""
#REQUEST "ticks_per_beat 480"
#00002: 4
#BPM01: 102
#00008: 01
#TIL00: ""
#HISPEED 00
#MEASUREHS 00
#0001b:130000000000000000000013000000000000000000000000
#00015:000000000013000000000000000000000000000000000000
#00018:000000000000130033330000000000000000000000000000
#00115:13
#00118:000000000013000013000013000000000000000000000000
#00112:0000131300000000
#00415:130000000000000000000000000000000033330000000000
#00418:000000130000000000000000000000000033330000000000
#0041b:000000000000130000000013000000000000000000000000
#00412:000000000000130000000013000000000000000000000000
#0041a:000000000000000000000000000033330000000000000000
#00413:000000000000000000000000000033330000000000000000
#0081b:1300000000000013
#00815:001300
#00818:000000000000000000000013000000000000000000000000
#00812:0013
#00810:41
#01118:140000140000000014000000000000000000000000000000
#01114:00140000
#0111b:0000000000000013
#01115:000000000000000000000000000000000000000000000013
#01215:000000000000000000130000000000000000000000000013
#01218:00130000
#0121b:000000130000000000000000000000000000000000000013
#0121a:0000000000330000
#0131b:000000000000130000000013000000000000000000000000
#01315:000013000013
#01318:0013000000000013
#01312:000000130000000000000000000000000000000000000013
#01418:000013000000000000140000000014000000000000000000
#01415:0013000000000000
#01414:000000000000000014000000000000140000000000140000
#0141a:000000000000000000000000000000000014000000000014
#0141b:000000000013000000000000000000000000000000000000
#01412:000000000000000000000014000000000000000000000000
#01618:260000000000260000000000230000000023000000130000
#01615:000000130000000000130000000000000000000000000013
#01612:000000000000001300130000
#01610:41
#0171b:0013001300000000
#01712:0013001300000000
#01718:13
#01715:00130000
#01818:000000130000000000000000000013000000000000000000
#01815:000013000000000000000000000000130000000000000000
#01813:003300
#01812:0000003300000000
#0181a:000000000033
#0181b:0000000000000033
#01918:0013
#01916:24240000
#0191a:0024000000000000
#01912:0000002400000000
#02312:0000002400000013
#0231b:0013
#02318:000000000000000000000000000000130000000000000013
#02316:24240000
#0231a:0024000000000000
#00912:0000001313000000
#0091b:13
#02814:000000000000000000000014000000000000000000000014
#02812:000000000000000000000000000000000014000000000000
#02818:0000002400000024
#0281a:0000000000240000
#02912:000000000014000000000000000000000000000000001400000000000000000000000000000000000000000000000000
#02914:000000000000000000000000000000000000000000000000000000000014000000000000000000000000000000000000
#02918:0000002400000000
#03215:00130000
#0321b:0000001300000000
#03218:000000000013000000000000000000000000000000000000
#03212:24
#0321a:24
#03210:41
#0331b:0000001300130013
#03318:000000000013000000000000000000000000130000000000
#03315:13131300
#03312:0000000000130013
#03618:130000000013
#03618:13
#03615:0000130000001313
#0361b:0013
#03718:000000000000130000000013000000000000000000000000
#03715:000000000013000000130000000000000000000000000013
#0371b:23
#03712:23
#03815:0000130000130013
#0381b:000000000000000000000013000000000000000000000000
#03813:00000013
#03818:000000000000001300001300
#03812:0013000000000000
#0381a:000000000000000000000000000000000013000000000000
#0411a:000000000000000000140014
#04114:000000000014
#04118:000000000013000000000000000000000000000000000000
#04112:230000000000000000330013000000000000000000000000
#0411b:23
#04115:00230000
#04212:141400140000
#04218:001400000000001400131300
#0421a:000000140014000000000000
#04214:001400
#04215:000000000000000000000000000000000013000000130000
#04312:13131313
#0431b:1313
#04315:0013001300000000
#04318:0000130000130000
#04314:000000000000000000000000000000000000000033330000
#04415:0000001300001300
#04412:0013000000130000
#04418:00131300
#0441b:0023002300230023
#05018:230000000000000000000000140000000014000000000000
#0501b:00130000
#05012:0013000000000000
#05014:000000000000001400140000
#05015:0000001300000000
#05412:00130013
#0541b:00130013
#05418:0013
#05415:000000000000000000000013000000130000000000000000
#05416:0024000000000000
#05410:00410000
#0611a:141400240000
#06116:001400001400000000240000
#06112:000000140014000000000000
#0051b:13
#00518:000000130000000000000013000000000000000000000000
#00515:00130000
#00512:0000001300000000
#02515:000000130000000000000000000013000000130000000000
#02518:1300001300000000
#02512:00130000
#0251b:000000000000130000000000230000000023000000000000
#02618:1313
#02612:00130013
#0261b:00130013
#02615:000000130000000000000013000000130000000000000000
#03918:000000000000000000000000000013000000000013000013
#0391b:00130013
#03912:00130013
#03915:0000000013000013
#04015:130000000013
#04018:0000130000001313
#04012:0013
#0401f:11
#04918:00131300
#04915:000000130000000000000000000013000000000000000000
#0491b:1300001300000000
#04912:1300001300000000
#04612:0013000000130000
#04615:0000001300000013
#0461b:0013
#04618:26130013
#0461f:21
#04610:0041
#04712:1313
#04718:0000001300000013
#04718:0000000000000013
#0471b:0013000000130000
#04715:00130013
#05312:0000002400000013
#0531b:0013
#05318:0000000000130000
#05316:24240000
#0531a:0024000000000000
#06015:0013000013000000
#06018:1300000000130000
#00212:130000000000000000000013000000000000000000000000
#00218:000000000013000000000000000000000000000000000000
#00215:000000000000130033330000000000000000000000000000
#00318:13
#00315:000000000013000013000013000000000000000000000000
#0031b:0000131300000000
#00618:130000000000000000000013000000000000000000000000
#00615:000000130000000000000013000000000000000000000000
#00612:000000000000130000000000000000000033330000000000
#0061b:000000000000130000000000000000000033330000000000
#00614:000000000000000000000000000033330000000000000000
#00619:000000000000000000000000000033330000000000000000
#0101b:130000130000000033000000000000000000000000000000
#01018:000000000000000000000000001300000000000000000000000000000000000000000000000000000000000000000000
#01015:000000000000000000000000000000000000000000000000000000000000000000000000001300000000000000000000
#01012:0000000000130000
#01512:000000000000000000000014000000000000000000000000
#01517:000000341434340000000000000000000000000000000000
#01515:000000000000000000000000000000000000000000000000000000000014000000000000000000000000000000000000
#02015:000000000000000000000000230000000023000000130000
#02018:000000130000000000130000000000000000000000000013
#0201b:000000000000001300130000
#02012:26260000
#02112:0013001300000000
#0211b:0013001300000000
#02115:13
#02118:00130000
#02215:000000130000000000000000000013000000000000000000
#02218:000013000000000000000000000000130000000000000000
#0221a:003300
#0221b:0000003300000000
#02213:000000000033
#02212:0000000000000033
#02415:1313
#0241b:00130013
#02412:00130013
#02418:000000130000000000000013000000130000000000000000
#02410:41
#02712:00131300
#02715:130000000000000000130000000000000013000000000013
#0271b:0000130000230023
#02718:0013000000000000
#04818:000000130000000013000000000000130000000013000000
#04815:000013000000000000130000000013000000000000130000
#0481b:1313
#04812:00130013
#05114:000000000000000000000000140000000014000000000000
#05118:000000000000001400140000
#05218:000000130000000000000000000013000000000000000000
#05215:000013000000000000000000000000130000000000000000
#05213:003300
#05212:0000003300000000
#0521a:000000000033
#0521b:0000000000000033
#05818:000000000000000000000014000000000000000000000014
#0581a:000000000000000000000000000000000014000000000000
#05814:0000002400000024
#05812:0000000000240000
#0591a:000000000014000000000000000000000000000000001400000000000000000000000000000000000000000000000000
#05918:000000000000000000000000000000000000000000000000000000000014000000000000000000000000000000000000
#05915:0000000000000013
#05914:0000002400000000
#05518:000000130000000000000000000013000000130000000000
#05515:1300001300000000
#0551b:00130000
#05512:000000000000130000000000230000000023000000000000
#05615:1313
#0561b:00130013
#05618:000000130000000000000013000000130000000000000000
#05612:00130013
#0571b:00131300
#05718:130000000000000000130000000000000013000000000013
#05712:0000130000230023
#05715:0013000000000000
#03015:0013000013000000
#03018:1300000000130000
#03112:13
#0311b:13
#03115:000033130000000000000000000000000000000000000000
#03118:000033130000000000000000000000000000000000000000
#03116:00000024
#03415:130000000013000000000000000000000000000000000000
#03418:00130000
#03412:0000001300000000
#00712:13
#00715:000000130000000000000013000000000000000000000000
#00718:00130000
#0071b:0000001300000000
#03512:0000001300130013
#03515:000000000013000000000000000000000000130000000000
#03518:13131300
#0351b:0000000000130013
#0451a:0024
#04512:0024
#03252:14
#0325a:14
#0505b:00130000
#05058:13
#05054:00000064
#02555:00000063
#03658:53
#03655:00630000
#0365b:0023
#03758:000000000000000000000063000000000000000000000000
#03755:000000000000000000000000000000000000000000000053
#0375b:00000013
#04652:0013000000130000
#04655:0000001300000013
#04658:16
#0085b:63
#00852:0053
#00952:0053
#0095b:63
#04055:63
#04052:0053
#04058:00530000
#00058:00530013
#0005b:000000000000000000000053000000000000000000000000
#00158:000000000000000000000023000000000000000000000000
#00355:000000000000000000000023000000000000000000000000
#00255:00630013
#00252:000000000000000000000063000000000000000000000000
#0045b:000000000000000000000053000000000000000000000000
#00452:000000000000000000000063000000000000000000000000
#0055b:00000013
#00558:000000000000000000000053000000000000000000000000
#00655:000000000000000000000053000000000000000000000000
#00658:000000000000000000000063000000000000000000000000
#01153:00000014
#0125b:000000000000000000000000000000000013000000000000
#0145a:000000000000000000000000000000000000000000000054
#01552:000000000000000000000064000000000000000000000000
#01557:002400000000
#01555:000000000000000000000000000000000000000000000000000000000024000000000000000000000000000000000000
#01658:16160000
#02052:16160000
#02755:000000000000000000000000000000000000000000000053
#02854:000000000000000000000000000000000000000000000054
#02952:000000000024000000000000000000000000000000006400000000000000000000000000000000000000000000000000
#02954:000000000000000000000000000000000000000000000000000000000024000000000000000000000000000000000000
#03852:0053000000000000
#03855:00630000
#04155:00630000
#04152:000000000000000000000053000000000000000000000000
#0475b:0013000000130000
#04758:0000001300000013
#05158:00000054
#05456:0014000000000000
#05858:000000000000000000000000000000000000000000000064
#0595a:000000000024000000000000000000000000000000005400000000000000000000000000000000000000000000000000
#05958:000000000000000000000000000000000000000000000000000000000024000000000000000000000000000000000000
#05558:00000053
#05758:000000000000000000000000000000000000000000000063
#06052:00330000
#06055:0023000000000000
#06058:0000000000230000
#0605b:00000043
#06156:00000054
#03055:0023000000000000
#03058:0000000000230000
#03052:00330000
#0305b:00000043
#03152:53130000
#0315b:63130000
#03158:0053000000000000
#03155:0063000000000000
#00755:000000000000000000000063000000000000000000000000
#00752:00000013
#01058:000000000000000000000000002300000000000000000000000000000000000000000000000000000000000000000000
#0105b:0063000000000000
#01052:0000000000530000
#01055:000000000000000000000000000000000000000000000000000000000000000000000000002300000000000000000000
#0135b:000000000000000000000053000000000000000000000000
#0235b:00006343
#02358:0000000000230000
#0535b:00006343
#05358:0000000000230000
#04355:000000000000000000000000000000000000000000000013
#04352:00000053
#02152:00000013
#0175b:00000013
#000380:000000000000130033330000000000000000230000000000
#0003b0:000000000000000000000033000000000000000000000000
#001380:000000000000000000000013000000000000000000000000
#0013b0:00000023
#002350:000000000000130033330000000000000000230000000000
#002320:000000000000000000000033000000000000000000000000
#003350:000000000000000000000013000000000000000000000000
#003320:00000023
#0043b0:000000000000000000000013000000000000000000000000
#0043a0:000000000000000000000000000033330000000000000000
#004380:000000000000000000000000000000000033330023000000
#004321:000000000000000000000013000000000000000000000000
#004331:000000000000000000000000000033330000000000000000
#004351:000000000000000000000000000000000033330023000000
#005381:000000000000000000000013000000000000000000000000
#0053b1:000000000000005300230000
#006351:000000000000000000000013000000000000000000000000
#006341:000000000000000000000000000033330000000000000000
#006321:000000000000000000000000000000000033330023000000
#006380:000000000000000000000013000000000000000000000000
#006390:000000000000000000000000000033330000000000000000
#0063b0:000000000000000000000000000000000033330023000000
#007350:000000000000000000000013000000000000000000000000
#007320:000000000000005300230000
#0083b0:13
#008380:00230000
#008320:0013
#008350:000000000000000000000000000000000023000000000000
#0093b0:13
#009380:000000000023000000000000000000000000000000000000
#009320:0013
#009350:000000000000000000000000000000000023000000000000
#0103b0:000000130000000033330023000000000000000000000000
#010380:000000000000000000005300005300000000000000000000000000000000000000000000000000000000000000000000
#010320:000000000000000000000000000000130000000000330023
#010350:000000000000000000000000000000000000000000000000000000000000000000003300005300000000000000000000
#011340:000000000000000000000014003400340034000000000000
#011330:000000000000343434240000
#012380:000000000000000000000013000000000000000000000000
#0123a0:0000000000330000
#0123b0:000000000000000000000000000000000023000000000000
#0133b0:000000000000000000000013000000000000000000000000
#013380:00000023
#0143a0:000000000000000000000000000000000000000000000014
#015370:000000345434340000000000000000000000000000000000
#0153a0:002400
#015320:000000000000000000000014000000000000240000000000
#015350:000000000000000000000000000000000000000000000000000000000054000000000000000000000000000000000000
#017380:0013
#017390:000000000000003300000000
#0173a0:000033
#0173b0:00000023
#018350:00130000
#018330:003300
#018320:000000000000000000330023000000000000000000000000
#018380:00000013
#0183a0:000000000033
#0183b0:000000000000000000000000000000000000000000330023
#019350:000000000000000000000000000013000023000000000000
#019380:0000000000001323
#021350:0013
#021340:000000000000003300000000
#021330:000033
#021320:00000023
#022380:00130000
#0223a0:003300
#0223b0:000000000000000000330023000000000000000000000000
#022350:00000013
#022330:000000000033
#022320:000000000000000000000000000000000000000000330023
#0233b0:00001323
#023380:0000000000530000
#025350:00000013
#026320:23
#027350:000000000000000000000000000000000000000000000013
#028320:00230000
#028340:000000000000000000000000000000000000000000000014
#029320:000000000054000000000000000000000000000000000000000000000000000000000000000000000000000000000000
#029340:00240000
#029320:000000000000000000000014000000000000240000000000
#029340:000000000000000000000000000000000000000000000000000000000054000000000000000000000000000000000000
#030350:000013330000000000000000000000000000000000000000
#030320:00230000
#030380:000000000000000000000000000013330000000000000000
#0303b0:00000023
#031320:13230000
#031350:000033330000000000000000000000000000000000000000
#0313b1:13230000
#031381:000033330000000000000000000000000000000000000000
#032351:0000000013230000
#032321:0000000000001323
#032380:0000000000001323
#034380:0000000013230000
#0343b0:0000000000001323
#034351:0000000000001323
#036381:13
#0363b1:000000000023000000000000000000000000000000000000
#036351:00130000
#036321:000000000000000000000023000000000000000000000000
#0363b1:0013
#036381:000000000000000000000000000000000023000000000000
#037381:000000000000000000000013000000000000000000000000
#0373b1:00000023
#037351:000000000000000000000000000000000000000000000013
#038321:000033330000000000230000000000000000000000000000
#038351:000000000033330000000000000000000000000000000000
#0383b1:000000000000000000000000000000000000000000000013
#0393b1:002300000000000000000000
#040351:13
#040321:000000000023000000000000000000000000000000000000
#040381:00130000
#0403b1:000000000000000000000023000000000000000000000000
#040321:0013
#040351:000000000000000000000000000000000023000000000000
#041351:0000130000230000
#041321:000000000000000000330033000000000000000000000000
#043321:00000013
#043341:000000000000000000000000000000000000000033330000
#043351:000000000000000000000000000000000000000000000023
#045361:140000000034340034240000000000000000000000000000
#0453a1:000000000000143434240000
#045320:000000000000143434240000
#049380:000000000000000000000000000000000013000000000000
#0493b0:0000000000000023
#049321:000000000000000000000000000000000013000000000000
#049351:0000000000000023
#050341:00000014
#051321:00240000
#051381:00000014
#0523a1:24
#052351:00130000
#052331:003300
#052321:000000000000000000330023000000000000000000000000
#052381:00000013
#0523a1:000000000033
#0523b1:000000000000000000000000000000000000000000330023
#0533b1:00001323
#053381:0000000000530000
#053361:000000000000000000000000000000000000000000000014
#054361:0024000000000000
#055381:00000013
#0563b1:23
#057381:000000000000000000000000000000000000000000000013
#0583b1:00230000
#058381:000000000000000000000000000000000000000000000014
#0593a1:000000000054000000000000000000000000000000000000000000000000000000000000000000000000000000000000
#059381:00240000
#0593a1:000000000000000000000014000000000000240000000000
#059381:000000000000000000000000000000000000000000000000000000000054000000000000000000000000000000000000
#060351:000013330000000000000000000000000000000000000000
#060321:00230000
#060381:000000000000000000000000000013330000000000000000
#0603b1:00000023
#061361:00000014
#062371:22
