This file was generated by Ched 2.7.0.0.
#TITLE ""
#ARTIST ""
#DESIGNER ""
#DIFFICULTY 0
#PLAYLEVEL
#SONGID ""
#WAVE ""
#WAVEOFFSET 0
#JACKET ""
#REQUEST "ticks_per_beat 480"
#00002: 4
#BPM01: 102
#00008: 01
#TIL00: ""
#HISPEED 00
#MEASUREHS 00
#0001c:120000000000000000000000120000000000000000000000000000000012000000000000000000000000000000000000
#00016:120000000012000000000000000000000000000000000000
#00012:0000001200000000
#00018:000000000000000012000012000000000000000000000000
#00014:000000000000000000000012000000000000120000000000
#0011c:1200001200000000
#00116:121200
#00112:000000000012000000000012000000000000000000000000
#00118:000000000000120000000012000000001200000000000000
#00114:000000000000000000000000000000120012000000000000
#00412:0012000000001300
#0041b:0000000000130000
#0041c:1212000000000000
#00414:000000000000000000000012000000000000000000000000
#00416:001200
#00418:001200
#00517:12
#0051a:0000001200001200
#00516:0012000000000000
#00518:000000000000000000000012000000001200000000000000
#00514:000000000000000000000012000000000012000000000000
#00512:1200120000120000
#00817:00121212
#00814:001200
#00812:120000000000000000000012000000000012120000120000
#0081c:000000000000000000000000000000000000000000000000000000000012000000000000000000000000120000000000
#00819:001200
#00810:41
#01116:140000140000140014000000000000000000000000000000
#01112:000000120000000012000014000000120000000000130000
#0111c:12120000
#0111a:000000000000000000000014000000000000000000000000
#01118:000000000000001212000000
#01115:000000000000000000000000001200000012000000000000
#0111b:0000000012001213
#01117:000000000000000000000000000000000000000000000013
#0121b:001300000000130000000000130000130013000000000013
#01212:130000130000000000130000001300000000000000000013
#01217:0000001300000000
#01216:000000000000000000130000000000000000000000001300000000000000000000001300000000000000000000000000
#01215:0000000000000016
#0131b:000013000000000013000013000000001300000013000000
#01312:000000000013000013000000001300000000000000000000
#01316:000000000000000000000013000000001300000000130013
#01314:000000000000000000000000000000000000000000000000000000000013000000000000000000000000000000000000
#01315:0016160000000000
#01319:000000000000000000000000000000000000000000000000000000000013000000000000000000000000000000000000
#01317:000000000000000000000000001300000000000000000000
#01517:000000130000000013000000000000000000000000000000
#01516:000000000013000000000000000000000000120000000000
#0151b:000000000000130000000013000000000000000000000000
#01512:000013000000000000000013000000000000000000000000
#01518:000000000000151413120000
#01513:0025
#01514:000000000000002400000000
#01515:000023
#01618:000000160000000013000000000000000000000000130000
#01615:260013000000260000000000000000000000000000000013
#01612:130000000000000000160000000013000000000000130000
#01616:000000000000000000000000130000000023000000000000
#0161b:00132313
#01617:000000000000001300000000
#01610:41
#01712:000000130000000000130000000013001300000000000000
#01717:0000131300000000
#0171b:13
#01716:0013000000001300
#01812:1300130000130013
#0181b:0013001300001300
#01817:130000000013000000000000000000000000000013000000
#01816:000013000000000013000013000000000013000000000013
#01819:000000000000001300000000
#0191b:23131313
#01912:000000230000000000230000130013000000000000130000
#01916:2313230000000000
#01915:00000013
#01918:000000000000001300000000
#02312:2300130000000013
#02317:230000130000230000000000000000000000000000000013
#0231b:0023002300000013
#02318:0012
#02316:0012
#02417:000000130000000000130000000000001300000000000000000000000000000000000000130000000000000000000000
#02416:000000000000130000000013000000000000000000000000
#0241b:1313000013000000
#02412:130000000000000013000000000000000000000000130000
#02415:0000000000130000
#02418:000000000000001300000000
#02414:0013000000000000
#02410:41
#0251b:130000000013000000000013000000130000000000000000
#02517:000013000000000013000000230000000023000000000000
#02516:130000000000001300001300
#02512:000013000000000000000000130000000013130000000000
#0141b:000013000013
#01412:000013000000000000000000000013000000000000000013
#01417:000000130013000000130000000000000013000000130000
#01416:000000000000000000000013000000130000000000000000
#03016:130000001300000000000013000000000000000000000000000000000000000000000000000000000000000000000000
#0301b:0000130013000013
#03012:0000001300001300
#03017:000000000000000000000000000000000000000000000000130000001300000000000013000000000000000000000000
#0361b:000000000013130000000000000000000013130000000000
#03612:130000000000000000000013130000000000000000130000
#03617:000000130000000000131300
#03616:230000000000000000000000130000000000000000000013
#03718:000000000013000000130000000000000000000000000000
#0371b:230000000000130000000013000000000000000000000000
#03712:000000000000130000000013000000000000000000000013
#03714:00000012
#0371a:00000012
#03715:0000001300000000
#03716:000000000000000000000000000000000000000000000000000000000000000000000000000000000000000000000000000000000000000000000000000000000000000000000000000000000000000000000000000000000000000000000000000000000000000014140000000000000000000000000000000000000000000000000000000000000000000000000000000000000000000000000000000000000000000000000000140000000000000000000000000000000000000000000000
#03812:000013000000130000000000000013000000000000160013
#0381b:000000130013000000000013000000000000000000000013
#03817:00000000001313000000000000000000
#03816:000000000000000000000013000000000000000000000000
#03818:000000000000000000000000000000160000000013000000
#03815:000000000000000000000000000000000013160000000000
#03914:000000000012000000000000000000000000000000000000
#03916:001300000000000000000000120000000000000000000000000000000000000000000000000000001400000000000000
#0391a:000000000000000012000000000000000000140000140000
#03918:000000000000000000120000000000130013000000000000
#0391c:000000000000000000000012000000000000000000000000
#03915:000000000000001313000000
#03912:000000000000000000000012000000000000140000140000
#03917:001300000000000000000000
#0391b:000000000000000000000000000000000000000000000013
#0411a:000000000000000000000024000000000000140000000000
#04114:00000014
#04118:000000000000000000130000000000000000000014000000
#04112:230000000000130000000000001500000000000014000000
#04116:000000000000000000000000000000000000000000000000000000000000000000000000000000000000000000000000000000000000000000000000000000000000000000000000000000000000000000000000000000000000000000000000000000000000000000000000000000000000000000000000000000000000000000000000000000000000000000000000000000000000000000000000000000000000000000000000000000000000000000000000000000000000000000000000000000000000000000000000000000000000000000000000000000000000000000000000000000000000000000000000000000000000000000000000000000000000000000000000000000000000000000000000000000000000000000000000000000000000000000000000000000000000000000000000000000000000000000000000000000000000000000000000000000000000000000000000000000000000000000000000000000000000000000000000000000000000000000000000000000000000000000000000000000000000000000000000000000000000000000000000000000000000000000000000000000000000000000000000000000000000000000000000000000000000000000000000000000000000000000000000000000000000000000000000000000000000000000000000000000000000000000000000000000000000000000000000000000000000000000000000000000000000000000000000000000000000000000000000000000000000000000000000000000000000000000000000000000000000000000000000000000000000000000000000000000000000000000000000000000000000000000000000000000000000000000000000000000000000000000000000000000000000000000000000000000000000000000000000000000000000000000000000000000000000000000000000000000000000000000000000000000000000000000000000000000000000000000000000000000000000000000000000000000000000000000000000000000000000000000000000000000000000000000000000000000000000000000000000000000000000000000000000000000000000000000000000000000000000000000000000000000000000000000000000000000000000000000000000000000000000000000000000000000000015000000000000000000000000000000000000000000000000000000000000000000000000000000000000000000000000000000000000000000000000000000000000000000000000000000000000000000000000000000000000000000000000000000000000000000000000000000000000000000000000000000000000000000000000000000000000000000000000000000000000000000000000000000000000000000000000000000000000000000000000000000000000000000000000000000000000000000000000000000000000000000000000000000000000000000000000000000000000000000000000000000000000000000000000000000000000000000000000000000000000000000000000000000000000000000000000000000000000000000000000000000000000000000000000000000000000000000000000000000000000000000000000000000000000000000000000000000000000000000000000000000000000000000000000000000000000000000000000000000000000000000000000000000000000000000000000000000000000000000000000000000000000000000000000000000000000000000000000000000000000000000000000000000000000000000000000000000000000000000000000000000000000000000000000000000000000000000000000000000000000000000000000000000000000000000000000000000000000000000000000000000000000000000000000000000000000000000000000000000000000000000000000000000000000000000000000000000000000000000000000000000000000000000000000000000000000000000000000000000000000000000000000000000000000000000000000000000000000000000000000000000000000000000000000000000000000000000000000000000000000000000000000000000000000000000000000000000000000000000000000000000000000000000000000000000000000000000000000000000000000000000000000000000000000000000000000000000000000000000000000000000000000000000000000000000000000000000000000000000000000000000000000000000000000000000000000000000000000000000000000000000000000000000000000000000000000000000000000000000000000000000000000000014000000000000000000000000000000000000000000000000000000000000000000000000000000000000000000000000000000000000000000000000000000000000000000000000000000000000000000000000000000000000000000000000000000000000000000000000000000000000000000000000000000000000000000000000000000000000000000000000000000000000000000000000000000
#04115:000000000000000000000000000000000000000000000000000000000000000000000000000000000000000000000000000000000000000000000000000000000000000000000000000000000000000000000000000000000000000000000000000000000000000000000000000000000000000000000000000000000000000000000000000000000000000000000000000000000000000000000000000000000000000000000000000000000000000000000000000000000000000000000000000000000000000000000000000000000000000000000000000000000000000000000000000000000000000000000000000000000000000000000000000000000000000000000000000000000000000000000000000000000000000000000000000000000000000000000000000000000000000000000000000000000000000000000000000000000000000000000000000000000000000000000000000000000000000000000000000000000000000000000000000000000000000000000000000000000000000000000000000000001300000000000000000000000000000000000000000000000000000000000000000000000000000000000000000000000000000000000000000000000000000000000000000000000000000000000000000000000000000000000000000000000000000000000000000000000000000000000000000000000000000000000000000000000000000000000000000000000000000000000000000000000000000000000000000000000000000000000000000000000000000000000000000000000000000000000000000000000000000000000000000000000000000000000000000000000000000000000000000000000000000000000000000000000000000000000000000000000000000000000000000000000000000000000000000000000000000000000000000000000000000000000000000000000000000000000000130000000000000000000000000000000000000000000000000000000000000000000000000000000000000000000000000000000000000000000000000000000000000000000000000000000000000000000000000000000000000000000000000000000000000000000000000000000000000000000000000000000000000000000000000000000000000000000000000000000000000000000000000000000000000000000000000000000000000000000000000000000000000000000000000000000000000000000000000000000000000000000000000000000000000000000000000000000000000000000000000000000000000000000000000000000000000000000000000000000000000000000000000000000000000000000000000000000000000000000000000000000000000000000000000000000000000000150000000000000000000000000000000000000000000000000000000000000000000000000000000000000000000000000000000000000000000000000000000000000000000000000000000000000000000000000000000000000000000000000000000000000000000000000000000000000000000000000000000000000000000000000000000000000000000000000000000000000000000000000000000000000000000000000000000000000000000000000000000000000000000000000000000000000000000000000000000000000000000000000000000000000000000000000000000000000000000000000000000000000000000000000000000000000000000000000000000000000000000000000000000000000000000000000000000000000000000000000000000000000000000000000000000000000000000000000000000000000000000000000000000000000000000000000000000000000000000000000000000000000000000000000000000000000000000000000000000000000000000000000000000000000000000000000000000000000000000000000000000000000000000000000000000000000000000000000000000000000000000000000000000000000000000000000000000000000000000000000000000000000000000000000000000000000000000000000000000000000000000000000000000000000000000000000000000000000000000000000000000000000000000000000000000000000000000000000000000000000000000000000000000000000000000000000000000000000000000000000000000000000000000000000000000000000000000000000000000000000000000000000000000000000000000000000000000000000000000000000000000000000000000000000000000000000000000000000000000000000000000000000000000000000000000000000000000000000000000000000000000000000000000000000000000000000000000000000000000000000000000000000000000000000000000000000000000000000000000000000000000000000000000000000000000000000000000000000000000000000000000000000000000000000000000000000000000000000000000000000000000000000000000000000000000000000000000000000000000000000000000000000000
#0411b:00130000
#04119:0000000000000000000000000000000000000000000000000000000000000000000000000000000000000000000000000000000000000000000000000000000000000000000000000000000000000000000000000000000000000000000000000000000000000000000000000000000000000000000000000000000000000000000000000000000000000000000000000000001500000000000000000000000000000000000000000000000000000000000000000000000000000000000000000000000000000000000000000000000000000000000000000000000000000000000000000000000000000000000000000000000000000000000000000000000000000000000000000000000000000000000000000000000000000000000000000000000000000000000000000000000000000000000000000000000000000000
#04214:140014000014000000000000
#0421a:140000001400000000001400000000000014140000000000
#04212:000014000000000014000000140000000014140000000000
#04218:001400001400140000000000
#04216:000000000000140000000000000014000000000014140000
#04316:140000000000140000000000140000000000140014000014
#0431b:0013001300130013
#04312:0000000000000013
#04417:00130000
#04418:000000000000161300161300
#04412:0000000023162316
#04415:000000220000000000220000000000000013000000000000
#0441a:0022002200000000
#0441b:0000000000230023
#04618:000000130000000000000013130000130000000000000013
#0461b:0000001300001313
#04612:000000000000130000000000130000000013130000000000
#04615:000000000000001300001300
#0461f:21
#04610:0041
#04915:130000000000000000000000130000000013000000000000
#0491b:130000000000000000130000000013000000001300000000
#04912:000000130000130000000000000013000000001300000000
#04917:00130000
#04918:000000000000000000000000130000000013000000000000
#05516:131300130000230000000000
#0551b:130000000013000013000013000013000023000000000000
#05512:001300000000000000130000
#05514:0000000000000013
#05518:0000000000000013
#06113:1424
#06118:000000000014000000000000
#06117:000000001400000000220000
#06119:141312000000240000000000
#06116:00140000
#06114:001400000013000000000000
#06115:001412000000
#01016:0000001200000000
#0101a:000000240000000000000012000000000000000000000012
#01014:000000000000000000000012000000000000000000000012
#01018:000000000000000012000000000000000023000000000000
#01012:0024000000130000
#0101b:1300000000130000
#01015:000000000000000000000000000000000023000000000000
#0291b:130000000013130000000000130000000000000000130000
#02912:000013000000000000130000000000130000000000000000
#02916:000000001300000000000000000000130000130000000000
#02914:0013000000000000
#02917:13
#03212:2c0000000013000000000000000000000000000000130000
#03216:000000000000140014000014000000000000000000000000
#0321b:0000001300130000
#03210:41
#03512:000000000018000000000018130000000000130000000013
#03516:140000000000000000000000000000001800000000000000000000130000000000000000000000130000000000000000
#03517:0000130000130000
#0351b:000000000000000000000000000000000000130000000000000000000000000000130000000000001300130000000000
#0451a:000000000012000000000000000000000000000000000000
#04518:000000120000261626000000
#04514:001200
#04516:0000001200000014
#04512:1200000000000000000000121600260016002c0000000000
#0451c:120000000000000000000012000000000000000000000000
#04815:000000130000000000000013130000000000000000000013
#0481b:130013130000000000000000000013130000000000000000
#04812:130000000013130000000000000000000013130000000000
#04818:000000000000000013130000000000000000000013130000
#0501b:000013000000130000000000130000000000130000000013
#05012:130000001300130000130000
#05018:000000000000000000000000000013000013000000000000
#05017:0000000000000013
#05015:2616161600000000
#05116:0000001300000013
#05117:0013000000000000
#0511b:1300131313001300
#05112:000000130000130000000000130000000000130000000013
#05115:000000000000000000000000000013000013000000000000
#0521b:0013001313001300
#05217:000000000013000000000000000013000000000013000000
#05212:1300130013130013
#05216:000013000000000013000000000000000013000000000000
#02812:230000000013130000000000130000000000000000130000
#02817:000000001300000000000000000000130000130000000000
#02819:0013000000000000
#0281b:000013000000000000130000000000130000000000130000
#02816:13
#00212:120000000000000000000000120000000000000000000000000000000012000000000000000000000000000000000000
#00218:000000000012000000000000000000000000000000000000
#0021c:0000001200000000
#00216:000000000000000012000012000000000000000000000000
#0021a:000000000000000000000012000000000000120000000000
#00312:1200001200000000
#00318:121200
#0031c:000000000012000000000012000000000000000000000000
#00316:000000000000120000000012000000001200000000000000
#0031a:000000000000000000000000000000120012000000000000
#0061c:1212000000000000
#0061c:12
#00612:0012000000130000
#0061b:00000013
#0061a:000000000000000000000012000000000000000000000000
#00618:001200
#00616:001200
#00717:12
#00714:0000001200001200
#00718:0012000000000000
#00716:000000000000000000000012000000001200000000000000
#0071a:000000000000000000000012000000000012000000000000
#0071c:1200120000120000
#00917:12121212
#0091a:0000001200000000
#0091c:120000000000000000000000120000000012000000000000
#00915:0000001200000000
#00912:000000000000000000000000000000000000000000000000000000000012000000000000000000000000000000000000
#02015:260000000000260013000000000000000000000000130000
#02018:000013000000000000160000000000000000000000000013
#0201b:130000000000000000000000000013000000000000130000
#02017:000000000000000000000000130000000023000000000000
#02012:0016130023001300
#02016:000000000000001300000000
#0211b:000000130000000000130000000013001300000000000000
#02116:0000131300000000
#02112:13
#02117:0013000000001300
#0221b:1300130000130013
#02216:130000000013000000000000000000000000000013000000
#02217:000013000000000013000013000000000013000000000013
#02214:000000000000001300000000
#02212:0013001300001300
#02616:000000130000000000130000000000001300000000000000000000000000000000000000130000000000000000000000
#02617:000000000000130000000013000000000000000000000000
#02612:1313000013000000
#0261b:000000000000000013000000000000000000000000130000
#02618:0000000000130000
#02615:000000000000001300000000
#02619:0013000000000000
#02712:130000000013000000000013000000130000000000130013
#02716:001300001300130000000013
#02717:130000000000000000000000000013000013001300000000
#0271b:001300000000130000131300
#03115:0013000000000000
#03112:13
#03117:13
#03118:0013000000000000
#03116:0000001400000000
#03316:140000000000140014000014000000130000000000130000
#0331b:000000000013000000000000130000000000130000000000
#03312:00000000000013000000001300000013
#03317:00000000000000000013000000130000
#03416:000000000018130000000018000000000000000000000000
#03412:000000000000000018130000000000130000000000000000
#0341b:1300000000000013
#04012:000000000013130000000000000000000013130000000000
#0401b:130000000000000000000013130000000000000000130000
#04016:000000130000000000131300
#04017:230000000000000000000000130000000000000000000013
#0401f:11
#04712:1300001300001313
#0471b:130000000000130000000000130000000013130000000000
#04715:000000130000000000000013130000130000000000000013
#04718:000000000000001300001300
#05316:230000130000230000000000120000000000000000140014
#0531b:23130000
#05318:0012
#05312:000000230000000000230000000000323232000000000000
#0531c:000000000000000000000000000000323232000000000000
#05717:130013000000130000000000130000000000001300000000
#05712:130000000013000013000013000013000013000000130013
#0571b:001300000000000000131300
#05716:000000000000000000000013
#06015:001300000000000000000000
#0601b:0000130013130013
#06016:13000013000000000000000000000000
#06012:0013001300001300
#06018:000000000000001300000000
#06017:00000000000000001300001300000000
#05616:000000130000000000130000000000001300000000000000000000000000000000000000000000000000000000000000
#05617:000000000000130000000013000000000000000000000000
#05612:1313000013000000
#0561b:000000130000000013000000000000000000000000130000
#05618:1300000000130000
#05615:000000000000001300130000
#05417:001300
#05416:120000000000130000000013000000000000000000000000
#0541b:00131300
#05412:000000260000000013000000000000000000000000130000
#05415:0000000000130000
#05418:120000260000000000000000000013000000130000000000
#05410:00410000
#05816:13000000001300000000000000001300
#05819:0013000000000000
#0581b:000013000000000000130000000000130000000000000000
#05817:000000000000000013000000000000000000000000130000000000000000130000000000000000000000000000000000
#05812:230000000013130000000000130000000000000000000000
#05917:13000000001300000000000000001300
#05914:0013000000000000
#05912:000013000000000000130000000000130000000000000000
#05916:000000000000000013000000000000000000000000130000000000000000130000000000000000000000000000000000
#0591b:000000000013130000000000130000000000000000000000
#00557:52
#00556:0062000000000000
#00554:000000000000000000000032000000000000000000000000
#00558:000000000000000000000032000000000000000000000000
#00552:00220000
#0055a:00000012
#01354:000000000000000000000000000000000000000000000000000000000063000000000000000000000000000000000000
#01356:000000000000000000000063000000002300000000630043
#01352:000000000000000000000000002300000000330000000000
#0135b:000000000000000000000063000000002300000000000000
#01359:000000000000000000000000000000000000000000000000000000000063000000000000000000000000000000000000
#01357:000000000000000000000000002300000000330000000000
#01655:16160000
#01652:000000000000000000160000000033000000000000000000
#0165b:00000043
#01658:0016000000000000
#0045c:0062000000000000
#00452:0052000000000000
#0085c:000000000000000000000000000000000000000000000000000000000022000000000000000000000000000000000000
#00857:0052
#00852:52
#0125b:002300000000000000000000000000000043000000000000
#01252:000000630000000000000000002300000000000000000000
#01256:000000000000000000230000000000000000000000006300000000000000000000000000000000000000000000000000
#01157:000000000000000000000000000000000000000000000053
#0115b:00000042
#01558:00000012
#01556:00000012
#0175b:63000043
#01757:0000631300000000
#01752:0013002300000000
#01756:0023000000004300
#01856:000000000000000000000063000000000000000000000000
#0185b:0043004300003300
#01852:0000430000330033
#02455:0000000000530000
#02457:00230023000000000000000053000000
#0245b:6363000000000000
#02452:13
#03055:00330000
#0305b:00630000
#03052:00000053
#03058:00000043
#03056:530000000000000000000023000000000000000000000000000000000000000000000000000000000000000000000000
#03057:000000000000000000000000000000000000000000000000630000000000000000000023000000000000000000000000
#03252:1c00000000000013
#0325b:0000000000130000
#03752:000000000000000000000053000000330000000000000000
#03756:000000000000000000000000000000000000000000000000000000000000000000000000000000000000000000000000000000000000000000000000000000000000000000000000000000000000000000000000000000000000000000000000000000000000000024240000000000000000000000000000000000000000000000000000000000000000000000000000000000000000000000000000000000000000000000000000000000000000000000000000000000000000000000000000
#0375b:000000000000000000000063000000430000000000000000
#03852:000000000000530000000000000000000000000000000053
#03857:00000000002300000000000000000000
#03956:002300000000000000000000000000000000000000000000000000000000000000000000000000000000000000000000
#03952:003300000000000000000000
#04652:1c
#04658:0013000000130000
#0465b:0000001300000013
#04552:0000005c
#04556:0000000000000024
#0195b:63630063
#01956:0063000000000000
#01958:000000000000006300000000
#0485b:0063000000630000
#04852:00530053
#04858:0000005300000000
#04855:0063
#05055:16160000
#05057:0000000000000023
#05052:00000053
#02859:0063000000000000
#0285b:000023000000000000630000000000000000000000000000
#02856:53
#02857:000000002300000000000000000000230000000000000000
#02852:13535333
#0295b:00636343
#02952:000023000000000000530000000000000000000000000000
#02956:000000002300000000000000000000230000000000000000
#02954:0053000000000000
#02957:63
#05552:00000053
#05554:0000000000000033
#04956:0043000000000000
#04957:0000003300000000
#0495b:630000000000000000000000000000000000002300000000
#04952:000000000000530000000000000000000000002300000000
#04955:000000000000000000000000000000000063000000000000
#04958:000000000000000000000000000000000053000000000000
#00058:000000000000000000000062000000000000320000000000
#0005c:000000000000000000000000000000000000000000000000000000000022000000000000000000000000000000000000
#00054:00000032
#00158:000000000000000000000062000000000000000000000000
#00252:000000000000000000000000000000000000000000000000000000000022000000000000000000000000000000000000
#00256:000000000000000000000052000000000000420000000000
#0025a:00000042
#00757:62
#00758:0052000000000000
#00756:000000000000000000000042000000000000000000000000
#0075a:000000000000000000000042000000000000000000000000
#0075c:00220000
#00754:00000012
#00957:0062
#00952:000000000000000000000000000000000000000000000000000000000022000000000000000000000000000000000000
#0095c:62
#01457:000000530033000000630000000000000033000000000000
#01456:000000000000000000000043000000530000000000000000
#0215b:0013002300000000
#02156:0000531300000000
#02152:53000033
#02157:0023000000003300
#0205b:000000000000004300000000
#02052:0016000000003300
#02058:0000001600000000
#02055:16160000
#02257:000000000000000000000053000000000000000000000000
#0225b:0000330000430043
#02252:0033003300004300
#02357:0053000000000000
#02352:53530013
#02358:0052
#02356:0062
#0235b:00000013
#02658:0000000000630000
#02656:00230023000000000000000063000000
#02652:5353000000000000
#0265b:13
#03155:0063000000000000
#0315b:00130000
#03158:0053000000000000
#03157:53
#03152:00130000
#03356:0000000000634363
#03352:00000000000000000000002300000023
#0335b:0000000063436343
#03357:00000000000000000023000000230000
#03557:0000000000533300
#0355b:00000000000000000000002300000000
#03552:0000000053335333
#03556:00000000000000000023000000230000
#03656:1313
#0365b:00230000
#03652:2323
#03657:00130013
#0405b:2323
#04052:00230000
#04057:1313
#04056:00130013
#04159:0000000000000000000000000000000000000000000000000000000000000000000000000000000000000000000000000000000000000000000000000000000000000000000000000000000000000000000000000000000000000000000000000000000000000000000000000000000000000000000000000000000000000000000000000000000000000000000000000000006500000000000000000000000000000000000000000000000000000000000000000000000000000000000000000000000000000000000000000000000000000000000000000000000000000000000000000000000000000000000000000000000000000000000000000000000000000000000000000000000000000000000000000000000000000000000000000000000000000000000000000000000000000000000000000000000000000000
#04152:000000000000000000000000002500000000000000000000
#04155:00000000000000000000000000000000000000000000000000000000000000000000000000000000000000000000000000000000000000000000000000000000000000000000000000000000000000000000000000000000000000000000000000000000000000000000000000000000000000000000000000000000000000000000000000000000000000000000000000000000000000000000000000000000000000000000000000000000000000000000000000000000000000000000000000000000000000000000000000000000000000000000000000000000000000000000000000000000000000000000000000000000000000000000000000000000000000000000000000000000000000000000000000000000000000000000000000000000000000000000000000000000000000000000000000000000000000000000000000000000000000000000000000000000000000000000002500000000000000000000000000000000000000000000000000000000000000000000000000000000000000000000000000000000000000000000000000000000000000000000000000000000000000000000000000000000000000000000000000000000000000000000000000000000000000000000000000000000000000000000000000000000000000000000000000000000000000000000000000000000000000000000000000000000000000000000000000000000000000000000000000000000000000000000000000000000000000000000000000000000000000000000000000000000000000000000000000000000000000000000000000000000000000000000000000000000000000000000000000000000000000000000000000000000
#04156:000000000000000000000000000000000000000000000000000000000000000000000000000000000000000000000000000000000000000000000000000000000000000000000000000000000000000000000000000000000000000000000000000000000000000000000000000000000000000000000000000000000000000000000000000000000000000000000000000000000000000000000000000000000000000000000000000000000000000000000000000000000000000000000000000000000000000000000000000000000000000000000000000000000000000000000000000000000000000000000000000000000000000000000000000000000000000000000000000000000000000000000000000000000000000000000000000000000000000000000000000000000000000000000000000000000000000000000000000000000000000000000000000000000000000000000000000000000000000000000000000000000000000000000000000000000000000000000000000000000000000000000000000000000000000000000000000000000000000000000000000000000000000000000000000000000000000000000000000000000000000000000000000000000000000000000000000000000000000000000000000000000000000000000000000000000000000000000000000000000000000000000000000000000000000000000000000000000000000000000000000000000000000000000000000000000000000000000000000000000000000000000000000000000000000000000000000000000000000000000000000000000000000000000000000000000000000000000000000000000000000000000000000000000000000000000000000000000000000000000000000000000000000000000000000000000000000000000000000000000000000000000000000000000000000000000000000000000000000000000000000000000000000000000000000000000000000000000000000000000000000000000000000000000000000000000000000000000000000000000000000000000000000000000000000000000000000000000000000000000000000000000000000000000000000000000000000000000000000000000000000000000000000000000000000000000000000000000000000000000000000000000000000000000065000000000000000000000000000000000000000000000000000000000000000000000000000000000000000000000000000000000000000000000000000000000000000000000000000000000000000000000000000000000000000000000000000000000000000000000000000000000000000000000000000000000000000000000000000000000000000000000000000000000000000000000000000000000000000000000000000000000000000000000000000000000000000000000000000000000000000000000000000000000000000000000000000000000000000000000000000000000000000000000000000000000000000000000000000000000000000000000000000000000000000000000000000000000000000000000000000000000000000000000000000000000000000000000000000000000000440000000000000000000000000000000000000000000000000000000000000000000000000000000000000000000000000000000000000000000000000000000000000000000000000000000000000000000000000000000000000000000000000000000000000000000000000000000000000000000000000000000000000000000000000000000000000000000000000000000000000000000000000000000000000000000000000000000000000000000000000000000000000000000000000000000000000000000000000000000000000000000000000000000000000000000000000000000000000000000000000000000000000000000000000000000000000000000000000000000000000000000000000000000000000000000000000000000000000000000000000000000000000000000000000000000000000000000000000000000000000000000000000000000000000000000000000000000000000000000000000000000000000000000000000000000000000000000000000000000000000000000000000000000000000000000000000000000000000000000000000000000000000000000000000000000000000000000000000000000000000000000000000000000000000000000000000000000000000000000000000000000000000000000000000000000000000000000000000000000000000000000000000000000000000000000000000000000000000000000000000000000000000000000000000000000000000000000000000000000000000000000000000000000000000000000000000000000000000000000000000000000000000000000000000000000000000000000000000000000000000000000000000000000000000000000000000000000000000000000000000000000000000000000000000000000000000000000000000000000000000000000000000000000000000000000000000000000000000000000000
#0415a:0000000000440000
#04356:000000000000000000000000000000000000000000000014
#0435b:0043004300430000
#0515b:00000063
#05156:0000000000000023
#05356:0063000062000000
#0535b:63630013
#05352:00000013
#05358:0052
#00356:000000000000000000000052000000000000000000000000
#04755:0013000000130000
#04752:0000001300000013
#0605b:0000630000634300
#06056:53000023000000000000000000000000
#06052:0053330000005300
#06057:00000000000000006300002300000000
#05658:4300000000630000
#05655:00000063
#05652:5353000000000000
#05656:00230023000000000000000000000000
#05455:0000000000530000
#05458:5246000000005300
#05456:52
#05452:0036000000000000
#05859:0063000000000000
#0585b:000023000000000000630000000000630000000000000000
#05856:53000000002300000000000013000000
#05857:000000000000000023000000000000000000000000230000000000000000630000000000000000000000000000000000
#05852:13535313
#03452:0000000000130000
#0345b:0000000000000013
#05252:0000330000330033
#0525b:0043004300004300
#05954:0053000000000000
#05952:000023000000000000530000000000530000000000000000
#05957:63000000002300000000000013000000
#05956:000000000000000023000000000000000000000000230000000000000000530000000000000000000000000000000000
#0595b:00636313
#0065c:0062000000000000
#00652:0052000000000000
#000380:000000000000000000000012000000000000220000000000
#0003c0:000000000000000000000000000000000000000000000000000000000052000000000000000000000000000000000000
#001380:000000000000000000000012000000000000000000000000
#0013c0:0000000000220000
#001380:0000000000000000000000000000000000000000000000001252525252525252
#001370:00000000000000000000000000000000000000000000000000000000000000000000000000000000000000000000000000540054005400540054005400540054
#002380:22
#002360:000000000000000000000012000000000000220000000000
#002320:000000000000000000000000000000000000000000000000000000000052000000000000000000000000000000000000
#003360:000000000000000000000012000000000000000000000000
#003320:0000000000220000
#003360:0000000000000000000000000000000000000000000000001252525252525252
#003350:00000000000000000000000000000000000000000000000000000000000000000000000000000000000000000000000000540054005400540054005400540054
#004360:22
#004320:0012000000000000
#004360:00220000
#0043c1:0012000000000000
#004381:00220000
#0043a1:000000000000000000000012000000000000000000000000
#004381:000000000000002200000000
#004360:000000000000001200000000
#004340:000000000000000000000000000000000022000000000000
#004381:000000000000000000000000000000000012000000000000
#004361:000000000022
#005371:12
#0053c1:00220000
#005360:0012002200000000
#005320:00320000
#005360:0000000000000000000000000000000000000000000000001252525252525252
#005350:00000000000000000000000000000000000000000000000000000000000000000000000000000000000000000000000000540054005400540054005400540054
#006360:22
#0063c0:0012000000000000
#006380:00220000
#006321:0012000000000000
#006361:00220000
#006341:000000000000000000000012000000000000000000000000
#006361:000000000000002200000000
#006380:000000000000001200000000
#0063a0:000000000000000000000000000000000022000000000000
#006361:000000000000000000000000000000000012000000000000
#006381:000000000022
#007371:12
#007321:00220000
#007380:0012002200000000
#0073c0:00320000
#007380:0000000000000000000000000000000000000000000000001252525252525252
#007370:00000000000000000000000000000000000000000000000000000000000000000000000000000000000000000000000000540054005400540054005400540054
#008380:22
#008321:12
#008371:000000000022000000000000000000000000000000000000
#0083c0:000000000012220000000000000000000000000000000000
#008370:000000000000000000000000120000000022000000000000
#0083c0:000000000000000000000000000000000000000000000000000000000052000000000000000000000000000000000000
#0093c0:12
#009370:000000000022000000000000000000000000000000000000
#009321:000000000012220000000000000000000000000000000000
#009371:000000000000000000000000120000000022000000000000
#009321:000000000000000000000000000000000000000000000000000000000052000000000000000000000000000000000000
#0093c1:0000000000000000000000000000000000000000000000001252525222000000
#0093b1:00000000000000000000000000000000000000000000000000000000000000000000000000000000000000000000000000520052005200520000000000000000
#009360:0000000000000000000000000000000000000000000000000000000013535353
#009350:00000000000000000000000000000000000000000000000000000000000000000000000000000000000000000000000000000000000000000053005300530053
#010360:23
#010320:0014000000000000
#010330:000000000000000000000000000000000000000000000000005300000000000000000000000000000000000000000000000000000000000000000000000000000000000000000000000000000000000000000000000000000000000000000000000000000000000000000000000000000000000000000000000000000000000000000000000000000000000000000000000000000000000000000000000000000000000000000000000000000000000000000000000000000000000000000000
#0103a0:000000000000000000000000000000000000000000000000000000000000000000000000000000000000000000000053240000000000000000000000000000000000000000000000000000000000000000000000000000000000000000000000000000000000000000000000000000000000000000000000000000000000000000000000000000000000000000000000000000000000000000000000000000000000000000000000000000000000000000000000000000000000000000000000
#0103a1:000000000000000000000000000000000000000000000000145300000000000000000000000000000000000000000000000000000000000000000000000000000000000000000000000000000000000000000000000000000000000000000000000000000000000000000000000000000000000000000000000000000000000000000000000000000000000000000000000000000000000000000000000000000000000000000000000000000000000000000000000000000000000000000000
#010331:000000000000000000000000000000000000000000000000000000000000000000000000000000000000000000000053000000000000000000000000000000000000000000000000000000000000000000000000000000000000000000000000000000000000000000000000000000000000000000000000000000000000000000000000000000000000000000000000000000000000000000000000000000000000000000000000000000000000000000000000000000000000000000000000
#010321:00240000
#010381:000000000000000000000000000000000000000000000000000000000000000000000000000000000000000000000000000000000000000000000000000000000000000000000000000000000000000000000000000000000000000000000000000000000000000000000000000000000000000000000000000000000000000000000000000000001352000000000000000000000000000000005200000000000000000000000000000000000000000000000000000000000000000000000000
#010371:00000000000000000000000000000000000000000000000000000000000000000000000000000000000000000000000000000000000000000000000000000000000000000000000000000000000000000000000000000000000000000000000000000000000000000000000000000000000000000000000000000000000000000000000000000000000000000000000000000000000000000000000000000000000000000000000000000000000000000000000000000000000000000000000000000000000000000000000000000000000000000000000000000000000000000000000000000000000000000000000000000000000000000000000000000000000000000000000000000000000000000000000000000000000000000000000000000000000000000000000000000000000000000000000000000000000000000000000000000000000000000000000000000000000000000000000000000000000000000000000000000000000000000000000000000000000000000000000000000000000000000000000000000000000000000000000000000000000000000000000000000000000000000000000000000000000000000000000000000000000000000000000000000000000000000000000000000000000000000000000000000000000000000000000000000000000000000000000000000000000000000000000000530000000000000000000000000000000000000000000000000000000000000000000000000000000000000000000000000000000000000000000000000000000000000000000000000000000000000000000000000000000000000000000000000000000000000000000000000000000000000000000000000000
#0103a1:000000000000000000000000000000000000000000000000000000000000000000000000000000000000000000000000000000000000000000000000000000000000000000000000000000000000000000000000000000000000000000000000000000000000000000000000000000000000000000000000000000000000000000000000000000000000000000000000000000000000000000000000000000000000000000000053240000000000000000000000000000000000000000000000
#010350:000000000000000000000000000000000013000000000000
#010360:000000000000000000000000000000000000000000000000000000000000000000000000000000000000000000000000000000000000000000000000000000000000000000000000000000000000000000000000000000000000000000000000000000000000000000000000000000000000000000000000000000000000000000000000000000000052000000000000000000000000000000005253000000000000000000000000000000000000000000000000000000000000000000000000
#010330:000000000000000000000000000000000000000000000000000000000000000000000000000000000000000000000000000000000000000000000000000000000000000000000000000000000000000000000000000000000000000000000000000000000000000000000000000000000000000000000000000000000000000000000000000000000000000000000000000000000000000000000000000000000000000000000053000000000000000000000000000000000000000000000000
#010320:0000000000000024
#011370:000000000000000000000000000000000000000000000013
#0123b0:005300000000000000000000000000000000000000000000
#012370:0023000000000000
#012321:0013230000000000
#012361:00000053000000000000000000000000
#012361:000000000000000000000013000000230000000000000000
#012321:000000000000000000000000005300000000000000000000
#013361:000000000000000000000013000000005300000000000000
#013321:000000000000000000000000005300000000230000000000
#013341:000000000000000000000000000000000000000000000000000000000053000000000000000000000000000000000000
#0133b0:000000000000000000000013000000005300000000000000
#013370:000000000000000000000000005300000000230000000000
#013390:000000000000000000000000000000000000000000000000000000000053000000000000000000000000000000000000
#013360:0000000000000013
#013320:000000000000000000000000000000000000000000000023
#014370:0013000000000000
#0143b0:000000000023000000000000000000000000000000000000
#014370:0000001300000000
#014320:000000000000000000000023000000000000000000000000
#014360:0000000000130000
#0143b0:000000000000000000000000000000000023000000000000
#014370:000000000000000000000000000000000000000000000013
#015370:002300000000000000000000
#0173b0:13230000
#017360:0033000000000000
#017371:00132300
#017321:0000003300000000
#0173b0:00001323
#017360:000000000000003333000000
#018360:000000000000000000000013000000000000000000000000
#018320:000000000000002300000000
#0193b0:13330000
#019360:0033002300000000
#019380:000000000000001300000000
#019350:000000000000000000000000000000000023000000000000
#0193b0:00000013
#019380:0000000000000023
#021320:13230000
#021370:0033000000000000
#021361:00132300
#0213b1:0000003300000000
#021320:00001323
#021370:000000000000003333000000
#022370:000000000000000000000013000000000000000000000000
#0223b0:000000000000002300000000
#023320:13330000
#023370:0033002300000000
#023360:0012
#023320:00000000000000000053000023000000
#023381:0012
#0233b1:00000000000000000053000023000000
#0243b1:1333230000000000
#024371:00530053000000000000000000000000
#024351:0000000000130000
#024321:000000000000000000000000000000000023000000000000
#0243a0:000000000000000000000000000000000013230000000000
#024371:00000013
#024341:000000000023
#024370:000000000000000000000000000000000000000013230000
#025320:000000132300000000000000
#025350:000000000000000000130023000000000000000000000000
#0253b0:0000000000000013
#0263b0:23
#026321:1333230000000000
#026361:00530053000000000000000000000000
#026381:0000000000130000
#0263b1:000000000000000000000000000000000023000000000000
#026330:000000000000000000000000000000000013230000000000
#026361:00000013
#026391:000000000023
#026360:000000000000000000000000000000000000000013230000
#0273b0:000000132300000000000000
#027380:000000000000000000130023000000000000000000000000
#028360:13
#0283b0:005300230000000000000000
#028390:0053000000000000
#028370:005300000000
#028321:00130000
#028371:0000002300000000
#0283b0:0000001300000000
#028360:0023
#028321:00001323
#028371:0000000000530000
#029371:13
#029321:005300230000000000000000
#029341:0053000000000000
#029361:005300000000
#0293b0:00130000
#029360:0000002300000000
#029321:0000001300000000
#029371:0023
#0293b0:00001323
#029360:0000000000530000
#029320:0000000000000013
#030320:23
#030361:13
#0303b1:0023000000000000
#030360:000000000000130000000053000000000000000000000000000000000000000000000000000000000000000000000000
#030350:00230000
#0303b1:00130000
#030361:0000002300000000
#030371:0013
#030321:0000000000230000
#030370:000000000000000000000000000000000000000000000000000000000000130000000053000000000000000000000000
#030380:00000023
#030321:00000013
#030371:0000000000000023
#031371:13
#0313b1:002300000000000000000000
#031350:000013330000000000000000000000000000000000000000
#031320:000053230000000000000000
#031381:0013000000000000
#0313b1:000053230000000000000000
#0313a1:000000000000000000000000000000000000000000000000120000000000325232523252220000000000000000000000
#031391:000000000000000000000000000000000000000000000000000000000000000000000000000000000000000000000000000000000000000000000000005400540054005400540054000000000000000000000000000000000000000000000000
#031340:000000000000000000000000000000000000000000000000120000000000325232523252220000000000000000000000
#031330:000000000000000000000000000000000000000000000000000000000000000000000000000000000000000000000000000000000000000000000000005400540054005400540054000000000000000000000000000000000000000000000000
#032320:000000000000000000000000000000000000000000000000135800000000005853000000230000000000000000000000
#032370:000000000000000000000000005300330000000000000000
#0323b1:000000000000000000130053
#032361:000000000000000000000000000000000000000000000000000000000000000000000000005853000000335800000000
#0333b1:23
#0333b1:0000000013230000
#033371:00000000000000000053000000000000
#033360:0000000000132300
#033320:00000000000000000000005300000000
#0333b1:0000000000001323
#033371:00000000000000000000000000530000
#033360:0000000000000013
#033320:00000000000000000000000000000053
#034360:23
#0343b0:000000000000130053230000
#034360:000000000000000000000000000000000000000000000000005853000000335800000000000000000000000000000000
#034321:000000000000000000000000000000000000000000000000000000000000000000000000135800000000005853000000
#034371:000000000000000000000000000000000000005300330000
#035321:23
#035321:0000000013230000
#035361:00000000000000000053000000000000
#035370:0000000000132300
#0353b0:00000000000000000000005300000000
#035321:0000000000001323
#035361:00000000000000000000000000530000
#036321:13
#036371:000000000023000000000000000000000000000000000000
#0363b1:00130000
#036361:000000000000000000000023000000000000000000000000
#036321:0013
#036371:000000000000000000000000000000000023000000000000
#037361:1323000000000000
#037321:000000000000000000000013000000230000000000000000
#037361:000000000000000000000000005400000000000000000000
#0373b0:000000000000000000000013000000230000000000000000
#037360:00000000000000000000000000000000000000000000000000000000000000000000005400000000000000000000000000000000000000000000000000000000
#037360:000000000000000000000000000000000000000000000014
#038360:002400000000000000000000
#038360:000000140024000000000000000000000000000000000000
#038320:0000132300000000
#038370:00000000005300000000000000000000
#038320:000000000000000000000000000000000000000000000013
#039360:005300000000000000000000000000000000000000000000000000000000000000000000000000000000000000000000
#039320:002300000000000000000000
#0403b0:13
#040360:000000000023000000000000000000000000000000000000
#040320:00130000
#040370:000000000000000000000023000000000000000000000000
#0403b0:0013
#040360:000000000000000000000000000000000023000000000000
#041370:1323000000000000
#041360:000000000000000000000000000000000000000000000000000000000000000000000000000000000000000000000000000000000000000000000000000000000000000000000000000000000000000000000000000000000000000000000000000000000000000000000000000000000000000000000000000000000000000000000000000000000000000000000000000000000000000000000000000000000000000000000000000000000000000000000000000000000000000000000000000000000000000000000000000000000000000000000000000000000000000000000000000000000000000000000000000000000000000000000000000000000000000000000000000000000000000000000000000000000000000000000000000000000000000000000000000000000000000000000000000000000000000000000000000000000000000000000000000000000000000000000000000000000000000000000000000000000000000000000000000000000000000000000000000000000000000000000000000000000000000000000000000000000000000000000000000000000000000000000000000000000000000000000000000000000000000000000000000000000000000000000000000000000000000000000000000000000000000000000000000000000000000000000000000000000000000000000000000000000000000000000000000000000000000000000000000000000000000000000000000000000000000000000000000000000000000000000000000000000000000000000000000000000000000000000000000000000000000000000000000000000000000000000000000000000000000000000000000000000000000000000000000000000000000000000000000000000000000000000000000000000000000000000000000000000000000000000000000000000000000000000000000000000000000000000000000000000000000000000000000000000000000000000000000000000000000000000000000000000000000000000000000000000000000000000000000000000000000000000000000000000000000000000000000000000000000000000000000000000000000000000000000000000000000000000000000000000000000000000000000000000000000000000000000000000000000000000000000000001455000000000000000000000000000000000000000000000000000000000000000000000000000000000000000000000000000000000000000000000000000000000000000000000000000000000000000000000000000000000000000000000000000000000000000000000000000000000000000000000000000000000000000000000000000000000000000000000000000000000000000000000000000000000000000000000000000000000000000000000000000000000000000000000000000000000000000000000000000000000000000000000000000000000000000000000000000000000000000000000000000000000000000000000000000000000000000000000000000000000000000000000000000000000000000000000000000000000000000000000000000000000000000000000000000000005500240000000000000000000000000000000000000000000000000000000000000000000000000000000000000000000000000000000000000000000000000000000000000000000000000000000000000000000000000000000000000000000000000000000000000000000000000000000000000000000000000000000000000000000000000000000000000000000000000000000000000000000000000000000000000000000000000000000000000000000000000000000000000000000000000000000000000000000000000000000000000000000000000000000000000000000000000000000000000000000000000000000000000000000000000000000000000000000000000000000000000000000000000000000000000000000000000000000000000000000000000000000000000000000000000000000000000000000000000000000000000000000000000000000000000000000000000000000000000000000000000000000000000000000000000000000000000000000000000000000000000000000000000000000000000000000000000000000000000000000000000000000000000000000000000000000000000000000000000000000000000000000000000000000000000000000000000000000000000000000000000000000000000000000000000000000000000000000000000000000000000000000000000000000000000000000000000000000000000000000000000000000000000000000000000000000000000000000000000000000000000000000000000000000000000000000000000000000000000000000000000000000000000000000000000000000000000000000000000000000000000000000000000000000000000000000000000000000000000000000000000000000000000000000000000000000000000000000000000000000000000000000000000000000000000000000000000000000000000000000000
#041320:000000000000000000000000005500000000000000000000
#0413a1:000000000000000000000014000000240000000000000000
#041391:000000000000000000000000000000000000000000000000000000000000000000000000000000000000000000000000000000000000000000000000000000000000000000000000000000000000000000000000000000000000000000000000000000000000000000000000000000000000000000000000000000000000000000000000000000000000000000000000000000000000000000000000000000000000000000000000000000000000000000000000000000000000000000000000000000000000000000000000000000000000000000000000000000000000000000000000000000000000000000000000000000000000000000000000000000000000000000000000000000000000000000000000000000000000000000000000000000000000000000000000000000000000000000000000000000000000000000000000000000000000000000000000000000000000000000000000000000000000000000000000000000000000000000000000000000000000000000000000000000000000000000000000000000000000000000000000000000000000000000000000000000000000000000000000000000000000000000000000000000000000000000000000000000000000000000000000000000000000000000000000000000000000000000000000000000000000000000000000000000000000000000000000000000000000000000000000000000000000000000000000000000000000000000000000000000000000000000000000000000000000000000000000000000000000000000000000000000000000000000000000000000000000000000000000000000000000000000000000000000000000000000000000000000000000000000000000000000000000000000000000000000000000000000000000000000000000000000000000000000000000000000000000000000000000000000000000000000000000000000000000000000000000000000000000000000000000000000000000000000000000000000000000000000000000000000000000000000000000000000000000000000000000000000000000000000000000000000000000000000000000000000000000000000000000000000000000000000000000000000000000000000000000000000000000000000000000000000000000000000000000000000000000000000000000550000000000000000000000000000000000000000000000000000000000000000000000000000000000000000000000000000000000000000000000000000000000000000000000000000000000000000000000000000000000000000000000000000000000000000000000000000000000000000000000000000000000000000000000000000000000000000000000000000000000000000000000000000000000000000000000000000000000000000000000000000000000000000000000000000000000000000000000000000000000000000000000000000000000000000000000000000000000000000000000000000000000000000000000000000000000000000000000000000000000000000000000000000000000000000000000000000000000000000000000000000000000000000000000000000000055000000000000000000000000000000000000000000000000000000000000000000000000000000000000000000000000000000000000000000000000000000000000000000000000000000000000000000000000000000000000000000000000000000000000000000000000000000000000000000000000000000000000000000000000000000000000000000000000000000000000000000000000000000000000000000000000000000000000000000000000000000000000000000000000000000000000000000000000000000000000000000000000000000000000000000000000000000000000000000000000000000000000000000000000000000000000000000000000000000000000000000000000000000000000000000000000000000000000000000000000000000000000000000000000000000000000000000000000000000000000000000000000000000000000000000000000000000000000000000000000000000000000000000000000000000000000000000000000000000000000000000000000000000000000000000000000000000000000000000000000000000000000000000000000000000000000000000000000000000000000000000000000000000000000000000000000000000000000000000000000000000000000000000000000000000000000000000000000000000000000000000000000000000000000000000000000000000000000000000000000000000000000000000000000000000000000000000000000000000000000000000000000000000000000000000000000000000000000000000000000000000000000000000000000000000000000000000000000000000000000000000000000000000000000000000000000000000000000000000000000000000000000000000000000000000000000000000000000000000000000000000000000000000000000000000000000000000000000000000000000
#041351:00000000000000000000000000000000000000000000000000000000000000000000000000000000000000000000000000000000000000000000000000000000000000000000000000000000000000000000000000000000000000000000000000000000000000000000000000000000000000000000000000000000000000000000000000000000000000000000000000000000000000000000000000000000000000000000000000000000000000000000000000000000000000000000000000000000000000000000000000000000000000000000000000000000000000000000000000000000000000000000000000000000000000000000000000000000000000000000000000000000000000000000000000000000000000000000000000000000000000000000000000000000000000000000000000000000000000000000000000000000000000000000000000000000000000000000005500000000000000000000000000000000000000000000000000000000000000000000000000000000000000000000000000000000000000000000000000000000000000000000000000000000000000000000000000000000000000000000000000000000000000000000000000000000000000000000000000000000000000000000000000000000000000000000000000000000000000000000000000000000000000000000000000000000000000000000000000000000000000000000000000000000000000000000000000000000000000000000000000000000000000000000000000000000000000000000000000000000000000000000000000000000000000000000000000000000000000000000000000000000000000000000000000000000
#043321:13333323
#043371:0033003300330000
#043321:000000000000000000000000000000000000000000000013
#044371:002300000000000000000000
#0443b1:00130000
#044371:002300
#045321:0000001c
#045361:0000000000000054
#046321:2c
#046351:000013230000000000000000000000000000000000000000
#0463b1:000000000013230000000000000000000000000000000000
#046351:000000000000000013230000000000000000000000000000
#047381:000013230000000000000000000000000000000000000000
#047321:000000000013230000000000000000000000000000000000
#047381:000000000000000013230000000000000000000000000000
#0483b1:0013000000000000
#048381:00230000
#048320:00130000
#048350:0000002300000000
#048381:0000001300000000
#0483b1:0023
#048350:0013
#048320:0000000000230000
#0483b1:0000000000130000
#048381:00000023
#048320:00000013
#048350:0000000000000023
#0493b0:13
#049360:0023000000000000
#049320:00130000
#049370:0000002300000000
#049350:000000000000000000000000000000000013000000230000
#049320:000000000000000000000000000000000000005300000000
#049381:000000000000000000000000000000000013000000230000
#0493b1:000000000000000000000000000000000000005300000000
#050351:000000000000000000000000000013000023000000000000
#050321:00000013
#050371:0000000000000053
#051321:23
#051381:000000000000000000000000000013000023000000000000
#0513b1:00000013
#051361:0000000000000053
#0523b1:23
#0533b1:13330000
#053361:0033002300000000
#053381:0012
#0533c1:000000000000000000000000000052323232000000000000
#0533b1:00000023
#053360:0012
#053320:000000000000000000000000000052323232230000000000
#054360:12
#054320:0026000000000000
#054381:1226000000000000
#054351:0000000000130000
#054381:000000000000000000000000000000000023000000000000
#0543b0:000000000000000000000000000000000013230000000000
#054381:00000013
#054351:000000000023
#054380:000000000000000000000000000000000000000013230000
#055320:000000132300000000000000
#055360:000000000000000000130023000000000000000000000000
#055320:000000000000132300000000
#055360:000000000000000000000000000000130023000000000000
#055320:00000013
#055360:000000000023
#056320:1333230000000000
#056360:00530053000000000000000000000000
#056380:0000000000130000
#056350:000000000000000000000000000000000023000000000000
#056321:000000000000000000000000000000000013230000000000
#056350:00000013
#056380:000000000023
#056351:000000000000000000000000000000000000000013230000
#0573b1:000000132300000000000000
#057371:000000000000000000130023000000000000000000000000
#0573b1:000000000000132300000000
#057371:000000000000000000000000000000130023000000000000
#058361:13
#0583b1:005300230000000000000000
#058391:0053000000000000
#058371:005300000000
#058320:0000132300000000
#058360:00000000005300000000000000000000
#0583b1:0000001323000000
#058371:00000000000000530000000000000000
#058320:00001323
#058370:0000000000330000
#0583b1:0000000000130000
#058361:00000023
#0583b1:0000000000000013
#0593b1:23
#059370:13
#059320:005300230000000000000000
#059340:0053000000000000
#059360:005300000000
#0593b1:0000132300000000
#059371:00000000005300000000000000000000
#059320:0000001323000000
#059360:00000000000000530000000000000000
#0593b1:00001323
#059361:0000000000330000
#059320:0000000000130000
#059370:00000023
#059320:0000000000000013
#060320:23
#060361:13
#0603b1:0023000000000000
#060320:0013230000000000
#060360:00000053000000000000000000000000
#0603b1:00130000
#060361:0000002300000000
#060371:0013
#060321:0000000000230000
#0603b0:0000000000132300
#060370:00000000000000000000005300000000
#060321:00000013
#060371:0000000000000023
#061371:000000000000000000000000000000000000000000000000000000000000000000000000120000000000000052523232
#061361:000000000000000000000000000000000000000000000000000000000000000000000000000000000000000000000000000000000000000000000000000000000000000000000000000000000000000000000000000000000054005400540054
#062371:22
