This file was generated by Ched 2.7.0.0.
#TITLE ""
#ARTIST ""
#DESIGNER ""
#DIFFICULTY 0
#PLAYLEVEL
#SONGID ""
#WAVE ""
#WAVEOFFSET 0
#JACKET ""
#REQUEST "ticks_per_beat 480"
#00002: 4
#BPM01: 102
#00008: 01
#TIL00: ""
#HISPEED 00
#MEASUREHS 00
#00114:1414
#0011a:00140014
#01218:14
#01212:00140000
#0121a:0014
#01912:0014
#0191a:00000014
#01914:24240000
#01918:0024002400000000
#01314:14
#0131a:00140000
#01312:0014
#0381a:14
#03812:00140000
#03814:00000014
#03818:0014
#0441a:14
#04412:00140000
#04418:0014
#04414:00000014
#0451a:14
#04512:14
#06112:143434003434000000000000
#06114:00140000
#0611a:00000024
#0041a:14
#00412:0014
#00612:14
#0061a:0014
#0081a:14
#00818:00343400
#00810:41
#00912:14
#00914:00343400
#01614:00140014
#0161a:2424
#01610:41
#01718:14
#01712:00140000
#0171a:0014
#02018:00140014
#02012:2424
#02114:14
#0211a:00140000
#02112:0014
#0281a:14
#02812:00000014
#02818:00140000
#0291a:00000014
#02912:14
#02914:00140000
#0391a:14
#03918:0014
#03912:00140000
#03914:00000014
#04119:0014
#04118:14
#04114:00140000
#04113:0014
#04218:00000014
#04212:14
#0421a:00140000
#04214:0014
#04912:00001414
#0491a:0000000000140000
#04914:24240000
#04918:0024002400000000
#05214:00140000
#05212:00000014
#05218:0014
#00014:00140000
#0001a:14
#00318:1414
#00312:00140014
#00218:00140000
#00212:14
#00518:14
#00514:00140000
#00714:14
#00718:00140000
#01018:0014
#01114:0014
#03516:00000014
#0351a:0014
#03714:14
#03718:00140000
#03713:0014
#03719:0014
#03312:0014
#03316:00000014
#0341a:14
#04312:14
#04314:00140000
#04614:0014001400140014
#04618:26142614
#0461f:21
#04610:0041
#0471a:14000014
#04712:0014000000140000
#04718:00141400
#04714:0000001400000000
#05014:00140000
#05018:0014
#05012:00000014
#0501a:24
#0511a:0014
#05118:00000014
#05114:14
#05518:1426
#05514:00140000
#05512:00000026
#05718:14
#0571a:0014
#05714:00140000
#05712:00000014
#0541a:0014
#05412:00260014
#05410:00410000
#0581a:14
#05812:00000014
#05818:00140000
#0591a:00000014
#05912:14
#05914:00140000
#0561a:14
#05614:00140000
#05618:0014
#05612:00000014
#02518:1426
#02514:00140000
#02512:00000026
#02718:14
#0271a:0014
#02714:00140000
#02712:00000014
#0241a:0014
#02412:00000014
#02414:00140000
#02410:41
#0261a:14
#02614:00140000
#02618:0014
#02612:00000014
#0401f:11
#03212:26
#03210:41
#06212:24
#02318:26262600
#02312:0026002600000000
#01514:0024
#03118:00000026
#05318:26262600
#05312:0026002600000000
#04812:00340000
#04813:0034000000000000
#04819:0000000000340000
#0481a:00000034
#00952:54
#0085a:64
#0285a:64
#02858:00240000
#02952:54
#02954:00240000
#05358:00000016
#06152:54
#06154:00240000
#0015a:00000014
#00352:00000014
#01154:0024
#01058:0024
#0165a:1414
#02052:1414
#0175a:0014
#02152:0014
#02458:16
#03054:00140000
#03058:00000014
#03154:00140000
#03252:16
#04352:5414
#04354:00240000
#04658:1616
#0475a:00000014
#0505a:14
#05052:00000054
#05158:00000024
#05154:24
#0515a:0064
#0585a:64
#05858:00240000
#05952:54
#05954:00240000
#06054:00140000
#06058:00000014
#0055a:00000014
#00752:00000014
#05452:00160000
#0003a0:00001424
#002320:00001424
#0053a0:00001424
#007320:00001424
#0083a0:14
#008380:00343424
#009320:14
#009340:00343424
#010380:14343400
#0103a0:00000024
#011340:140000340000340034000034540000000000000000000000
#011320:00000024
#014380:14240000
#014320:00001424
#0153a0:14240000
#015340:000000000000143434240000
#018320:14
#018340:00240000
#018380:0014
#0183a0:00000024
#0223a0:14
#022380:00240000
#022340:0014
#022320:00000024
#023380:0016
#024380:26
#0283a0:1424
#028380:00540000
#029320:1424
#029340:00540000
#030340:1434240000000000
#030380:0000000014342400
#031340:1434240000000000
#0323a0:0014
#032380:00000034
#0333a0:24
#034320:0014
#034340:00000034
#035320:24
#036320:14240000
#0363a0:00001424
#0403a0:14240000
#040320:00001424
#043320:1424
#043340:00540000
#045350:000000000000163636260000
#048340:14
#048330:0034000000000000
#048320:0000342400000000
#048380:0014
#048390:0000000000340000
#0483a0:0000000000003424
#050320:00000014
#051340:54
#051320:00240000
#0513a0:0014
#051380:00000054
#0523a0:24
#053380:00001626
#0583a0:1424
#058380:00540000
#059320:1424
#059340:00540000
#060340:1434240000000000
#060380:0000000014342400
#061320:143434003434240000000000
#061340:00340000
