This file was generated by Ched 2.7.0.0.
#TITLE ""
#ARTIST ""
#DESIGNER ""
#DIFFICULTY 0
#PLAYLEVEL
#SONGID ""
#WAVE ""
#WAVEOFFSET 0
#JACKET ""
#REQUEST "ticks_per_beat 480"
#00002: 4
#BPM01: 200
#00008: 01
#TIL00: ""
#HISPEED 00
#MEASUREHS 00
#00019:14
#00113:14
#00219:14
#00313:14
#00418:14
#00518:14
#00614:14
#00714:14
#0081a:14
#00810:41
#00914:14
#01018:14
#01112:14
#0161a:14
#01714:14
#01818:14
#01912:14
#0281a:14
#02914:14
#03018:14
#03112:14
#03618:14
#03714:14
#04018:0016
#04012:26
#04010:41
#04112:16
#04118:0016
#04412:1616
#04518:1616
#04612:16
#04618:0016
#04712:16
#04718:0016
#04912:0016
#05118:0016
#05212:1616
#05318:1616
#05612:14
#05610:41
#05718:14
#05814:14
#0591a:14
#08012:0016
#08018:26
#0801f:21
#08118:16
#08112:0016
#08110:41
#08418:2616
#08512:2616
#08612:0016
#08618:26
#08918:0016
#09112:0016
#09218:1616
#09312:1616
#0961a:14
#09714:14
#09818:14
#09912:14
#1001a:14
#10010:41
#1011a:14
#10214:14
#10314:14
#10818:14
#10918:14
#11012:14
#11112:14
#0641f:11
#05412:26
#05418:0026
#05512:26
#05518:0026
#09418:26
#09412:0026
#09518:26
#09512:0026
#08718:26
#08712:0026
#02410:41
#0123a0:14
#0133a0:24
#014340:14
#015340:24
#020380:14
#021380:24
#022320:14
#023320:24
#0243a0:14
#025380:24
#026320:14
#027340:24
#032380:14
#0333a0:24
#034340:14
#035320:24
#038390:1434003434003434
#039390:0034340024000000
#042320:1626
#043380:1626
#048320:16363636
#049320:26
#050380:16363636
#051380:26
#060320:14
#061340:24
#0623a0:14
#063380:24
#064320:14
#066320:24
#068380:14
#070380:24
#072340:14
#074340:24
#0763a0:14
#0783a0:24
#082380:1626
#083320:1626
#088380:16363636
#089380:26
#090320:16363636
#091320:26
#104380:14
#105380:24
#106320:14
#107320:24
#1123a0:14
#1133a0:24
#114340:14
#115340:34342400
