This file was generated by Ched 2.7.0.0.
#TITLE ""
#ARTIST ""
#DESIGNER ""
#DIFFICULTY 0
#PLAYLEVEL
#SONGID ""
#WAVE ""
#WAVEOFFSET 0
#JACKET ""
#REQUEST "ticks_per_beat 480"
#00002: 4
#BPM01: 200
#00008: 01
#TIL00: ""
#HISPEED 00
#MEASUREHS 00
#0001b:1313000000000000
#00015:00130013
#00018:0000001313130013
#00012:1313000013130000
#0011b:13
#00112:13
#00319:00130000
#0031b:1313
#00312:1313
#00314:00130000
#0041b:1300000000130000
#00418:0000131300001300
#00415:0000000000000013
#00518:13
#0051b:0000001300000000
#00512:0013
#00515:0000000000000013
#00818:0000131300130000
#00815:00001313
#0081b:13000013
#00812:1300131300000000
#00810:41
#00918:13131300
#00915:0000001300001313
#00912:0013
#01012:1300000000000013
#01016:0000001313000000
#01112:13000013
#01115:0000001300130013
#01118:0013
#01218:13
#01212:1313
#01215:0000131300001300
#01312:1300001300000000
#01315:0013
#01318:0000130000130013
#0131b:00000013
#01415:13
#0141b:1313
#01418:0000131300001300
#0211b:1300001313000000
#02118:0000000000130000
#02115:00000013
#02112:0000001300000013
#02212:1313
#02218:0013001300001300
#02215:0000130000130013
#0221b:1313
#02312:13131300
#02315:00000000000013000000001300001300
#02318:0013000000131300
#0231b:13131300
#02417:13
#02412:13131313
#0241b:0013
#02410:41
#02512:13131313
#02515:0013000000130000
#02518:00131313
#0251b:0000001300000013
#02718:0013001300001300
#02715:0000130000130013
#02712:0013
#0271b:1313
#0281b:1300001300130000
#02815:0000130013000013
#02818:00130013
#02812:1300001300130000
#0291b:1313
#02915:0000130000000013
#02918:0000001300001300
#02912:1313
#03018:13130000
#0301b:0013000013001300
#03015:0000001300000000
#0311b:13131313
#03115:00000000000000000000000000130000
#03118:0000000000000013
#03112:00000000000000000000000000000013
#0381b:1313002323001313
#03812:2323001313002323
#03816:0000140000140000
#03912:0013130023000000
#03916:1400001400000000
#0391b:0023230013000000
#04019:0000001300000013
#04017:0013
#0401b:23130013
#04012:2313
#04010:41
#04117:1313
#04116:00130000
#04114:0013001300000000
#04112:1313
#04118:00000013
#04115:0000000000000013
#0411b:00130000
#04218:13131313
#0421b:0000001300000013
#04215:1313
#04212:0013000000130000
#04318:1300001300000000
#04315:0013000013000000
#0431b:00131300
#04312:13130013
#04412:13131313
#04418:00131313
#0441b:0000001300000013
#04415:0000000000130000
#04518:1300001300000013
#04512:1300000000130000
#04515:00131313
#0451b:00131313
#04715:00000000130000000013001300130013
#04718:1300000023132313
#04712:23
#0471b:00230000
#04818:2300001300130013
#04815:0013
#0481b:00130013
#04812:00130013
#04915:1300000013000013
#04918:0013001300001300
#0491b:00131300
#04912:00130013
#0501b:13130013
#05015:13130013
#05018:0000001313000000
#05012:0013
#05117:1313
#05119:0013001300000000
#0511b:00130013
#05112:1313
#05116:00130013
#05217:1313
#0521b:00130013
#05219:0000001300000013
#05212:1313
#05214:0000000000130000
#05216:00000013
#05317:1313
#05316:00130013
#05314:0000001300000013
#05312:1313
#05319:0000000000130000
#0531b:00000013
#05412:1313
#05416:0000131300000000
#05417:1313000013000000
#0541b:00130013
#05418:0000000000000013
#05415:00000013
#0551b:13131300
#05518:0013001300001300
#05515:00130000
#05512:1313
#0561b:1313
#05618:00000000130000000000130000130000
#05615:0000000000001313
#05612:13
#05610:41
#05718:0013131300000013
#05712:00000013000000000000000000000013
#05715:13000000000013000000000000130000
#0571b:0000000000131300
#05818:1300130013001313
#0581b:0013000000000000
#05815:00000000000013000000130000130013
#05812:00130000
#0631b:13
#06318:000000130000130000000000000014000000140000001400
#06315:00000013000000000000000000000000
#06312:13
#06314:000000141414
#0641b:0000001300000000
#06418:0013
#06415:0000000000130013
#06412:00000013
#06414:14
#0641f:11
#06518:1300130000000013
#0651b:0013000000000000
#06515:0000001300001300
#06512:0013
#0661b:1300000000000013
#06615:0000001300130000
#06612:0013
#06618:00000013
#06718:1313
#06715:0013001300000000
#06712:00130000
#06812:1300001300000000
#06815:0013
#06818:0000000000130013
#0681b:00000013
#07618:0000001313000013
#07615:0000000000131300
#07612:1300001300000013
#0761b:0000000000130000
#0771b:1313
#07718:0000130000130013
#07715:13000013
#07712:00131300
#0781b:13
#07812:13
#07917:12
#07914:0012001200000000
#0791a:00120000
#0961b:2313000000000000
#09618:0000130023130013
#09615:0000001300001300
#09612:2313000023130000
#09918:0013000000131300
#09918:00000013
#09915:00000000000013000000001300000000
#0991b:23232300
#09912:23232300
#10018:00131300
#1001b:1300001300001300
#10012:1300130013000013
#10010:41
#10115:1300131313000000
#1011b:1313
#10117:00000013
#10119:0000000000000013
#10212:1300001313000000
#10216:0000000000000013
#10316:13000013
#10312:0000001313000000
#10319:0000000000130000
#1031b:00000013
#10314:0000000000000013
#10317:0013
#10417:13
#10412:13
#1041b:0000131313001300
#10518:0000001313000000
#10515:0000000000130000
#1051b:1300000000001313
#10512:00130000
#1121b:1313
#11215:00130013
#11212:0000001300000000
#11218:0013000000130013
#11216:13
#11315:13001313
#11312:0013000000000013
#1131b:00130000
#11318:0000001300130000
#1141b:13130013
#11418:0013001300000013
#11415:00131300
#11412:0000001300130000
#11518:0013000000000000
#11512:0000001300000000
#1151b:23232300
#11515:23232300
#00212:1313000000000000
#00218:00130013
#00215:0000001313130013
#0021b:1313000013130000
#00612:1300000000130000
#00615:0000131300001300
#00618:0000000000000013
#00715:1313
#00712:00130000
#0151b:13001313
#01512:00131313
#01517:0000131300000000
#01615:0000131300130000
#01618:00001313
#01612:00000013
#0161b:0000131300000000
#01715:13131300
#01718:0000001300001313
#0171b:0013
#0181b:1300000000000013
#01817:0000001313000000
#0191b:13000013
#01918:0000001300130013
#01915:0013
#02015:13
#0201b:1313
#02018:0000131300001300
#02612:13
#02616:0013
#0261b:13131313
#03216:13
#0321b:13131313
#03212:0013
#0331b:13131313
#03318:0013000000130000
#03315:00131313
#03312:0000001300000013
#0341b:13
#03417:0013
#03412:13131313
#03515:0013001300001300
#03518:0000130000130013
#0351b:0013
#03512:1313
#03612:13131300
#0361b:13130013
#03615:0000001300130013
#03618:0000001300130000
#03718:1300001300001300
#03715:0000130013000013
#03712:13
#0371b:0013
#0461b:1300001300000013
#04618:00231323
#04615:2300000000130000
#04612:00132313
#0601b:13130000
#06112:00130000
#06115:00000013
#06218:0013000000000000
#0621a:00130000
#06217:0000001300000000
#06216:0013
#06213:0000000000130000
#06215:00000013
#06212:0000000000000013
#06915:1300130013000013
#06912:0013000000000000
#06918:0000001300001300
#0691b:13131300
#07012:1300000000000013
#07018:0000001300130000
#0701b:0013
#07015:00000013
#07115:1313
#07118:0013001300000000
#0711b:00130000
#0721b:1300001300000000
#07218:0013
#07215:0000000000130013
#07212:0000001300001300
#07318:1300130013000013
#0731b:0013000000000000
#07315:0000001300001300
#07312:13131300
#0741b:1300000000000013
#07415:0000001300130000
#07412:1313
#07418:00000013
#07518:13131300
#07515:0013001300001300
#07512:13131300
#08014:0000001300000013
#08012:23130013
#0801b:2313
#08016:0023
#0801f:21
#08117:00130000
#08119:0013001300000000
#0811b:1313
#08115:00000013
#08118:0000000000000013
#08116:2323
#08112:00230000
#08110:41
#08215:13131313
#08212:0000001300000013
#08218:1313
#0821b:0013000000130000
#08315:1300001300000000
#08318:0013000013000000
#08312:00131300
#0831b:13130013
#0841b:13231323
#08415:00132313
#08412:0000001300000013
#08418:0000000000130000
#08416:23
#08718:00000000130000000013001300130013
#08715:1300000023132313
#0871b:23
#08712:00230000
#08815:2300001300130013
#0881b:00130013
#08812:00230023
#08818:0023
#08915:0013001300002300
#0891b:0000130000001313
#08912:00231300
#08918:2323
#09012:1300131300002300
#0901b:0013
#09018:23230013
#09015:0023
#09114:0013001300000000
#09112:00230013
#09117:00230013
#0911b:2323
#09116:2323
#09216:1313
#09212:00130013
#09214:0000001300000013
#0921b:1313
#09219:0000000000130000
#09217:00000013
#09316:1313
#09317:00130013
#09319:0000001300000013
#0931b:1313
#09314:0000000000130000
#09312:00000013
#0941b:1300001313000000
#09417:00130000
#09416:1313
#09412:0013130000001300
#09415:0000000000000013
#09418:00000013
#09515:0013001300002300
#09518:00130023
#0951b:1313
#09512:23232300
#0851b:1300000000130000
#08515:2300001300000013
#08518:00231323
#08512:00132313
#08612:1300001300000013
#08615:00231323
#08618:2300000000130000
#0861b:00132313
#09712:2313000000000000
#09715:0000130023130013
#09718:0000001300001300
#0971b:2313000023130000
#0981b:2313000000000000
#09818:0000130023130013
#09815:0000001300001300
#09812:2313000023130000
#10617:13
#10612:1313
#10615:0000131300001300
#10715:1300001300000000
#10712:00131300
#10718:00131300
#10815:00131300
#10812:0000001300001300
#1081b:0000130013000013
#10918:1300131313000000
#10912:1313
#10916:00000013
#10914:0000000000000013
#1101b:1300001313000000
#11017:0000000000000013
#11117:13000013
#1111b:0000001313000000
#11114:0000000000130000
#11112:00000013
#11119:0000000000000013
#11116:0013
#0591b:00333333000000000033333300000000
#05912:00000000003333330000000000333333
#00155:00000033
#0015b:00000033
#0035b:1313
#00352:1313
#00354:00130000
#00359:00130000
#0045b:13
#00458:0000001300000000
#00652:13
#00655:0000001300000000
#00755:0013
#00855:00000053
#00958:1353
#01258:53
#01252:13
#01455:53
#0155b:00000053
#01552:00000063
#01658:13000063
#01655:13
#01755:1363
#02055:63
#0205b:13
#02252:13
#0225b:0013
#02352:1313
#0235b:00130000
#02457:53
#0245b:0023
#02652:53
#02656:0023
#02858:00530000
#02855:0053
#0285b:0000002300000000
#02852:0000000000230000
#0295b:53
#02952:0063
#03055:0000005300000000
#03256:63
#03252:0023
#0345b:63
#03457:0023
#03652:0063
#0365b:00630000
#03658:0000002300000000
#03655:0000000000230000
#03758:63
#03755:0053
#0405b:13
#04052:5353
#04057:0013
#04157:1313
#0415b:00130000
#04255:5353
#04252:0023000000230000
#0435b:0053
#04452:00130013
#04458:0013
#04457:13
#04558:13
#04555:00130013
#0455b:0013
#0465b:13
#04658:0013
#04652:00130013
#04758:13
#04755:00130000
#0505b:00000013
#05252:53
#05357:53
#05452:1313
#0545b:00130000
#05552:0053
#05555:00000013
#05558:00000013
#05755:0000005300000000
#06152:00530000
#06358:00530000
#06454:14
#0665b:53
#06758:0053
#07052:63
#07155:0063
#0745b:53
#07558:0053
#0785b:53
#07852:63
#08352:0063
#08758:00130000
#08755:13
#09356:63
#0945b:1313
#09452:00130000
#0955b:0063
#09558:00000013
#09555:00000013
#0805b:6363
#08052:13
#08056:0013
#08258:6363
#0825b:0023000000230000
#08652:13
#08655:0013
#0865b:00130013
#0925b:63
#10052:0053
#1015b:63
#10155:0053
#10452:53
#10457:13
#10657:53
#1085b:1363
#10855:13
#10952:53
#10958:0063
#04858:13
#08855:13
#01052:13
#01056:0013
#01152:13
#0185b:13
#01857:0013
#0195b:13
#10252:1313
#10356:13
#1105b:1313
#11157:13
#11256:13
#08156:1313
#08152:00130000
#08456:13
#0845b:00130013
#08455:0013
#08555:13
#08558:00130013
#08552:0013
#09052:00000013
#001350:00133323
#001320:0000003300330000
#0013b1:00133323
#001381:0000003300330000
#004321:13
#004351:00230000
#004351:0000001300000000
#004321:0000000000230000
#005321:13
#005351:0033000000000000
#005331:00330000
#005361:0000002300000000
#005371:0013
#0053a1:0000000000330000
#005381:00000033
#0053b1:0000000000000023
#0063b1:13
#006381:00230000
#006381:0000001300000000
#0063b1:0000000000230000
#0073b1:13332300
#007381:0033003300000000
#008351:00000013
#009321:23
#009381:0013
#0093b1:00000023
#010371:13
#0103b1:0000002300000000
#0103b1:0013
#010371:0000000000000023
#011371:13
#0113b1:0000002300000000
#012381:13
#0133b1:23
#014351:13
#015321:23
#0153b1:00000013
#016381:23
#015320:00000013
#016350:23
#016380:00000013
#0173b0:23
#017350:0013
#017320:00000023
#018360:13
#018320:0000002300000000
#018320:0013
#018360:0000000000000023
#019360:13
#019320:0000002300000000
#020350:13
#021320:23
#024370:13
#0243b0:0053
#025370:23
#026320:13
#026360:0053
#027320:23
#028380:00132300
#0283b0:0000005300000000
#028351:00001323
#028321:0000000000530000
#0293b1:13
#029381:00230000
#029321:0013
#029351:00000023
#030351:0000001300000000
#031321:0023
#032361:13
#032321:0053
#033361:23
#0343b1:13
#034371:0053
#0353b1:23
#0363b1:00132300
#036381:0000005300000000
#036320:00001323
#036350:0000000000530000
#037380:13
#0373b0:00230000
#037350:0013
#037320:00000023
#040320:13
#040360:00230000
#040320:0013
#040360:00000023
#042350:13230000
#042320:0053000000000000
#042350:00001323
#042320:0000000000530000
#0433b0:0013
#044370:23
#052320:13
#052360:00230000
#053370:13
#0533b0:00230000
#055320:0013
#055350:00000023
#056350:00132300
#057350:0000001300000000
#057320:0000000000230000
#0593b0:13333333000000000000000000000000
#059370:00230000
#059321:00000000133333330000000000000000
#059361:0023
#0593b0:00000000000000001333333300000000
#059370:00000023
#059321:00000000000000000000000013333333
#060361:23
#060351:00132300
#060321:0000003300000000
#0603b0:00001323
#060380:0000000000330000
#060351:00000013
#060321:0000000000000033
#061351:23
#0613b0:13230000
#061380:0033000000000000
#061321:00130000
#061361:0023
#0613b0:00001333
#061380:0000000000330033
#0623b0:23
#062361:13
#062331:0033000000000000
#062351:00330000
#062321:0000002300000000
#0623b1:0013
#062381:0000000000330000
#0623a1:00000033
#062371:0000000000000023
#063381:00130000
#0633b1:0023
#0663b1:13
#066381:0000002300000000
#067381:0013
#0683b1:23
#070321:13
#070351:0000002300000000
#071351:0013
#072321:23
#0743b1:13
#074381:0000002300000000
#075381:0013
#0763b1:23
#078321:13
#078351:00000023
#0783b0:13
#078380:00000023
#079370:00001222
#0803b0:13
#080370:00230000
#0803b0:0013
#080370:00000023
#082380:13230000
#0823b0:0053000000000000
#082380:00001323
#0823b0:0000000000530000
#083320:0013
#084360:23
#0923b0:13
#092370:00230000
#093360:13
#093320:00230000
#0953b0:0013
#095380:00000023
#100320:0013
#100350:00000023
#1013b0:13
#101380:00230000
#101350:0013
#101320:00000023
#1023b0:13
#102370:0000002300000000
#102370:0013
#1023b0:0000000000000023
#1033b0:13
#103370:0000002300000000
#104320:13
#105360:23
#106370:13
#1073b0:23
#1073b0:00000013
#1083b0:23
#107351:00000013
#108351:23
#1083b1:0013
#108381:00000023
#109321:13
#109351:00230000
#109381:0013
#1093b1:00000023
#110321:13
#110361:0000002300000000
#110361:0013
#110321:0000000000000023
#111321:13
#111361:0000002300000000
