This file was generated by Ched 2.7.0.0.
#TITLE ""
#ARTIST ""
#DESIGNER ""
#DIFFICULTY 0
#PLAYLEVEL
#SONGID ""
#WAVE ""
#WAVEOFFSET 0
#JACKET ""
#REQUEST "ticks_per_beat 480"
#00002: 4
#BPM01: 200
#00008: 01
#TIL00: ""
#HISPEED 00
#MEASUREHS 00
#00018:1313
#0001b:00130013
#00012:0000001300000013
#00015:0013000000130000
#00118:13
#00415:1300001300001300
#00418:0000130000000013
#0041b:0000000000130000
#00818:0000001300130000
#00815:00001313
#00812:00130000
#00810:41
#00918:00130000
#00915:0000001300001313
#0091b:0013
#01115:0013
#01118:0000000000130013
#01112:00000013
#01215:13
#01318:0000001300130000
#01312:00000013
#0131b:0000000000000013
#01315:0013
#0141b:13
#02115:0000001300001300
#0211b:0013
#02118:0000000000130000
#02112:0000000000000013
#02215:0000130000000013
#02218:0000001300001300
#02212:0013
#0221b:13
#0231b:1313
#02318:0000000000000013
#02312:00130000
#02315:00000013
#02412:13
#02416:0013
#02410:41
#0251b:0013000000130000
#02515:00130013
#02518:0000001300000013
#02512:0013
#02818:0000130000000013
#02812:13000013
#0281b:13
#02815:0013
#02912:13
#02918:0000001300000000
#02915:0013
#0291b:0000000000000013
#03018:1300001300000000
#03012:0013000000000000
#03015:00130000
#04018:0000001300000000
#04015:0000130013000013
#0401b:23000013
#04010:41
#04118:1300130013000013
#04112:0013001300000000
#04115:00000013
#04215:0000001300000000
#04218:00131300
#0421b:0000000000130000
#04212:13
#04318:0013001300000000
#04312:13131300
#0441b:00130000
#04418:0000001300130013
#04415:00001313
#0451b:13
#04512:00130000
#04515:0000001300130013
#04518:00001313
#04818:0000001300130013
#04815:00001313
#04912:13131300
#0491b:0013001300000000
#04918:00000013
#04915:0000000000000013
#0501b:13000013
#05015:13130000
#05018:0000001313000000
#05012:0013
#05112:1313
#05115:0013001300000000
#05118:00130000
#05212:0013
#0521b:0000000000000013
#05218:13000013
#05215:0000000000130000
#0541a:1414
#05418:0000000000000013
#05412:00140000
#05415:00000013
#05512:13
#05518:0013000000000000
#05515:00131300
#0551b:0000001300000000
#0561b:1300000000130000
#05615:00000013
#05618:0000000000000013
#05610:41
#05718:0013001300000000
#05715:00130000
#05712:13000000000000000000000000333333
#0581b:0013000000130000
#05815:00130013
#05818:0000001300000013
#05812:0013
#06318:0013000000000000
#06315:00130000
#06312:13
#0641b:0000001300000000
#06415:0013
#06418:0000000000130013
#06412:00000013
#0641f:11
#06515:1300130000000013
#0651b:0013000000000000
#06518:0000001300001300
#06512:0013
#0661b:1300000000000013
#06612:0013
#06618:0000000000130000
#06615:00000013
#06715:1313
#06718:0013001300000000
#06712:00130000
#0781b:13
#07915:12120000
#07919:0012001200000000
#0961b:0013000023000000
#09618:0000130000000013
#09615:0000001300001300
#09612:2300000000130000
#09918:0013001300000000
#0991b:0023
#09915:23230000
#09912:0023
#10015:00130000
#10018:0000001300000013
#10012:0013
#10010:41
#10115:1300001300000013
#10118:00131300
#10312:0013
#10315:0000000000130013
#10318:00000013
#10515:0000001300000013
#10518:00001313
#10512:0000000000130000
#1051b:00130000
#11415:00000013
#11418:0000000000000013
#11412:0033000000000000
#1141b:0033
#00318:1414
#00314:00140000
#01512:00000013
#01515:0000001300000000
#01518:0013
#0261b:13
#02617:0013
#04618:0000001300000013
#04615:0000000000130000
#0461b:00230023
#04612:2323
#06115:00001313
#06118:0000000000130013
#06818:0000001300130013
#06815:00001313
#06915:1300000013000013
#06912:00130000
#0691b:1313
#06918:00130013
#0701b:1300000000000013
#07012:0013
#07018:0000000000130000
#07015:00000013
#07115:1313
#07118:0013001300000000
#07112:00130000
#09715:00130013
#09718:0000001300000013
#0971b:0013000000130000
#09712:2323
#10412:13
#1061b:13
#10712:00131300
#10718:0000001300000000
#00218:1313
#0021b:00130013
#00215:0000001300000013
#00212:0013000000130000
#00618:1300001300001300
#00615:0000130000000013
#00612:0000000000130000
#01615:0000001300130000
#01618:00001313
#0161b:00130000
#01715:00130000
#01718:0000001300001313
#01712:0013
#01918:0013
#01915:0000000000130013
#0191b:00000013
#02018:13
#02712:0013000000130000
#02718:00130013
#02715:0000001300000013
#0271b:0013
#0321b:13
#03217:0013
#03312:0013000000130000
#03318:00130013
#03315:0000001300000013
#0331b:0013
#03615:0000130000000013
#0361b:13000013
#03612:13
#03618:0013
#0371b:13
#03715:0000001300000013
#03718:0013
#03412:13
#03416:0013
#0351b:0013000000130000
#03515:00130013
#03518:0000001300000013
#03512:0013
#05315:13000013
#0531b:0013
#05312:0000000000000013
#05318:0000000000130000
#07212:0000001300000000
#07218:0013
#07215:0000000000130013
#0721b:00000013
#07318:1300130000000013
#07312:0013000000000000
#07315:0000001300001300
#0731b:0013
#07412:1300000000000013
#0741b:0013
#07415:0000000000130000
#07418:00000013
#07518:1313
#07515:0013001300000000
#0751b:00130000
#07615:0000001300130013
#07618:00001313
#07718:13001313
#0771b:00130000
#07712:1313
#07715:0000130000130013
#08015:0000001300000000
#08018:0000130013000013
#08012:23000013
#0801f:21
#08115:1300130013000013
#0811b:0013001300000000
#08118:00000013
#08110:41
#08218:0000001300000000
#08215:00131300
#08212:0000000000130000
#0821b:13
#08315:0013001300000000
#0831b:13131300
#08412:00130000
#08415:0000001300000013
#08418:00001313
#0841b:0000000000130000
#08512:1300000000130000
#0851b:00130000
#08518:0000001300000013
#08515:00001313
#08815:0000001300130013
#08818:00001313
#0891b:13131300
#08912:0013001300000000
#08915:00000013
#08918:0000000000000013
#09012:13000013
#09018:13130000
#09015:0000001313000000
#0901b:0013
#0911b:1313
#09118:0013001300000000
#09115:00130000
#0921b:0013
#09212:0000000000000013
#09215:13000013
#09218:0000000000130000
#09412:1414
#09415:0000000000000013
#0941a:00140000
#09418:00000013
#0951b:13
#09515:0013000000000000
#09518:00131300
#09512:0000001300000000
#08615:0000001300000013
#08618:0000000000130000
#08612:00230023
#0861b:2323
#09318:13000013
#09312:0013
#0931b:0000000000000013
#09315:0000000000130000
#0981b:0013000023000000
#09818:0000130000000013
#09815:0000001300001300
#09812:2300000000130000
#03816:0000140000140000
#03812:24002424
#0381a:0024002400000024
#03916:1400001400000000
#0391a:0024000000000000
#03912:00242400
#10818:00130000
#10815:0000001300000013
#1081b:0013
#10918:1300001300000013
#10915:00131300
#1111b:0013
#11115:0000000000130000
#11118:00000013
#11112:0000000000000013
#1121b:13
#11212:0000000000330000
#04712:23000000000000002333333333333333
#0471b:00230000
#1151b:23232300
#11512:23232300
#0871b:23000000000000002333333333333333
#08712:00230000
#05912:00333333003333330033333300333333
#0051b:0033330000000000
#00515:0000000000333300
#00712:0033003300000000
#06212:0033330000000000
#0621b:0000000000333300
#1131b:33000033
#11312:0000003300000000
#00358:1414
#00354:00140000
#00455:13
#00855:00000053
#01255:63
#0145b:53
#01552:00000063
#01655:13
#01658:00000063
#0235b:1313
#02352:00130000
#02452:53
#02456:0023
#0265b:63
#02657:0023
#02952:63
#02955:0053
#03058:0000006300000000
#0405b:13
#04055:0013
#04258:0063
#0425b:0000000000230000
#04352:0063
#0505b:00000013
#05258:53
#0545a:1414
#05452:00140000
#05555:0053
#05552:00000013
#05758:0000006300000000
#06355:00530000
#0665b:53
#06755:0063
#0705b:53
#07155:0063
#0785b:53
#10052:0053
#10158:0063
#10452:53
#1065b:53
#10858:13
#1085b:0063
#00154:00000014
#00658:13
#00752:0013
#00952:13
#02058:53
#0175b:13
#02252:0013
#0225b:13
#0325b:63
#03257:0023
#0375b:53
#03758:0063
#03452:53
#03456:0023
#04855:13
#04752:0053
#05355:63
#06452:13
#07452:63
#07558:0053
#08058:0013
#08052:13
#0835b:0053
#09052:00000013
#09452:1414
#0945a:00140000
#09558:0063
#0955b:00000013
#08255:0053
#08252:0000000000230000
#09255:63
#09358:53
#0875b:1363
#08752:00130000
#08858:13
#10955:0053
#1125b:53
#08458:13
#08552:13
#0865b:13
#001340:00143424
#001320:0000003400340000
#0053b0:1333330000000000
#005380:0000002300000000
#005350:0000000013333300
#005320:0000000000000023
#007320:1333003323000000
#007350:00330000
#008350:00000013
#009320:23
#010380:13
#0103b0:0000002300000000
#010350:0013
#010320:0000000000000023
#011380:13
#0113b0:0000002300000000
#012350:13
#013320:23
#0143b0:13
#015380:23
#015320:00000013
#016350:23
#016380:00000013
#0173b0:23
#018350:13
#018320:0000002300000000
#018380:0013
#0183b0:0000000000000023
#019350:13
#019320:0000002300000000
#020380:13
#0213b0:23
#024320:13
#024360:0053
#025320:23
#0263b0:13
#026370:0053
#0273b0:23
#029320:13
#029350:00230000
#029350:0013
#029320:00000023
#030380:0000001300000000
#0313b0:0023
#0323b0:13
#032370:0053
#0333b0:23
#034320:13
#034360:0053
#035320:23
#0373b0:13
#037380:00230000
#037380:0013
#0373b0:00000023
#042380:00001323
#0423b0:0000000000530000
#043320:0013
#044350:23
#047320:00000000000000001333333333333333
#048350:23
#052380:13
#0523b0:00230000
#053350:13
#053320:00230000
#055350:0013
#055320:00000023
#056350:00132300
#057380:0000001300000000
#0573b0:0000000000230000
#057320:00000000000000000000000013333333
#058350:23
#059320:13333333003333333333333300333333
#059360:00330033
#060320:23
#0603a0:00143434
#060380:0000003400340034
#0613a0:34240000
#061380:0034000000000000
#062350:13
#062320:0033332300000000
#062380:0013
#0623b0:0000000000333323
#063350:00130000
#064320:23
#0663b0:13
#066380:0000002300000000
#067350:0013
#068320:23
#0703b0:13
#070380:0000002300000000
#071350:0013
#072320:23
#074320:13
#074350:0000002300000000
#075380:0013
#0763b0:23
#0783b0:13
#078380:00000023
#079350:00001222
#082350:00001323
#082320:0000000000530000
#0833b0:0013
#084380:23
#0873b0:00000000000000001333333333333333
#088380:23
#092350:13
#092320:00230000
#093380:13
#0933b0:00230000
#095380:0013
#0953b0:00000023
#100320:0013
#100350:00000023
#101380:0013
#1013b0:00000023
#1023b0:13
#102380:0000002300000000
#102320:0013
#102350:0000000000000023
#1033b0:13
#103380:0000002300000000
#104320:13
#105360:23
#1063b0:13
#107370:23
#107380:00000013
#108380:23
#1083b0:0013
#108380:00000023
#109350:0013
#109320:00000023
#110320:13
#110350:0000002300000000
#1103b0:0013
#110380:0000000000000023
#111320:13
#111350:0000002300000000
#1123b0:13
#112380:00230000
#112320:0000000013330000
#112350:00000023
#1123b0:0000000000000013
#1133b0:33
#113380:0023000000000000
#113320:0000133300000000
#113350:0023
#1133b0:0000000000133300
#113380:0000000000000023
#114320:1333000000000000
#114350:00230000
#1143b0:0000001333000000
#114380:0000000000230000
