This file was generated by Ched 2.7.0.0.
#TITLE ""
#ARTIST ""
#DESIGNER ""
#DIFFICULTY 0
#PLAYLEVEL
#SONGID ""
#WAVE ""
#WAVEOFFSET 0
#JACKET ""
#REQUEST "ticks_per_beat 480"
#00002: 4
#BPM01: 200
#00008: 01
#TIL00: ""
#HISPEED 00
#MEASUREHS 00
#0001b:1300000013130000
#00018:0013001300001300
#00015:0000130000130013
#00012:1313000013000000
#0011b:13
#00112:13
#0031b:1313
#00312:1313
#00315:0016130000000000
#00318:00130000
#00417:1300000000130000
#0041b:0000131300000000
#00415:00000013
#00418:0000000000000013
#0051b:1313001300000000
#00512:0000000013001313
#00517:00130000
#00516:0000000000130000
#00812:13140013
#0081b:1300131300000000
#00814:0000001400000000
#0081a:00000014
#00818:0000000000140000
#00816:0014
#00810:41
#00912:1313
#0091b:00130000
#00919:0000001300000000
#00916:0014140000001300
#00914:0000000000000013
#00917:0013
#01012:1300130000001313
#01016:0000001313000000
#0101b:1313130013130000
#01017:00000013
#01112:1300130013000013
#01115:0000001300001300
#0111b:0013130013000000
#01118:0000000000130000
#01117:13
#01316:0000001300000013
#01314:00001313
#01317:0000000000130000
#01319:00000013
#0131b:0000001300000013
#01312:1300000000130000
#01318:00130000
#0131a:14
#01315:0013000000000000
#02112:1400001313000000
#02115:0000000000130000
#02118:00000013
#0211b:1300001300000013
#02116:0014140014000000
#0221b:13
#02215:0013001300130013
#02218:00130013
#02212:00131313
#02312:13131313
#02315:00001300000013000000001300001300
#02318:00130013001300130000130000000000
#0231b:00001313
#02412:1300001313000013
#02418:1313
#0241b:0013130000131300
#02415:00130013
#02410:41
#02512:13131313
#02519:0013001300130013
#02517:00130013
#0251b:1313
#0281b:1300001300000000
#02814:0000000000000013
#02812:13131300
#02817:0000130000130000
#02819:0013
#02816:00000013
#02917:1313
#02916:00130000
#02919:0000001300000000
#02912:1313
#0291b:00000013
#02918:0000000000000013
#02914:0000001300000000
#03015:13
#03018:0013000000000000
#0301b:00131313
#03012:0000001300130013
#03016:0000001400141400
#0311b:13131313
#03115:00000000000000000000000000130000
#03118:0000000000000013
#03112:00001300000013000000130000000013
#03116:1400141400140000
#0381b:00130013000023002300001300130013
#03812:23002300001300130013000023002300
#03815:0000160000160000
#03912:00130013001300002c00000000000000
#03915:1600001600000000
#0391b:00002300230000130000000000000000
#0401b:0000001300000013
#04017:27131713
#04012:2313
#04016:0013001300130013
#04010:41
#04115:16001300160000001600130000130000
#0411b:00130013
#04118:0000001300000013
#04112:13000000000000001300000000000013
#04212:1300130000140000
#04216:1400001414000014
#0421a:0014000000000000
#0421b:00001313
#0431b:13131313
#04316:0013000000130000
#04317:0000001300000000
#04312:13000000130000001300000000000013
#04315:00000000000000000000000000130000
#04318:0000000000000013
#04412:13161316
#04418:16000000130000000000000000130000
#0441b:00000000000013000000000000000013
#04415:0000000016130013
#04512:16000000000013000000000000130000
#04515:00000000130000001600000000000013
#04518:0000160000131613
#0451b:0013
#04712:26000000160000000000001300000013
#04715:00000000000000000013000000130000
#04718:1600260000130013
#0471b:00002323
#04818:0000001300130013
#04815:00000000000000001300000000130013
#0481b:00131313
#04812:2c130000
#04912:13131313
#04915:0013001300130013
#0491b:13130000
#04918:00000000000000001300000000130013
#0501b:13000000000000130000000013000000
#05012:13000000130000001300000000000013
#05018:00000000001300000000000000001300
#05015:00001600000013000000160000130000
#0511b:13000013
#05118:00001300000000000000000000130000
#05119:00130000
#05116:1300001300000000
#05117:0013
#05114:00130000
#05112:00000000000000001300000000000013
#05115:0000000000000013
#05212:00131313
#05215:00000000000013000000130000130000
#05218:0000000013000013
#0521b:13000000000000000000130000000013
#05418:16001616
#05412:00160016
#05415:0016001600160000
#0551b:1313131313000000
#05512:1313131313000000
#0561b:1300000000130000
#05615:0000000000001313
#05618:00000000000000000000000000130000
#05612:1300000000130000
#05610:41
#05718:0013130000000013
#05715:00000013000000000000000000130000
#05712:13000000000000000000000000000013
#0571b:13000013
#0581b:13001300000000001300130000000013
#05818:0000130000000013
#05812:0000131300001300
#05815:13000000000000001300000000130000
#06215:00000000000013001300000013000013
#0621b:0013000013000000
#06218:00000000130000130000000000001300
#06212:0000000000130000
#06315:0013130000000000
#06318:130000000000000000130000000000000000000000000000000000000000000014000000000000000000000000000000
#0631a:0014
#06316:000000000000001400001400
#06314:00000014
#06312:130000000000000000000014
#0631b:00130000
#0781b:13
#07815:00130000
#07812:13
#07818:00130000
#07917:12120000
#07914:0012001200000000
#0791a:0012001200000000
#0961b:0013000000000000
#09618:0000130000130013
#09615:0000001300001300
#09612:2c1300002c130000
#09916:00001400000014000000141414000000
#0991b:23232300
#09912:23232300
#10016:0000141414000014
#1001b:1300001300001300
#10012:1300130013000013
#10010:41
#10116:1400001400001414
#1011b:1313
#10112:00130000
#10117:0013
#11218:00130013
#1121b:1300001300000013
#11212:0013
#11215:0013000000130000
#11318:13001313
#11315:0013001300000013
#11312:00130000
#1131b:0000000000130000
#11412:13130013
#11415:0013000000130013
#11418:00131300
#1141b:0000001300130000
#11515:0016001600000000
#11512:23232300
#1151b:23232300
#00712:1313001313000000
#00716:00130000
#01212:1313
#01216:0000141400001300
#0121b:00130000
#01214:0000000000000013
#0121a:0000000000000014
#01417:13000013
#01412:1300130000000014
#01416:0000141400000000
#0141b:0013
#01419:0000000000000013
#01512:14131313
#01516:00140000
#0151b:13000013
#0461b:0000001300000000
#04618:16261626
#04615:0000000000160016
#04612:23162616
#06012:13
#0601b:13
#06416:1800000000000012
#0641b:0000001200000000
#06418:0012
#06415:0000000000120000
#06412:00000012
#0641f:11
#00212:1300000013130000
#00215:0013001300001300
#00218:0000130000130013
#0021b:1313000013000000
#00616:1300000000130000
#00612:0000131300000000
#00618:00000013
#00615:0000000000000013
#0161a:00140000
#01618:0000001400000000
#01612:0000131300001400
#01614:0000000000140000
#01616:0014
#0161b:00000013
#0171b:1313
#01712:00130000
#01714:0000001300000000
#01717:00000013
#01719:0000000000000013
#01716:0014140013000000
#0181b:1300130000001313
#01817:0000001313000000
#01812:1313130013130000
#01816:00000013
#0191b:1300130013000013
#01918:0000001300001300
#01912:0013130013000000
#01915:0000000000130000
#01916:13
#0201b:1313
#02016:0000141400000000
#02017:00000013
#02012:0000130000000014
#02019:0000000000000013
#03616:0000130000130000
#03612:1300001300000000
#03614:0013
#0361b:00131300
#03617:13000013
#03619:0000000000000013
#0371b:13000000130000001300000000000013
#03712:13001313
#03718:00001300000013000000000000130000
#03715:0000130000130013
#05312:13000000000000000000130000000013
#0531b:00131313
#05318:00000000000013000000130000130000
#05315:0000000013000013
#05912:1616131300000000
#05918:00130013000000000000000000160016
#05915:00000000001600161600160013001300
#0591b:00000000000000000013001300000000
#06116:00130000
#0271b:13131313
#02714:0013001300130013
#02716:00130013
#02712:1313
#06519:12
#0651c:0012000012000000
#06518:00120012
#06515:0000001200000000
#06512:00001212
#06514:0000000000000012
#0651a:0000000000000012
#0661c:12
#06616:1200000000120000
#06612:0000001200000000
#06614:0012
#06618:00000012
#0661a:0000000000000012
#0671c:12
#0671a:0012000000000000
#06718:00120000
#06716:0000001200000000
#06714:00001212
#06813:1200001200000000
#06816:0012
#06819:0000000000120000
#0681c:00000012
#06818:0000000000000012
#06915:12
#06912:0012000012000000
#06916:00120012
#06919:0000001200000000
#0691c:00001212
#0691a:0000000000000012
#06914:0000000000000012
#07012:12
#07018:1200000000120000
#0701c:0000001200000000
#0701a:0012
#07016:00000012
#07014:0000000000000012
#07112:12
#07114:0012000000000000
#07116:00120000
#07118:0000001200000000
#0711a:00001212
#07212:13131313
#0721b:13001313
#07219:0000001300000000
#07215:0000000000000013
#07218:0000000000130000
#07312:13001313
#07315:0013001300000000
#0731b:13001313
#07318:00130000
#0741b:13131313
#07412:13001313
#07414:0000001300000000
#07418:0000000000000013
#07415:0000000000130000
#0751b:13001313
#07518:0013001300000000
#07512:13001313
#07515:00130000
#07612:13131313
#0761b:13001313
#07619:0000001300000000
#07615:0000000000000013
#07618:0000000000130000
#07712:1313
#07715:0013001300001300
#0771b:1313
#07718:0000130000130013
#08012:2700001327000013
#08016:00130013
#0801b:2313
#08017:0013001300130013
#0801f:21
#08112:00130013
#08115:2600261326000013
#0811b:13000000000000001300000000000013
#08118:00001300000000000000130000130000
#08110:41
#0821b:23130000
#08216:1400001414000014
#08212:0014000023001300
#0821a:0000000000140000
#08312:13131313
#08317:0013000000130000
#08316:0000001300000000
#0831b:13000000130000001300000000000013
#08318:00000000000000000000000000130000
#08315:0000000000000013
#0841b:1313
#08415:00001600130000000000000000130000
#08412:26000000000013002600000000000013
#08418:0000260000132613
#08718:16001300260013000013000000130000
#08715:0013001300130013
#0871b:00000000000000000000001300000013
#08712:26162323
#08815:0000001300130013
#08818:00000000000000001300000000130013
#0881b:00130000
#08812:2c232323
#08918:0013001300130013
#08912:13130000
#08915:00000000000000001300000000130013
#0891b:23232323
#09115:00001300000000000000000000130000
#09117:2300001300000000
#09112:23000013
#09118:0000000000000013
#0911b:00000000000000002300000000000013
#09119:00230000
#09114:00230000
#09116:0023
#0921b:00131313
#09218:00000000000013000000130000130000
#09215:0000000013000013
#09212:13000000000000000000130000000013
#09412:16261626
#09418:00162616
#09415:0016001600160000
#08612:2600161326001600
#08615:0016000000160016
#08618:16261626
#09015:00001600001300000000160000001300
#09018:00000000000013000000000000130000
#09012:23000000000000130000000023000000
#0901b:23000000230000002300000000000013
#0931b:13000000000000000000130000000013
#09312:00131313
#09315:00000000000013000000130000130000
#09318:0000000013000013
#0951b:2313231313000000
#09512:1323132313000000
#09515:00000023
#09518:00000023
#08518:26000000130000002600000000130000
#0851b:00000000000013000000000000000013
#08515:0016000000130013
#08512:00261326
#09712:2c1300002c000000
#09715:0000130000130013
#09718:0000001300001300
#0971b:0013000000130000
#0981b:0013000000000000
#09818:0000130000130013
#09815:0000001300001300
#09812:2c1300002c130000
#10212:1300130000001313
#10216:0000141414001400
#1021b:1313000013130000
#10312:1300130013000013
#10316:1400001400140000
#1031b:0013130013000000
#10315:00000013
#10412:1313
#10416:0000141400001300
#1041b:0000130000000013
#10414:0000000000000013
#10516:0014001400140014
#1051b:13131300
#10512:13130013
#1061b:1313
#10612:1300130000000013
#10616:0000141400000000
#10617:00000013
#10619:0000000000000013
#10716:0014001400140014
#10712:13131300
#1071b:13130000
#10812:1300001300001300
#10816:0000141414000014
#1081b:0000130013000013
#10916:1400001413001414
#10912:1313
#1091b:00130000
#1101b:1300130000001313
#11016:0000141414001400
#11012:1313000013130000
#1111b:1300130013000013
#11116:1400001400140000
#11112:0013130013000000
#11118:00000013
#0261b:1300001313000013
#02615:1313
#02612:0013130000131300
#02618:00130013
#0321b:1313
#03215:1313000013130000
#03218:0000131300001313
#03212:00130013
#0331b:13131313
#03316:1313
#03314:0013001300130013
#03312:00130013
#03412:1313
#03418:1313000013130000
#03415:0000131300001313
#0341b:00130013
#03512:13131313
#03517:1313
#03519:0013001300130013
#0351b:00130013
#00156:00000033
#0015b:00000033
#0035b:1313
#00352:1313
#00355:00130000
#00358:00130000
#00457:13
#0045b:0000001300000000
#00752:0013
#0085a:00000054
#00952:13
#00957:0053
#01552:00000063
#0155b:00000053
#01658:13
#01655:13
#01652:00000064
#0225b:13
#02252:0013
#02352:13131300
#02957:53
#02952:0063
#04057:1717
#04052:5353
#04056:0023000000230000
#04155:16161600
#04452:00160016
#04455:0016
#04458:16
#04552:16
#04555:0016
#04558:00160016
#04658:1616
#04652:00160016
#04752:00160000
#04758:16
#0505b:00000013
#0525b:63
#05458:16001616
#05452:00160016
#05552:0053
#05555:00000013
#0555b:0063
#05558:00000013
#06355:00630000
#06456:18
#10052:0053
#1015b:63
#10157:0053
#04852:1c
#01052:13
#01056:0013
#01152:13
#01252:13
#00656:13
#00652:0000001300000000
#0175b:13
#01756:0063
#0185b:13
#01857:0013
#0195b:13
#0205b:13
#02857:0000530000230000
#02859:0053
#0285b:0000002300000000
#03656:0000630000230000
#03652:0000002300000000
#03654:0063
#03952:001c
#04256:5464
#0425a:0024000000000000
#04252:0000000000240000
#0435b:1313
#04352:00130000
#05352:53
#06052:53
#06156:00530000
#0665c:52
#07052:62
#0725b:53
#07452:63
#0765b:53
#0785b:53
#07855:00530000
#07852:63
#07858:00630000
#08352:1313
#0835b:00130000
#09452:16001616
#09458:00160016
#0805b:6363
#08057:0023000000230000
#08052:1717
#09252:53
#08256:6454
#08252:0024000000000000
#0825a:0000000000240000
#0935b:63
#08852:1c
#09552:0053
#0955b:0063
#09558:00000013
#09555:00000013
#08155:16161600
#08452:1616
#08458:00160016
#08558:1616
#08552:00160016
#08652:1616
#08658:00160016
#08752:16
#08758:00160000
#09052:00000013
#09652:1c1c
#09752:1c1c
#09852:1c1c
#09952:1313
#0995b:00130000
#10252:13
#10256:0014
#10352:13
#10452:13
#10852:13
#1085b:1363
#10952:53
#10956:0063
#1105b:13
#11056:0014
#1115b:13
#1125b:1300000000000013
#11252:0013
#11352:00130000
#1135b:0000000000130000
#11452:13000013
#1145b:0000001300000000
#1155b:1313
#11552:00130000
#001360:00000000130000533300005323000000
#001320:00000000005333000053330000000000
#0013b1:00000000130000533300005323000000
#001371:00000000005333000053330000000000
#004321:13
#004361:00230000
#004361:0000001300000000
#004321:0000000000230000
#005321:13330000
#005361:0033002300000000
#005371:00001333
#0053b1:0000000000330023
#0063b1:13
#006371:00230000
#006371:0000001300000000
#0063b1:0000000000230000
#0073b1:13332300
#007371:0033003300000000
#0083a1:00000014
#009361:24
#009371:0013
#0093b1:00000023
#011381:00000013
#0113b1:0000000000000033
#0123b1:23
#012361:0014
#0123a1:0000000000542400
#014361:0014
#014321:0000000000542400
#015361:0000001400000000
#0153a1:0024
#015321:00000013
#016381:23
#0153b0:00000013
#016350:23
#016320:00000014
#017360:24
#017360:0013
#017320:00000023
#019350:00000013
#019320:0000000000000033
#020320:23
#020360:0014
#020320:0000000000542400
#021320:0000000000000013
#022320:23
#0223b0:0000001323000000
#0223b0:0000000000000013
#0233b0:23
#028370:0000130000530000
#0283b0:0000005300002300
#028390:0033
#029370:13
#0293b0:00230000
#029320:0013
#029360:00000023
#036360:0000130000530000
#036320:0000005300002300
#036340:0033
#040320:13230000
#040360:0053000000000000
#040320:00001323
#040360:0000000000530000
#042360:14240000
#0423a0:0054000000000000
#042360:00001424
#042320:0000000000540000
#0523b0:13
#052360:00230000
#053320:13
#053370:00230000
#055320:0013
#055350:00000023
#0553b1:0013
#055381:00000023
#056351:00132300
#056380:00132300
#057320:0000001300230000
#0573b1:0000001300230000
#060321:13
#060371:00230000
#0603b0:00130000
#060380:0000002300000000
#060351:0000001300000000
#060321:0023
#0603b0:0013
#060380:0000000000230000
#060351:0000000000130000
#060321:00000023
#0603b0:00000013
#060380:0000000000000023
#060351:0000000000000013
#061321:23
#0613b0:13
#061380:0023000000000000
#061351:0013000000000000
#061321:00230000
#061360:00130000
#0613b0:0023
#061361:00001333
#061321:0000000000330033
#062361:23
#0613b0:00000013
#061370:0000000000000033
#0623b0:23
#063350:00130000
#063320:0023
#0663c0:12
#066380:0000002200000000
#0673a0:00001222
#0683b0:1200002200000000
#070320:12
#070360:0000002200000000
#071340:00001222
#0723b0:13
#072370:00230000
#074320:13
#074360:00230000
#0763b0:13
#076370:00230000
#0783b0:13000023
#078350:00530000
#078321:13000023
#078381:00530000
#079341:00001222
#0793a0:00001222
#0803b0:13230000
#080370:0053000000000000
#0803b0:00001323
#080370:0000000000530000
#082360:14240000
#082320:0054000000000000
#082360:00001424
#0823a0:0000000000540000
#092320:13
#092370:00230000
#0933b0:13
#093360:00230000
#095320:0013
#095350:00000023
#0953b1:0013
#095381:00000023
#100321:0013
#100371:00000023
#1013b1:13
#101361:00230000
#101371:0013
#101321:00000023
#103381:00000013
#1033b1:0000000000000033
#1043b1:23
#104361:0014
#1043a1:0000000000542400
#106361:0014
#106321:0000000000542400
#1073b1:00000013
#1083b1:23
#1083b1:0013
#108361:00000023
#109321:13
#109371:00230000
#109361:0013
#1093b1:00000023
#111351:00000013
#111321:0000000000000033
#112321:23
