This file was generated by Ched 2.7.0.0.
#TITLE ""
#ARTIST ""
#DESIGNER ""
#DIFFICULTY 0
#PLAYLEVEL
#SONGID ""
#WAVE ""
#WAVEOFFSET 0
#JACKET ""
#REQUEST "ticks_per_beat 480"
#00002: 4
#BPM01: 200
#00008: 01
#TIL00: ""
#HISPEED 00
#MEASUREHS 00
#0001a:1414
#00014:00140014
#0011a:14
#00212:1414
#00218:00140014
#00312:1616
#00318:00160000
#0041a:14
#00414:00140000
#00418:0014
#00412:00000014
#0051a:14
#00514:00140000
#00518:0014
#00512:00000014
#0061a:14
#00614:00140000
#00618:0014
#00612:00000014
#00718:14
#00714:00140000
#00812:00140014
#00818:0014
#00810:41
#0091a:1414
#00914:00140000
#01212:14
#01214:0014
#0141a:14
#01418:0014
#0161a:00140014
#01614:0014
#01712:1414
#01718:00140000
#0201a:14
#02018:0014
#02212:14
#02214:0014
#02512:1414
#02518:00140014
#0271a:1414
#02714:00140014
#0281a:14
#02812:0014
#02918:14
#02914:0014
#03018:1414
#03014:00140000
#03318:1414
#03312:00140014
#03514:1414
#0351a:00140014
#03614:14
#03618:0014
#03712:14
#0371a:0014
#03818:00140014
#03814:2424
#04014:00140000
#04018:0014
#04012:00000014
#0401a:24
#04010:41
#04118:14
#04114:00140000
#0411a:0014
#04212:14
#04218:00140000
#04214:0014
#0421a:00000014
#04314:14
#04318:00140000
#04312:0014
#0441a:14
#04412:00140000
#04418:00001414
#04414:0000000000140014
#04518:14001414
#04512:00140000
#04514:0000000000140014
#0461a:14
#04614:0000140000140014
#04618:00001414
#04718:1414
#04714:00140000
#0471a:00000034
#04812:0014
#04818:00000014
#04912:1414
#04918:00140000
#0501a:14
#05014:00140000
#05018:0014
#05012:00000014
#05118:14141400
#05114:0014001400000000
#05212:1400000000343434
#05218:00140000
#0531a:00140000
#05314:0000000000343434
#0541a:00140014
#05412:0014
#05512:1434343400000000
#05516:00000024
#0561a:00140014
#05614:0014
#05610:41
#05712:1414
#05718:00140014
#06114:0014
#06118:00000014
#06214:14
#06212:0034343434340000
#06318:14
#0631a:0034340000000000
#06412:14
#06418:0014
#0641f:11
#0661a:14
#06614:0014
#06814:14
#06818:0014
#07018:14
#07014:0014
#07214:1414
#07218:00140014
#07418:1414
#07414:00140014
#07612:14
#07618:00140000
#07614:0014
#0761a:00000014
#07712:14
#07718:00140000
#07714:0014
#0771a:00000014
#07814:14
#08018:00140000
#08014:0014
#0801a:00000014
#08012:24
#0801f:21
#08114:14
#08118:00140000
#08112:0014
#08110:41
#0821a:14
#08214:00140000
#08218:0014
#08212:00000014
#08318:14
#08314:00140000
#0831a:0014
#0841a:00140000
#08414:00001414
#08418:0000000000140014
#08412:24
#0851a:00140000
#08514:24001414
#08518:0000000000140014
#08618:0000140000140014
#08614:00001414
#08612:24
#0881a:0014
#08814:00000014
#0891a:1424
#08914:00140000
#09012:14
#09018:00140000
#09014:0014
#0901a:00000014
#09114:14142400
#09118:0014001400000000
#0921a:1400000000343434
#09214:00140000
#09312:00140000
#09318:0000000000343434
#09412:00140014
#0941a:0014
#09612:1414
#09618:00140014
#09714:1414
#0971a:00140014
#09812:14140000
#0981a:00001414
#09914:14
#09918:00140000
#1001a:00140000
#10014:0014
#10018:00000014
#10010:41
#10112:14
#10118:00140000
#10114:0014
#1011a:00000014
#10414:14
#10518:0014
#10514:00000014
#10618:14
#10812:00140000
#10818:0014
#10814:00000014
#1091a:14
#10914:00140000
#10918:0014
#10912:00000014
#11218:14
#11314:00140000
#11318:0014
#11312:00000014
#1141a:14
#11414:00140000
#11418:0014
#11412:00000014
#0951a:1434343400000000
#09516:00000024
#03913:24242400
#03919:24242400
#08714:2424
#08718:00240000
#08712:00000034
#1151a:24242400
#11512:24242400
#0241a:00343400
#02410:41
#02612:00343400
#03214:00343400
#03418:00343400
#05812:0034343400343434
#07312:00343400
#0751a:00343400
#00352:1616
#00358:00160000
#01252:54
#01254:0024
#0145a:64
#01458:0024
#0205a:64
#02058:0024
#02252:54
#02254:0024
#03058:0054
#0405a:14
#04758:0054
#0485a:14
#05556:00000014
#05552:54
#06254:54
#06358:54
#07854:54
#08052:14
#08852:14
#08754:0054
#10454:54
#10658:64
#11258:64
#0955a:64
#09556:00000014
#007380:0014
#008380:24
#010320:14
#010340:0024
#0113a0:14
#011380:0024
#012320:14
#012340:0054
#013320:24
#0143a0:14
#014380:0054
#0153a0:24
#0183a0:14
#018380:0024
#019320:14
#019340:0024
#0203a0:14
#020380:0054
#0213a0:24
#022320:14
#022340:0054
#023320:34342400
#0243a0:14343400
#024380:00000024
#026320:14343400
#026340:00000024
#030380:0014
#0313a0:0024
#032340:14343400
#032320:00000024
#034380:14343400
#0343a0:00000024
#047380:0014
#0473a0:00000034
#0483a0:24
#052320:0000000014343434
#053340:24
#053340:0000000014343434
#054320:24
#055320:1434343400000000
#055360:00003424
#058320:1434343400343434
#058340:0034
#059320:34
#059340:00000024
#060380:16363636
#060370:0036003600360036
#061380:36260000
#061370:0036000000000000
#062340:14
#062320:0034343434342400
#063380:14
#0633a0:0034340000002400
#065320:14
#065340:0024
#0673a0:14
#067380:0024
#069340:14
#069320:0024
#071380:14
#0713a0:0024
#073340:14
#073320:00343424
#075380:14
#0753a0:00343424
#078340:14
#079320:24
#087340:0014
#087320:00000034
#088320:24
#0923a0:0000000014343434
#093380:24
#093380:0000000014343434
#0943a0:24
#0953a0:1434343400000000
#095360:00003424
#099340:0014
#100340:24
#102320:14
#102340:0024
#103380:14
#1033a0:0024
#104340:14
#105320:24
#106380:14
#1073a0:24
#1103a0:14
#110380:0024
#111340:14
#111320:0024
#112380:14
#1133a0:24
