This file was generated by Ched 2.7.0.0.
#TITLE ""
#ARTIST ""
#DESIGNER ""
#DIFFICULTY 0
#PLAYLEVEL
#SONGID ""
#WAVE ""
#WAVEOFFSET 0
#JACKET ""
#REQUEST "ticks_per_beat 480"
#00002: 4
#BPM01: 120
#00008: 01
#TIL00: ""
#VOLUME: ""
#HISPEED 00
#MEASUREHS 00
#0261f:11
#02615:1300001300000000
#02618:0000130000000013
#0261b:00000013
#02612:0053
#00012:12
#00014:0012000000001200
#00016:00000000120000000012000000000000
#00018:00000000000012000000000000000012
#0001a:0000000012120000
#00017:00000012
#0001c:0000000000000012
#00412:1300000013130000
#00415:00001300000000000013000000000000
#00418:00000000130000000000000000000013
#0041b:0000001300001313
#0051b:1313000023000000
#00512:0013130013131313
#00518:0000001300130013
#00515:00000000001300000000000023000000
#00612:13000000130000000000000000000013
#00618:00001300000013000013000012120000
#00615:00130000000000130000130000001300
#0061b:00000013000000001300000000000000
#00616:0000000000000000000000000000000000000000000000000012000000000000
#0071b:13132323
#00718:00130000000013000000230000000000
#00715:0013000023001300
#00712:00000013000013000000230023000000
#0081b:13
#00817:0000001313000000
#00819:0000000000000013
#00812:13131313
#00810:41
#00917:1313
#00919:0013001300130013
#0091b:00130013
#00912:13131313
#01017:13
#0101b:00000000000013001300000000000013
#01018:0000000000000013
#01012:13131313
#01118:1313
#0111b:0013000000000000
#0111a:00130000
#01119:0000001300000000
#01112:13131300
#01612:0013000000001300
#01615:00130000
#01618:00000000000013000013000000000013
#0161b:1300000013130013
#01616:13
#01610:41
#01715:1313001300230000
#01718:00130000130000002300000013000000
#01712:00132323
#0171b:0000001300232300
#01815:1300001300001300
#01812:0000000000000013
#01818:0000130013000013
#02018:1300001300000000
#02015:0013
#02012:1300001300000000
#0201b:0013
#02515:1300001300000013
#02518:0000001313000000
#02512:1300000000000013
#0251b:0013
#0271b:0000001300000000
#02718:0000000053000013
#02715:53130013
#02815:0000001300000000
#02812:00130013
#0281b:53
#02818:0053
#02915:5313000013000000
#0291b:1300001300000000
#02918:00130000
#02912:1313
#0331b:13002323
#0331b:13
#03312:1300001300230000
#03318:5313000013001300
#03315:0000130000130000
#0341b:000000000000130000130000130000000000000013000000
#03418:130000130000000000000000000000130013000000000013
#03415:0000131300000013
#03412:1313000013000000
#0341f:21
#03512:130000000000000000000000130000130013000000000000
#0351b:0013000013000000
#03518:00130000
#03515:0000001300000000
#03510:0041
#03612:13130000
#0361b:1313001300000000
#03618:000000000013000000000013000000000000000000130000
#03615:000013000000000013000000000000000000000000130000
#03712:130000001300000000130000
#03715:000000000053000000130000000000000000000000000000
#03718:000000000000000000530013000000000000000000000000
#0371b:0053000013000000
#04012:130000130013
#04015:0013001300001300
#04017:0000000000000013
#0401b:000000000000130000000000130000000000000000000013
#04018:00000000130000000000001300000000
#04116:13
#04112:00001300000000001300000000000013
#04115:0000130000130013
#04118:00000000000013000000130000130000
#0411b:00001313
#04218:1313000000000000
#0421b:130000130000000000000000130000130013000000130000
#04212:000000000000130000130000000000000000000000000013
#04215:000000000000130000130000130000000000000013000000
#04315:0013130000000000
#04312:0013
#0431b:000000000013000000000000130000000000000000000000
#04318:001300
#05015:000000130000000000130000000000130013000000130000
#0501b:000000000000230000000000000000000000000000000013
#05018:230000230013
#05012:230000000000230000000000000000130013000000000000
#05118:1313001313005300
#05115:00130013
#05112:0013001300001300
#0511b:00131300
#05312:00131313
#05318:0013001300130013
#05315:00000000001300000000130000000013
#0531b:00000000000000130000000000130000
#05712:000000130000000013000000000000140000000000130000
#05716:0000141414000000
#0571b:000000130013000000000013000000130000130000000000
#05718:000000000000000000000000000000000000000000000013
#05715:000000000013
#05913:0000000000001212
#05918:1322
#05912:0012000000000000
#05914:00120000
#05916:0000001200000000
#05915:0012000000000000
#05917:00120000
#05919:0000001200000000
#0591b:0022
#06013:12
#0011c:12
#00115:0012000000000000
#00118:0000121200120012
#0011a:00000000001200000000000012000000
#00116:0012
#00114:0000000000120012
#00112:0012000000001200
#00212:12
#00218:0000120000000000000000001200000000001200000000000000005200000000
#00214:00001200000000000000001200000000
#0021a:0000000000001200000000000000000012000000000000000052000000000000
#00216:00000000120000120000120000000000
#0021b:00000012
#00215:00000000000000000000000000000012
#00219:00000000000000000000000000520000
#00217:0000000000000052
#0031a:12
#00316:00120000120000000000000000000000
#00318:0012001200000000
#00314:00000012000000000000000000000000
#00312:0000000023232300
#0031b:0000000023232300
#01212:13
#01216:0000001313000000
#01214:0000000000000013
#0121b:13131313
#01316:1313
#01314:0013001300130013
#01312:00130013
#0131b:13131313
#01416:13
#0141b:13131313
#01412:0000001313000013
#01516:13
#01515:0013000000000013
#01514:00130013
#01513:0000001300130000
#0151b:13131313
#01512:0013
#0211b:0000133300000000
#02118:0000133300000000
#02115:0000133300000000
#02112:0000133300000000
#02415:1300000000000013
#0241b:0000001300000000
#02418:1300001300000013
#02410:41
#03018:1300001300000000
#03015:0000130000000013
#03012:00000013
#0301b:0053
#03112:0000001300000000
#03115:0000000053000013
#03118:53130013
#03218:0000001300000000
#0321b:00130013
#03212:53
#03215:0053
#03812:000000000000130000130000130000000000000013000000
#03815:130000130000000000000000000000130013000000000013
#03818:0000131300000013
#0381b:1313000013000000
#0391b:130000000000000000000000130000130013000000000000
#03912:0013000013000000
#03915:00130000
#03918:0000001300000000
#0441b:13130000
#04412:1313001300000000
#04415:000000000000130000000013000000000000000000130000
#04418:000000130000000013000000000000000000000000130000
#04612:130000130000000000000000130000130013000000130000
#0461b:000000000000130000130000000000000000000000000013
#04618:000000000000130000130000130000000000000013000000
#04615:1313000000000000
#04718:000000130000000013000000000000000000000000000000
#04712:0013
#04715:0000001300000000
#0471b:0013
#04816:0000000000000013
#0481b:130000130013
#04812:000000000000130000000000130000000000000000000013
#04818:0013001300000000
#04815:00130000
#04917:13
#0491b:00001300000000001300000000000013
#04918:0000130000130013
#04915:00000000000013000000130000130000
#04912:00001313
#05218:000000130000000000130000000000130013000000130000
#05215:000000230013
#0521b:230000000000230000000000000000130013000000000000
#05212:000000000000230000000000000000000000000000000013
#05210:41
#05418:000000130000000000130000000000130013000000130000
#05412:230000000000230000000000000000000000000000000013
#05415:000000230013
#0541b:230000000000230000000000000000130013000000000000
#05515:1313131313005300
#0551b:0013001300001300
#05512:00131300
#05518:00000013
#05615:000000130000000000130000000000130013000000000000
#05612:230000000000230000000000000000130013000000000000
#05618:0023
#0561b:00230000
#05816:0000141414000000
#05815:130000000000000000000000000000000000000000000013
#0581b:000000130000000013000000000000000000000000130000
#05812:000000130000130000000013000000130000130000000000
#05818:000000000013
#0581a:0000000000140000
#01918:00130013
#01915:0013000000130000
#0191b:0000000000000013
#01912:1313
#02218:1300001300001300
#0221b:0000000000000013
#02215:0000130013000013
#02315:00130013
#02318:0013000000130000
#02312:0000000000000013
#0231b:1313
#0451b:130000001300000000130000
#04518:000000000053000000130000000000000000000000000000
#04515:000000000000000000530013000000000000000000000000
#04512:0053000013000000
#04510:41
#0085b:53
#00857:0053
#01057:13
#01052:13
#0105b:0013
#01158:0013
#01152:0013
#01252:63
#01256:0063
#01456:13
#0145b:13
#01452:0013
#0165b:13
#01656:13
#0215b:00530000
#02158:00531200
#02155:00530000
#02152:00530000
#02154:0012
#02156:0012
#0215a:0012
#02955:00005313
#02958:00000013
#02952:0053
#0335b:00001313
#03352:0000000000130000
#03455:000000000000000000000000000000000013000000000000
#03452:0053
#0355b:0063
#03558:000000000000000000000000000000000013000000000000
#03652:000000000000000000000000000000000043000000000000
#03655:000000000000000000000000000000000046000000000000
#0375b:0053
#03756:00000014
#03752:00000013
#03952:0053
#03955:000000000000000000000000000000000013000000000000
#0385b:0063
#03858:000000000000000000000000000000000013000000000000
#04255:0063
#04252:000000000000000000000000000000000013000000000000
#04358:000000000000000000000000000000000013000000000000
#04355:000000000000000000000000000000000013000000000000
#0435b:0053
#04352:0053
#04752:0063
#04755:000000000000000000000000000000000013000000000000
#0475b:0053
#04758:000000000000000000000000000000000013000000000000
#05058:0053
#0515b:0053
#05158:0053
#05155:00000053
#05152:00000053
#05255:0063
#05455:0063
#05555:0063
#05558:00000063
#0555b:00000063
#05552:0063
#05658:0053
#0595b:0012
#05958:0012
#0255b:0013
#02552:13
#0445b:000000000000000000000000000000000033000000000000
#04455:000000000000000000000000000000000036000000000000
#05756:0054
#05752:0000000000240000
#05856:0064
#0585a:0000000000240000
#04552:0063
#0455b:00000013
#04556:00000014
#04658:0053
#0465b:000000000000000000000000000000000013000000000000
#003380:00000013
#004380:23
#0033b1:00000013
#0043b1:23
#0083b1:13
#008371:00230000
#008371:0013
#0083b1:00000023
#012321:13
#012361:00230000
#012361:0013
#012321:00000023
#018321:13230000
#0183b1:00001323
#0193b1:0000001323000000
#0203b1:13230000
#020321:00001323
#0203b1:0000000000000013
#0213b1:0000533300000000
#0213a1:0022
#021380:1300533322000000
#021352:0013533300000000
#021362:0022
#021323:0000133300000000
#021343:0022
#0223b0:13230000
#022320:00001323
#023320:0000001323000000
#024320:13230000
#0243b0:00001323
#024382:00001323
#026322:1323
#026350:0013
#027350:23
#027382:1323
#0273b0:0013
#0283b0:23
#028382:1323
#028350:0013
#029350:23
#029350:0013
#029380:00000023
#029322:0013
#029352:00000023
#0303b2:1323
#030380:0013
#031380:23
#031352:1323
#031320:0013
#032320:23
#032352:1323
#032380:0013
#033380:23
#034320:0013
#034350:000000000000000000000000000000330023000000000000
#0353b0:0013
#035380:000000000000000000000000000000330023000000000000
#036320:000000000000000000000000130000000023000000000000
#036352:000000000000000000000000000000160026000000000000
#0373b2:1323000000000000
#037350:000000130023000000000000000000000000000000000000
#037382:000000000013000000230000000000000000000000000000
#0373b2:0013
#037362:00000024
#0383b2:0013
#038382:000000000000000000000000000000330023000000000000
#039322:0013
#039352:000000000000000000000000000000330023000000000000
#042352:0013
#042322:000000000000000000000000000000330023000000000000
#043382:1323000000000000
#043322:0000001333000000
#043352:000000000000000000000000000000330023000000000000
#0433b0:0013
#043380:000000000000000000000000000000330023000000000000
#0443b0:000000000000000000000000130000000023000000000000
#044352:000000000000000000000000000000160026000000000000
#045322:1323000000000000
#045380:000000130023000000000000000000000000000000000000
#045352:000000000013000000230000000000000000000000000000
#045322:0013
#045362:00000024
#046382:0013
#0463b2:000000000000000000000000000000330023000000000000
#047352:1323000000000000
#047322:000000000013000023000000000000000000000000000000
#047322:0013
#047352:000000000000000000000000000000330023000000000000
#0473b0:0013
#047380:000000000000000000000000000000330023000000000000
#048320:000000000000000000000000000000130023000000000000
#048352:000000000000000000000000000000130023000000000000
#050382:0013
#0503b2:000000000000000000000000000000330023000000000000
#051382:0013
#051352:00000033
#052382:23
#0513b0:0013
#051380:00000023
#051323:00000013
#052353:23
#052352:0013
#052322:000000000000000000000000000000330023000000000000
#053352:1323000000000000
#054352:0013
#054322:000000000000000000000000000000330023000000000000
#055352:0013
#055382:00000033
#056352:23
#055323:0013
#055353:00000023
#0553b0:00000013
#056380:23
#056382:0013
#0563b2:000000000000000000000000000000330023000000000000
#056322:0000000000000014
#057322:24
#056360:0000000000000014
#057360:24
#0563a3:0000000000000014
#0573a3:24
#057360:00001424
#057320:0000000000340000
#058360:00001424
#0583a0:0000000000340000
#0029b0:00000012
#002990:00000000000000000000000000220000
