This file was generated by Ched 2.7.0.0.
#TITLE ""
#ARTIST ""
#DESIGNER ""
#DIFFICULTY 0
#PLAYLEVEL
#SONGID ""
#WAVE ""
#WAVEOFFSET 0
#JACKET ""
#REQUEST "ticks_per_beat 480"
#00002: 4
#BPM01: 120
#00008: 01
#TIL00: ""
#HISPEED 00
#MEASUREHS 00
#00018:14
#00114:14
#0021a:14
#00312:14
#00518:14
#00614:14
#00714:14
#0081a:14
#00810:41
#00914:14
#01212:14
#01318:14
#01618:14
#01610:41
#01714:14
#0181a:14
#01914:14
#02212:14
#02318:14
#0261a:14
#0261f:11
#0271a:14
#02814:14
#02914:14
#03018:14
#03118:14
#03212:14
#03312:14
#03412:0016
#03418:26
#0341f:21
#03612:16
#03618:0016
#03818:2616
#04012:1616
#04212:0016
#04218:26
#04418:0016
#04412:26
#04618:2616
#04812:1616
#05012:0016
#05018:26
#05118:16
#05218:0016
#05212:26
#05210:41
#05312:16
#05412:0016
#05418:26
#05518:16
#05618:0016
#05612:26
#00418:24
#03510:0041
#02410:41
#04510:41
#0103a0:14
#0113a0:24
#014320:14
#015320:24
#020380:14
#021380:24
#024340:14
#025340:24
#035380:1626
#037320:1626
#039380:1626
#041320:1626
#043380:1626
#045320:1626
#047380:1626
#049320:1626
#057320:1626
#058380:1626
#059320:1600000000003636
#060320:26
