This file was generated by Ched 2.7.0.0.
#TITLE ""
#ARTIST ""
#DESIGNER ""
#DIFFICULTY 0
#PLAYLEVEL
#SONGID ""
#WAVE ""
#WAVEOFFSET 0
#JACKET ""
#REQUEST "ticks_per_beat 480"
#00002: 4
#BPM01: 120
#00008: 01
#TIL00: ""
#HISPEED 00
#MEASUREHS 00
#0001b:13130000
#00016:0013001300000000
#00018:0000000014140000
#00014:00000000000000000014000000000000
#00012:0000000000001313
#00017:00000000000000000000000000000013
#00118:00000000000000000012001200000000
#0011a:00000000000000000000000000120000
#0011b:0000131300000000
#00116:00000000001300002200220000000000
#00114:0000000000002222
#0031b:13
#00315:00130000000000000000000000000000
#00318:0013140024000000
#00312:00000013000000000000000024000000
#00314:0000001400240000
#0031a:00000024
#00415:00000000130023000000000000000013
#00418:1323000000000023
#0041b:0000001313230000
#00416:00000000000000000013000000000000
#00412:0013000000001300
#0051b:13130000
#00515:00000000001300000000000000130000
#00514:00000000000000130000000000000000
#00519:0013
#00513:00000000000000000013000000000000
#00518:0000000000231323
#00512:00002300000000000000001300000000
#0051a:0000002300000000
#00612:13000000000024000000001300002400
#00618:00130000000000000000230000000000
#00616:00140014
#0061b:00000013000000001300000000000000
#00615:00002300000000000013000000000000
#0061a:0000002400000024
#00912:1313000000001313
#00919:00130000
#00914:0000131300000000
#0091b:0000000013130000
#00916:000000000000131300000000
#00917:130000000000000000131300
#01616:00001400000014000013000024000000
#01612:24140000
#0161a:2400140000000013
#01613:0013
#01619:0000000000130000
#01617:00000000000000000000000000000013
#01610:41
#0171b:00130000001300000000130000000000
#01712:0013001300000013
#01718:00000013000000130000000000000000
#01715:00130000
#01714:13
#01812:1313000013000013
#01817:0013000000000000
#0181b:0000131300001300
#01816:0000001300000000
#01818:000000000000000000000000000013000000000000130000
#01815:0000000000130000
#01915:13001313
#01912:0013000000130000
#01918:0000130000000013
#0191b:0000001300000000
#02618:0012000000000000
#0261c:0000001200000012
#02614:00000012
#02616:0000000000000012
#0261a:00120000
#02612:0000000000120000
#0261f:11
#02919:00120000
#02915:0012001200000000
#02918:0000000012120022
#02916:000000000000001200220000
#02912:12
#0291c:12
#03016:0012120000120000
#03014:2200002200001222
#03018:000000000000001200000000
#0301a:2200002200000022
#0301c:0022
#03012:0022
#03118:0012120000120000
#0311a:0000002200001222
#03116:000000000000001200000000
#0311c:2222
#03112:2222
#03114:0000002200000022
#0321a:000000120000000000000000000000000000000012000012
#03218:000000000000120000000000000012000012000000000000
#03216:0000001200001212
#03214:0000000012120000
#03212:22
#0321c:22
#0341b:0013001323130013
#03412:1300130000000013
#03416:0000000023130000
#03417:23230000
#0341f:21
#03515:000013000000000000130000000000130013000000000000
#03518:000000130000000013000000000000000000001300000000
#03512:000000000000130000000000130000000000001300000000
#0351b:130000000000000000000000130000130013000000000000
#03510:0041
#03718:130000000013000000000013000000000000000000000000
#03715:0013001300000000
#03712:000000000013000000000000130000000000000000000000
#0371b:000000000000000013000000000000130000000000000000
#03719:00000013
#03717:0000000000000013
#03716:00000000000000000000001300000000
#04115:13130000
#04112:0013000023002300
#04118:0000001300000000
#0411b:00002323
#04114:0000000000230000
#04119:0000000000230000
#0501b:130013000000130000000000130000130000000000000000
#05016:0013000000000000
#05012:130000131300130000000000
#05017:0000001300000000
#05015:000000000000000000000000000000130013000000000000
#05116:0014001400000000
#05112:23231300
#0511b:23230000
#05417:001300000000000000000000
#05412:1313000013000000
#0541b:0000131300000000
#05416:000000000000000013000000000000120000120000000000
#05418:000000000000000000000000000012000012000000000000
#0551b:1313
#05518:0013000000130000
#05512:000000000000130000000000000000000013000000000000
#05515:000000000000000000130000000013000000260000000000
#05714:12
#05716:0012000000240000
#05718:00120000
#0571a:0000001224002400
#05712:00002424
#0581a:12002424
#05818:0012000000000000
#05816:0000120000240000
#05814:0000001200000000
#05812:00002424
#0081b:0000131313000000
#00812:1300000000001313
#00817:13
#00816:0013
#00810:41
#01015:00000000000000000000000000000013
#01012:0000131313000000
#0101b:13000013
#01016:13
#01017:0013
#01018:0000000000000013
#01512:13131300
#01518:000013000000000000130000000013000000000000000000
#01515:000000130000000013000000000000130000000000000000
#0151b:13131300
#01514:00000013
#01513:0000000000000013
#01519:000000000000000000000000000000000013000000000000
#0151a:000000000013
#02116:0000000014140000
#02115:0013000000000000
#02118:0000001300000000
#0211b:00001313
#02112:0000000000130000
#02415:130000001300001300001300
#02418:000013000000130000000013000000000013000000000000
#02412:0013000013002300
#0241b:0000001300130023
#02410:41
#02514:14141400
#02512:0014000000140000
#02516:0000001400000000
#0251b:0000001300000000
#02519:0013
#02517:0000000000130000
#03612:000000130000000000000000000013000000000013000000
#0361b:2300001300130013
#03615:230000000000230000000013000000000013000000000013
#03618:000000000013000000000000230000000000130000000000
#00216:00130000
#00218:0000001300000000
#00215:00000000000000130000000000000000
#00212:1300000000000000000000000000000000000000000000000033333333003300
#0071a:0014000000002400
#00712:0000001400002400
#00714:0024
#00718:0000000000240000
#01115:0000000000130000
#0111b:00000023
#01112:00000023
#0131b:1313000000001300
#01314:00130000
#01319:0000131300000000
#01312:0013
#01315:000000000000000000000000000000130000000013000000
#01318:000000000000000000000000000013000000000000130000
#01316:13000013
#01317:0013
#01212:0000131313000000
#0121b:1300000000001313
#01216:1300000000130000
#01217:0013000013000000
#0141b:0000131313000000
#01412:1300000000001313
#01417:1300000000130000
#01416:0013000013000000
#0201b:1313000013000013
#02016:0013000000000000
#02012:0000131300001300
#02017:0000001300000000
#02015:000000000000000000000000000013000000000000130000
#02018:0000000000130000
#02212:1300000013000013
#0221b:0013131300001300
#02215:0013001300131300
#02218:000000000000000000000000000013000000000000130000
#02312:1313
#02316:0014001400140000
#0231b:00130013
#02318:0000000000000013
#02716:0012000000000000
#02712:0000001200000012
#0271a:00000012
#02718:0000001200000012
#02714:00120000
#0271c:0000000000120000
#02818:0012000000000000
#0281c:0000001200000012
#02814:00000012
#02816:0000001200000012
#0281a:00120000
#02812:0000000000120000
#0401b:000000130000000000000000000013000000000013000000
#04012:2300001300130013
#04018:230000000000230000000013000000000013000000000013
#04015:000000000013000000000000230000000000130000000000
#04212:1300001300130000
#04218:000000000013
#04215:000000000000000000000000000000000000000000130013
#0421b:0013130023000000
#04217:2300000000130000
#04216:00232300
#04315:000013000000000000130013000000000000000000000000
#04318:000000130013000013000000000000000000000000000000
#04312:000000000000130000000000000000130000001300000000
#0431b:130000000000000000000000130000000013000000000000
#04317:000000000000000000000000000000130000001300000000
#04316:000000000000000000000000000000000013000000000000
#0451b:1300000013000013
#04515:000000130013000000000000000000000000000000000000
#04518:000000000013000013000000000000000000000000000000
#04512:000000000000000000130000000013000000000000000000
#04517:0000000000130000
#04516:000000000013
#04514:000000000000000000000000000000000013000000000000
#04519:00000013
#04510:41
#04412:000000130000000000000000000013000000000013000000
#04418:000000000013000000000000230000130000000000130000
#04415:230000000000230000000013000000000013000000000013
#0441b:2300001300001300
#05212:000013000000130000000000130000130000000000000000
#05217:0013000000000000
#0521b:130000131300130000000000
#05216:0000001300000000
#05218:000000000000000000000000000000130013000000000000
#05210:41
#05316:0014000000000000
#05315:00000000001300000000000000000000
#05318:0000001300260000
#0531b:23000000000000130000000000000000
#05312:23232626
#05616:000013000000000000000000000012000012000000000000
#0561b:1313000013000000
#05612:0000131300000013
#05617:001300
#05618:0000000000121200
#0591a:00000012
#05917:0022000000000012
#05912:222c
#05916:00240000
#05914:0000002800000000
#0591c:22
#06014:12
#03812:0013001323130013
#0381b:1300130000000013
#03817:0000000023130000
#03816:23230000
#03918:000013000000000000130000000000130013000000000000
#03915:000000130000000013000000000000000000001300000000
#0391b:000000000000130000000000130000000000001300000000
#03912:130000000000000000000000130000130013000000000000
#0461b:1300001300130000
#04615:000000000013
#04618:000000000000000000000000000000000000000000130013
#04612:0013130023000000
#04616:2300000000130000
#04617:00232300
#04718:000013000000000000130013000000000000000000000000
#04715:000000130013000013000000000000000000000000000000
#0471b:000000000000130000000000000000130000001300000000
#04712:130000000000000000000000130000000013000000000000
#04716:000000000000000000000000000000130000001300000000
#04717:000000000000000000000000000000000013000000000000
#04918:13130000
#0491b:0013000023002300
#04915:0000001300000000
#04912:00002323
#04919:0000000000230000
#04914:0000000000230000
#04812:000000130000000000000000000013000000000013000000
#0481b:2300001300130013
#04815:230000000000230000000013000000000013000000000013
#04818:000000000013000000000000230000000000130000000000
#03312:23002424
#0331a:0000000000242400
#03315:0023000000000000
#03318:00230000
#0331b:0000002300000000
#00752:00000014
#0075a:00000014
#00352:00000014
#0035a:00000014
#05555:00000016
#05952:001c
#00856:00130000
#00857:00000013
#00852:63
#0085b:0053
#01656:00000014
#02452:00000013
#0245b:0000000000000013
#02554:54645400
#02552:0024000000240000
#02556:0000002400000000
#02559:0063
#02557:0000000000230000
#03352:00000014
#0335a:00000014
#0105b:53
#01052:0063
#01057:00130000
#01056:00000013
#0125b:53430000
#01257:0023000000000000
#01252:00006333
#01256:0000000000230000
#01452:63330000
#01456:0023000000000000
#0145b:00005343
#01457:0000000000230000
#0185b:00130013
#02052:00130013
#0225b:00130013
#03452:530000000000530000000000000000000013000000000000
#03456:0000000000530000
#0345b:0000000000530000
#03457:000000000000000000000000000000000013000000000000
#03555:000000000000000000000000000000000053000000430000
#03552:000000000000000000000000000000000000002300000000
#0355b:000000000000000000000000000000000053000000430000
#03558:000000000000000000000000000000000000002300000000
#03652:0053000000000000
#0365b:0000006300000000
#03758:53
#03752:000000000053000000000000530000000000000000000000
#03756:00000000000000000000002300000000
#0455b:53
#04555:000000000053000000000000000000000000000000000000
#0425b:000000000000630000000000000000000013000000000000
#04252:5300000000630000
#04257:0000000000630000
#04256:000000000000000000000000000000000013000000000000
#04356:000000000000000000000000000000000053000000430000
#0435b:000000000000000000000000000000000053000000430000
#04357:000000000000000000000000000000000000002300000000
#04352:000000000000000000000000000000000000002300000000
#04452:0053000000000000
#0445b:0000006300000000
#05055:000000000000000000000000000000000053000000000000
#0505b:0000000000530000
#05252:0000000000630000
#05258:000000000000000000000000000000000063000000000000
#05456:00000052
#05658:00000062
#0385b:630000000000630000000000000000000013000000000000
#03857:0000000000630000
#03852:0000000000630000
#03856:000000000000000000000000000000000013000000000000
#03958:000000000000000000000000000000000063000000330000
#0395b:000000000000000000000000000000000000002300000000
#03952:000000000000000000000000000000000063000000330000
#03955:000000000000000000000000000000000000002300000000
#0405b:0063000000000000
#04052:0000005300000000
#04652:000000000000530000000000000000000013000000000000
#0465b:6300000000530000
#04656:0000000000530000
#04657:000000000000000000000000000000000013000000000000
#04757:000000000000000000000000000000000063000000330000
#04752:000000000000000000000000000000000063000000330000
#0475b:000000000000000000000000000000000000002300000000
#04756:000000000000000000000000000000000000002300000000
#0415b:00000013
#04152:00000013
#05352:00000016
#0115b:00000013
#01152:00000013
#04852:0053000000000000
#0485b:0000006300000000
#0495b:00000013
#04952:00000013
#001320:13
#001340:0033000000000000
#001360:00230000
#002370:13
#002380:00330000000000000000000000000000
#002390:0033000000000000
#0023a0:00000033000000000000000000000000
#0023b0:00230000
#0023b0:0013
#0023a0:00000000000000000033000000000000
#002390:0000000000330000
#002380:00000000000000000000003300000000
#002370:00000023
#002321:0000000000000000000000000000000000000000000000001333333333003300
#003361:23
#007321:14
#007341:00340000000000000000000000000000
#007361:0024000000000000
#0073a1:00140000
#007381:00000000003400000000000000000000
#007361:0000002400000000
#008321:13
#008361:00230000
#0083b1:0013
#008371:00000023
#0103b1:13
#010371:00230000
#010321:0013
#010361:00000023
#0113b1:1323000000000000
#011350:0013230000000000
#011381:0000132300000000
#011320:0000001323000000
#011381:0000000013230000
#0123b1:13230000
#012371:0053000000000000
#012321:00001323
#012361:0000000000530000
#014321:13230000
#014361:0053000000000000
#0143b1:00001323
#014371:0000000000530000
#017351:00001323
#017321:0000000000330000
#017380:00000013
#0173b0:0000000000000033
#018380:23
#019380:000013230000000000000000000000000000000000000000
#019350:000000000000000013230000000000000000000000000000
#019380:000000000000000000000000000013230000000000000000
#0213b0:13
#021380:0023000000000000
#021320:00130000
#021350:0000002300000000
#021360:0000000000001424
#023320:000013230000000000000000000000000000000000000000
#0233b0:000000000000000013230000000000000000000000000000
#023320:000000000000000000000000000013230000000000000000
#025340:14343424
#025320:0034000000340000
#025360:0000003400000000
#025391:00001323
#025371:0000000000330000
#026321:12
#026361:0022000000000000
#026381:0012
#0263c1:0000000000220000
#0273c1:12
#027381:0022000000000000
#027361:0012
#027321:0000000000220000
#028361:12
#028321:0022000000000000
#0283c1:0012
#028381:0000000000220000
#034321:13
#034361:0023000000000000
#034321:00130000
#034361:0000002300000000
#0343b1:0000000000130000
#034371:000000000000000000000000000000000023000000000000
#034360:0000000000130000
#034320:000000000000000000000000000000000023000000000000
#035350:000000000000000000000000000000000013000000230000
#035320:000000000000000000000000000000000000005300000000
#0353b1:000000000000000000000000000000000013000000230000
#035381:000000000000000000000000000000000000005300000000
#036321:0013000000000000
#036351:000000000023000000000000000000000000000000000000
#0363b1:0000001300000000
#036381:000000000000000000000023000000000000000000000000
#037381:13
#0373b1:0023000000000000
#037321:000000000013000000000000000000000000000000000000
#037351:002300
#037321:0000000013000023
#037361:00000000000000000000005300000000
#0383b1:13
#038371:0023000000000000
#0383b1:00130000
#038371:0000002300000000
#038321:0000000000130000
#038361:000000000000000000000000000000000023000000000000
#038370:0000000000130000
#0383b0:000000000000000000000000000000000023000000000000
#039380:000000000000000000000000000000000013000000230000
#0393b0:000000000000000000000000000000000000005300000000
#039321:000000000000000000000000000000000013000000230000
#039351:000000000000000000000000000000000000005300000000
#0403b1:0013000000000000
#040381:000000000023000000000000000000000000000000000000
#040321:0000001300000000
#040351:000000000000000000000023000000000000000000000000
#042321:13
#042361:0023000000000000
#0423b1:00130000
#042371:0000002300000000
#042321:0000000000130000
#042361:000000000000000000000000000000000023000000000000
#042370:0000000000130000
#0423b0:000000000000000000000000000000000023000000000000
#043360:000000000000000000000000000000000013000000230000
#043320:000000000000000000000000000000000000005300000000
#0433b1:000000000000000000000000000000000013000000230000
#043371:000000000000000000000000000000000000005300000000
#044321:0013000000000000
#044351:000000000023000000000000000000000000000000000000
#0443b1:0000001300000000
#044381:000000000000000000000023000000000000000000000000
#0453b1:13
#045381:0023000000000000
#045351:000000000013000000000000000000000000000000000000
#045321:002300
#0463b1:13
#046371:0023000000000000
#046321:00130000
#046361:0000002300000000
#0463b1:0000000000130000
#046371:000000000000000000000000000000000023000000000000
#046360:0000000000130000
#046320:000000000000000000000000000000000023000000000000
#047370:000000000000000000000000000000000013000000230000
#0473b0:000000000000000000000000000000000000005300000000
#047321:000000000000000000000000000000000013000000230000
#047361:000000000000000000000000000000000000005300000000
#048321:0013000000000000
#048351:000000000023000000000000000000000000000000000000
#0483b1:0000001300000000
#048381:000000000000000000000023000000000000000000000000
#0503b1:0000000000130000
#050381:0000000000000023
#050350:000000000000000000000000000000000013000000000000
#050320:0000000000000023
#051380:00000000000000001353535323000000
#051390:0000000000000000000000000000000000530053005300530000000000000000
#051351:00000000000000000000000013535353
#051341:0000000000000000000000000000000000000000000000000053005300530053
#052351:23
#052321:0000000000130000
#052351:0000000000000023
#052380:000000000000000000000000000000000013000000000000
#0523b0:0000000000000023
#0533b0:00000013
#0533a0:00000000000000000000000000330000
#053390:0000000000000033
#053380:00000000000000000000000000000033
#054370:23
#054360:00000012
#055320:22
#056380:00000012
#0563c0:0000000000000022
#057320:0000000000001424
#0573a1:0000000000001424
#0583a1:0000000000001424
#058320:0000000000001424
