This file was generated by Ched 2.7.0.0.
#TITLE ""
#ARTIST ""
#DESIGNER ""
#DIFFICULTY 0
#PLAYLEVEL
#SONGID ""
#WAVE ""
#WAVEOFFSET 0
#JACKET ""
#REQUEST "ticks_per_beat 480"
#00002: 4
#BPM01: 120
#00008: 01
#TIL00: ""
#HISPEED 00
#MEASUREHS 00
#0001a:14140000
#00012:0014001400000000
#00018:0000000014140014
#00014:00000000000000000014000014000000
#01618:00001400000014000014000000000014
#01612:24140000
#01614:0000000014140014
#01619:00000024
#01610:41
#02918:00130000
#02912:0000001300000000
#02916:0000000014142400
#02915:0013000000000000
#0291b:13
#00212:1313130000000000
#00218:00130013000000000000000000000000
#0021b:0000000013131300
#00215:00000000000000000013001300000000
#00315:13001300001300000000000000000000
#00318:00130000130013000000240000000000
#00314:00002424
#00412:14140000
#0041a:0014001400000000
#00414:0000000014140014
#00418:00000000000000000014000014000000
#0061b:1313130000000000
#00615:00130013000000000000000000000000
#00612:0000000013131300
#00618:00000000000000000013001300000000
#00718:13001300001300002400000024000000
#00715:00130000130013000000000000000000
#00714:0000000000240000
#01115:0000000000130000
#01118:00001323
#0101b:0000000000000013
#01012:0000001300000000
#00815:0000000000000013
#00818:0000001300000000
#00810:41
#00918:13130000
#00915:0000000000001313
#0091b:0000000013130000
#00912:0013001300000000
#01518:0000000000130013
#01515:00001313
#01714:14140000
#0171a:0014000000001400
#01718:0000001400000000
#01712:00001414
#01716:0000000000140000
#01812:1313000000000013
#01818:0000131300000000
#01815:0000000013130000
#0181b:00000013
#0191b:1313000000000013
#01915:0000131300000000
#01918:0000000013130000
#01912:00000013
#02012:1313000000000013
#02015:0000131300000000
#02018:0000000013130000
#0201b:00000013
#02115:0000000000130000
#02112:00000013
#0211b:13000013
#02118:0033333300000000
#0221b:1313000000000013
#02215:0000131300000000
#02218:0000000013130000
#02212:00000013
#02312:1313000000000013
#02318:0000131300000000
#02315:0000000013130000
#0231b:00000013
#0261a:0000001400000014
#0261f:11
#0271a:0000001400000014
#02812:0000001400000014
#03415:0013000000000000
#0341b:0000001300000000
#03412:2300000013000013
#03418:00231300
#0341f:21
#0351b:13
#03518:0013000013000000
#03515:000000000000130000000000000000000013000000000000
#03512:0000001300000000
#03510:0041
#03618:0000230000000013
#03615:0013000000000000
#03612:0000001300000000
#0361b:2323
#0501b:13
#05015:0013000000000000
#05018:000000000000130000000000140000000014000000000000
#05012:0000001300000000
#05014:0000000000140000
#05112:13001313
#0511b:0013000000001300
#05118:0000001300130000
#05115:00130000
#05712:13
#0571b:0013000000000000
#05715:00130000
#05718:0000001300000000
#05719:0000000024242400
#05713:0000000024242400
#0141b:0000001300000000
#01412:0000000000000013
#01218:0000000000000013
#01215:0000001300000000
#01315:13130000
#01318:0000000000001313
#01312:0000000013130000
#0131b:0013001300000000
#0241b:1313000000000023
#02418:0000131300000000
#02415:0000000013130000
#02412:00000023
#02410:41
#02512:13000013
#0251b:00000013
#02515:0033333300000000
#03012:0000001400000014
#03112:0000001400000014
#0321a:0000001400000014
#0371b:13
#03715:13
#03712:0013
#03718:0013
#0381b:2300000013000013
#03815:00231300
#03818:0013000000000000
#03812:0000001300000000
#03912:13
#03915:0013000013000000
#03918:000000000000130000000000000000000013000000000000
#0391b:0000001300000000
#04015:0000230000000013
#04018:0013000000001300
#0401b:0000001300000000
#04012:2323
#04112:13000023
#04118:1300000000230000
#04115:0023
#0411b:00000023
#04212:1313000013000013
#04218:2313000013000000
#04215:0000131300000000
#0421b:0000231300000000
#0431b:13
#04318:0013000013000000
#04315:00130000
#04312:000000000000000000130000000000000013000000000000
#04418:0000230000130013
#04415:0013000000001300
#04412:0000001300000000
#0441b:2323
#0451b:1300000000000013
#04515:1300000000000013
#04512:0000001313000000
#04518:0000001313000000
#04510:41
#0461b:1313000013000013
#04615:2313000013000000
#04618:0000131300000000
#04612:0000231300000000
#04712:13
#04715:0013000013000000
#04718:00130000
#0471b:000000000000000000130000000000000013000000000000
#04815:0000230000130013
#04818:0013000000001300
#0481b:0000001300000000
#04812:2323
#04912:13000023
#04918:1323
#04915:0000001300230000
#0491b:0000001300002300
#05212:13
#05218:0013000000140000
#05215:00130000
#0521b:0000001300000000
#05214:000000000000000000000000140000000014000000000000
#05210:41
#05312:0013000000000000
#05315:0000001300230000
#05318:00230026
#0531b:2323
#0541b:1300001300000000
#05415:0013000000000000
#05418:00130000
#05412:0000001300140000
#05416:0014
#0541a:000000000000000000000000000000000014000000000000
#05512:13000026
#05517:0013000000000000
#05519:0000001300000000
#0551b:0000000000130000
#05514:00130000
#05516:0013
#05612:130000000000000000130000000000000014000000000000
#05618:0013000000000000
#05615:00130000
#0561b:0000001300000000
#05616:0014
#0561a:0000000000140000
#0581b:13
#05812:0013000000000000
#05818:00130000
#05815:0000001300000000
#05813:0000000024242400
#05819:0000000024242400
#0591a:00000014
#05916:0000000000000014
#05914:24242800
#05918:0024002400000000
#06012:14
#03316:0000000024242400
#03312:24240000
#0331a:0024002400000000
#00115:0033000000000000
#00118:0000000000330000
#00518:0033000000000000
#00515:0000000000330000
#01659:00000014
#00354:00000014
#00758:00000014
#0215b:53
#02552:63
#03452:0063
#03458:0063
#0345b:000000000000000000000000000000000013000000000000
#03455:000000000000000000000000000000000013000000000000
#03555:000000000000000000000000000000000053000000000000
#0375b:63
#03755:63
#03752:0063
#03758:0063
#0385b:0053
#03855:0053
#03852:000000000000000000000000000000000013000000000000
#03858:000000000000000000000000000000000013000000000000
#03958:000000000000000000000000000000000063000000000000
#04152:53000013
#04158:53
#0415b:00000013
#04252:0063
#04258:0063
#0425b:000000000000000000000000000000000013000000000000
#04255:000000000000000000000000000000000013000000000000
#04352:000000000000000000000000000000000063000000000000
#0455b:63
#04555:63
#04552:0063
#04558:0063
#0465b:0053
#04655:0053
#04652:000000000000000000000000000000000013000000000000
#04658:000000000000000000000000000000000013000000000000
#0475b:000000000000000000000000000000000053000000000000
#04952:53000013
#04958:53
#0495b:00000013
#05954:0018
#01158:00000013
#02452:00000013
#0245b:0000000000000013
#03356:00000014
#05552:00000016
#05358:00000016
#001320:13
#001350:0033230000000000
#0013b0:0013
#001380:0000000000332300
#0053b0:13
#005380:0033230000000000
#005320:0013
#005350:0000000000332300
#008350:13
#008320:00230000
#008380:0013
#0083b0:00000023
#0103b0:13
#010380:00230000
#010320:0013
#010350:00000023
#0113b0:1323000000000000
#011350:0000132300000000
#012380:13
#0123b0:00230000
#012350:0013
#012320:00000023
#014320:13
#014350:00230000
#0143b0:0013
#014380:00000023
#015320:1323000000000000
#015380:0000132300000000
#0213b0:13
#021380:0033333323000000
#025320:13
#025350:0033333323000000
#026320:13
#026350:00230000
#026320:0013
#026350:00000023
#027350:13
#027320:00230000
#027350:0013
#027320:00000023
#0283b0:13
#028380:00230000
#028380:0013
#0283b0:00000023
#0303b0:13
#030380:00230000
#0303b0:0013
#030380:00000023
#031380:13
#0313b0:00230000
#031380:0013
#0313b0:00000023
#032320:13
#032350:00230000
#032350:0013
#032320:00000023
#034380:0013
#0343b0:000000000000000000000000000000000023000000000000
#034321:0013
#034351:000000000000000000000000000000000023000000000000
#035351:000000000000000000000000000000130033000000000000
#035321:0000000000000023
#036351:000000000000000000000000000000130023000000000000
#0373b1:13
#037381:00230000
#037350:13
#037320:00230000
#037320:0013
#037350:00000023
#037381:0013
#0373b1:00000023
#038351:0013
#038321:000000000000000000000000000000000023000000000000
#0383b0:0013
#038380:000000000000000000000000000000000023000000000000
#039380:000000000000000000000000000000130033000000000000
#0393b0:0000000000000023
#041320:13
#041350:00230000
#041381:13
#0413b1:00230000
#042381:0013
#0423b1:000000000000000000000000000000000023000000000000
#042320:0013
#042350:000000000000000000000000000000000023000000000000
#043320:000000000000000000000000000000130033000000000000
#043350:0000000000000023
#0453b0:13
#045380:00230000
#045351:13
#045321:00230000
#045321:0013
#045351:00000023
#045380:0013
#0453b0:00000023
#046350:0013
#046320:000000000000000000000000000000000023000000000000
#0463b1:0013
#046381:000000000000000000000000000000000023000000000000
#0473b1:000000000000000000000000000000130033000000000000
#047381:0000000000000023
#049321:13
#049351:00230000
#049380:13
#0493b0:00230000
