This file was generated by Ched 2.7.0.0.
#TITLE ""
#ARTIST ""
#DESIGNER ""
#DIFFICULTY 0
#PLAYLEVEL
#SONGID ""
#WAVE ""
#WAVEOFFSET 0
#JACKET ""
#REQUEST "ticks_per_beat 480"
#00002: 4
#BPM01: 120
#00008: 01
#TIL00: ""
#HISPEED 00
#MEASUREHS 00
#00013:13
#0001a:1314000014000000
#00016:00000000140000000014000013000000
#00012:0000001400141300
#0001b:0000000000000013
#00017:00000000000000000000000000000013
#00113:00000000000000000012001200120012
#00112:0013000000000000
#00116:0000131300000000
#0011b:00000000001300000000000000000000
#0011c:0022
#00117:0000000000220022
#0011a:00000022
#00315:00130000001300000000000000000000
#00318:0012130000240000
#00316:00000012000000000000000000000000
#0031a:14000024
#00314:0024
#00312:00000024
#00416:14140000
#00418:00000000000000001300000000130000
#00415:00000000000000000013000013000013
#0041a:0024002400240024
#00412:0024002400240024
#0051b:1323002300230023
#00515:00130013000023000000000000000000
#00518:00000000130000130012000012000000
#00512:00000000001300000000230000002300
#00516:00000000000000001200000000120000
#00616:00002300000000001200001200122200
#00618:0000000000001300000000000000120000001200000000001200001200001200
#00612:1300002300230000
#00614:00130000000000000000000000000000
#0061a:00130000
#0061b:0000002300230000
#0021b:13000013
#00218:00130000000000000000000000000000
#00215:0013000000000000
#00212:00000013000000001300130000000014
#00217:00000000000000000013000000001300
#00214:0000000000000000000000000000000000000000000000000000001300000000
#00219:00000000000000000000000000130000
#00216:0000000000000000000000000000000000000000000000000013000000000000
#0071b:1300001300000000
#00719:00130000000000000000000000000000
#00717:0013000000000000
#00715:00000013000000000000000000000000
#00713:00130000
#00712:0000001300002400
#00718:0024
#00714:0000000000240000
#0071a:00000024
#00915:000000130000000000130000000013000000000000130000
#00919:00130013
#0091b:1313
#00918:000013000000000013000000000000130000000013000000
#00912:1313
#00914:00130013
#02618:0012000000000000
#0261c:1200001200000012
#02614:00000012
#02616:0000001200000012
#0261a:00120000
#02612:0000000012120000
#0261f:11
#0291c:1212
#02916:000000000000001200220000
#02918:0000000000122200
#02914:0012001200000000
#02912:1212
#02917:000012000012000012000000000000000000000000000000
#0291a:00120000
#02919:0000000000000022
#02915:0000000000000022
#03013:0012000000000000
#03012:00122200
#03015:0000002200120022
#03016:00000012
#03019:000000000000000000220000000012120000000000220000
#0301b:0012000000000000
#0301c:00122200
#03018:00000012
#0301a:22
#03014:22
#0321a:0012000000000000
#03218:00120000
#03216:00000012000012000000000000000000
#03214:00000000001200001200000000000000
#03217:0000000000121212
#0321c:220000000000001200001200
#03212:220000000000000000000000000000000000000000120000000000000000000000001200000000000000000000001200
#0341b:000000130013000000130013000000000000000000000000
#03418:0000000000000016
#03412:1300130000000016
#03416:0013001300130000
#03417:23232300
#0341f:21
#03515:000013000000000000130000000000000000000000000000
#03518:000000130000000013000000160000000000000000000000
#03512:1c00000000001c0000000000160000000000001300000000
#03516:000000000000000000000000000000130013000000000000
#0351b:000000000000000000000000000000000013000000000000
#03517:000000000000000000000000000000000000001300000000
#03510:0041
#03718:130000130013000013000000000013000000130000000000
#03715:000000130013000000000013000000130000130000000000
#03712:130000000000000000000000001300000000130000000000130000000000000000000000000000000000000000000000
#0371b:000000130000000013000000001300000000001300000000000000000000000000001300000000000000130000000000
#0501b:000013000000130000000000000000130000130000000000
#05016:140000140000140000140000140013000000140000000000
#05012:130000000000000013000000130000000000000000130000
#05017:000000000013
#05116:000014140000000014140000000000000000000000000000
#05114:0013
#0511b:23230000
#05112:23230000
#05416:000014000000000014000000000000000012000000000000
#05412:1c141c001c000000
#0541a:000000000000000000140000000012000000000000000000
#05418:0000000000120000
#05414:00000012
#0551b:1313
#05515:000013160000000000160000000013160000000000000000
#05512:0000000000001300000000000000000000132c0000000000
#05518:001300
#05714:12000000000000000000280000140000
#05716:000012120000000000000000000000000000000000000000
#05718:000000000000000000001200120000000000000000000000000000000000000000000000000000140000000000000000
#0571a:000000000000000012120000000000000000240000000000
#05712:00002524
#05719:0025
#00812:1300001300001313
#00817:1300001300000000
#0081b:0013130013130000
#00816:000000130013130000000000130013130000000000000000
#00818:0000000000001313
#00810:41
#01512:130000000000130000000016130000000000000000000000
#01518:000013000016000000130000000013000000000000140000
#01515:000000130000000013000000000000130000140000000000
#0151b:13131300
#01514:000000000014
#0151a:000000000000000000000000000000000014000000000000
#01519:000000000000000000000000000000000000001400000000
#01513:000000000000000000000014
#01517:000000000000000000000000000000000000000000000014
#03612:2c00000000002c00000000002c00161c00000000161c0000
#03615:000000000016000000000016000000000013000000000013
#03618:00000013
#01115:0000000000130000
#01118:0000000000130000
#0111b:00000023
#01112:00000023
#0131b:1313001300001300
#01312:13131300
#01316:000014000014000014000014000014140000130014140000
#01212:0000131300001300
#01216:13
#01218:0013001300130013
#0121b:13131313
#01215:000000000013000000000000130000000013000000000000
#02316:14141413
#02314:0000000000000013
#02312:00130000
#0231b:130000000000000000000000130000000013000000000000
#02319:000000000013
#02317:000000000000000000000000000000000000000000000013
#02415:000000160016000000130000000000130016000013000000
#0241b:1300001300000000
#02418:000000000000160000000013000016000000160000000000
#02412:130016001600262c
#02410:41
#04818:000000000000000000000000000000000000130000000013
#04815:000000000000000000000000000016000013000016000000
#04812:2c00001300132c00000000002c00001c00000000001c0000
#0481b:000000000000000000130013000000000000000000000000
#04915:1300001900000000
#0491b:0013000000000000
#04918:00160026
#04912:0000000000130000130000132c0000000000260000000000
#04919:0000000000230000
#04914:0000000000230000
#05316:000014140000000000000000000000000000000000000000
#05312:230000002316191c2300000026000000
#0531b:23002313
#05319:00000000000000000000000000130000
#05317:0000000000000013
#05315:00000000000000000000260000000013
#0561a:0014000000001200
#05612:1c001c141c000013
#05616:000014000000000014000000000000120000000000000000
#05614:000000000000001200000000
#05618:000000000000000000000000000000000012000000000000
#0591c:22000012
#05917:000012220000000000000000000000000000000000120000
#05916:000000000014240000000000000000000000000000000000
#05914:000000000000000018280000000000000000000000000000
#05912:22000000000000000000001c2c0000000000000000000000
#06012:12
#0101b:1300001300001313
#01016:1300001300000000
#01012:0013130013130000
#01017:000000130013130000000000130013130000000000000000
#01015:00000000000000000000000013001313
#0141b:0000131300001300
#01417:13
#01415:0013001300130013
#01412:13131313
#01418:000000000013000000000000130000000013000000000000
#01712:0013001300000013
#01717:0000000000130000
#01715:1300130000000000001300000000000000000000000000000000000000000000
#0171b:00000013000000131300000013000000
#01718:0013000000000000130013000000000000000000000000000000000000000000
#0161b:00000000000000000000000000001313
#01612:24000000140000001313180028000000
#01616:0014001400000000
#0161a:24000000140000000000001400000000
#01610:41
#0191b:1313
#01916:000014000014000014000014000000140000000000140000
#01912:13000013
#01917:00000013
#0181b:000000000000130000130000000013000000130000000000
#01815:000000130016000000130000000000130016000000130000
#01812:13161316
#01818:000000000000000000000013000000000000000000000000
#02012:130000000000130000130000000013000000130000000000
#02018:0013161300131613
#0201b:1313
#02015:000000000016000000000013000000000016000000000000
#02118:0013131300131600
#02115:0013131300130000
#02112:23000016
#0211b:13
#02212:130000000000160000130000000016000000160000000000
#02218:0000161316131613
#0221b:130000000000000000000000000000000000000000000013
#02215:000000160016000000000013000000000016000000000000
#02512:121416181a1c1616
#02716:0012000000000000
#02712:1200001200000012
#0271a:00000012
#02718:0000001200000012
#02714:00120000
#0271c:0000000012120000
#02818:0012000000000012
#0281c:1200001200000000
#02814:00000012
#02812:0000000012000012
#0281a:00120000
#02816:0000001200120000
#0311b:0012000000000000
#0311c:22122200
#03119:0000002200120022
#03118:00000012
#03115:000000000000000000220000000012120000000000220000
#03113:0012000000000000
#03112:22122200
#03116:00000012
#03315:001300230000000000000000
#03318:000000230013000013000000000000000000000000000000
#03317:000000000000000000000013000000000013000000000000
#03316:000000000000001300001300
#03312:000000000000000000230000000000240000000000000013
#0331a:00002424
#0331b:2300000000000023
#03812:000000130013000000130013000000000000000000160000
#03818:0000000000000016
#0381b:13130000
#03817:0013001300130000
#03816:23232300
#03918:000013000000000000130000160000000000000000000000
#03915:000000130000000013000000000000000000000000000000
#03912:1c00000000001c0000000000160000000013000000000000
#0391b:000000000000000000000000000000000000001300000000
#03917:000000000000000000000000000000130013000000000000
#03916:000000000000000000000000000000000000001300000000
#04018:000000000000000000000000000016000013000016000013
#04012:2c002c002c1c001c
#04015:000000000016000000000016000000000000130000000000
#0411b:130000000013000013000013000000000000000000000000
#04112:131316192c002600
#04114:0000000000230000
#04119:0000000000230000
#04118:00000026
#04212:001323132300001c
#0421b:1300130000130000
#04217:0013001300000000
#04216:230000000013000000000013000000000000000000000000
#04218:000000000013
#04215:000000000000000000000000000000000000000000000013
#04318:000013000000000000130013000000000000000000000000
#04315:000000130013000013000000000000000000000000000000
#04312:1c00000000001c00000000001c0000000013000000000000
#0431b:000000000000000000000000000000000000001300000000
#04317:000000000000000000000000000000130013000000000000
#04316:000000000000000000000000000000000000001300000000
#04515:130000130013000013000000000013000000130000000000
#04518:000000130013000000000013000000130000130000000000
#0451b:130000000000000000000000001300000000130000000000130000000000000000000000000000000000000000000000
#04512:000000130000000013000000001300000000001300000000000000000000000000001300000000000000130000000000
#04510:41
#04415:000000000000001600131600
#04412:2c00000000002c00001300132c00001c00000000001c0000
#04418:000000000000000000000000000000000013000000000013
#0441b:000000130013000000000000000000000000000000000000
#0461b:0013231323000000
#04612:130013000013001c
#04616:0013001300000000
#04617:230000000013000000000013000000000000000000000000
#04615:000000000013
#04618:000000000000000000000000000000000000000000000013
#04715:000013000000000000130013000000000000000000000000
#04718:000000130013000013000000000000000000000000000000
#04712:1c00000000001c00000000001c0000000000001300000000
#04716:000000000000000000000000000000130013000000000000
#0471b:000000000000000000000000000000000013000000000000
#04717:000000000000000000000000000000000000001300000000
#05212:000013000000130000000000000000130000130000000000
#05216:000000140000140000140000140000000000140013000000
#0521b:000000000000000013000000130000000000000000130000
#05217:000000000000001300000000
#05210:41
#0581a:12000024
#05818:000000001200120000000000000000000000000000000000000000000000000000000000000000140000000000000000
#05816:000000000012120000000000000000000000000000000000
#05814:000000000000000000000000000000001200120000000000000000000000280000000000000000140000000000000000
#05819:0025
#05812:00002524
#00752:00000014
#0075a:00000014
#00758:0014
#00754:0000000000140000
#00352:00000014
#0035a:00000014
#00354:0014
#00358:0000000000140000
#03758:530000530053000053000000000000000000000000000000
#03755:000000000053000000000000000000000000530000000000
#0375b:000000230000000023000000002300000000002300000000000000000000000000000000000000000000000000000000
#03752:000000000000000000000000002300000000000000000000000000000000000000000000000000000000000000000000
#05454:00000052
#0565a:00000062
#05552:0000001c
#05952:001c
#02452:000016000000161c
#0335a:00000014
#05352:00000016
#0085b:0000130000130000
#01052:0000130000130000
#0125b:00130013
#01452:00130013
#01652:00000018
#0175b:00000053
#01852:00160016
#02058:00160016
#02158:0053635300005600
#02155:0063536300000000
#02152:53000066
#0215b:53
#02258:00160016
#02356:54645400
#03452:530000000000530000000000000000000013000000000000
#03456:0023002300530000
#0345b:000000000000000000000000000000000013000000000000
#03556:000000000000000000000000000000000053000000430000
#03552:000000000000000000000000000000000000002300000000
#0355b:000000000000000000000000000000000053000000430000
#03557:000000000000000000000000000000000000002300000000
#03652:3c4c3c00
#0385b:630000000000630000000000000000000013000000000000
#03857:0023002300630000
#03852:000000000000000000000000000000000013000000000000
#0395b:000000000000000000000000000000000000002300000000
#03957:000000000000000000000000000000000063000000330000
#03952:000000000000000000000000000000000063000000330000
#03956:000000000000000000000000000000000000002300000000
#04052:4c3c4c00
#04158:00000046
#04152:00000036
#04555:630000630063000063000000000000000000000000000000
#04558:000000000063000000000000000000000000630000000000
#04552:000000230000000023000000002300000000002300000000000000000000000000000000000000000000000000000000
#0455b:000000000000000000000000002300000000000000000000000000000000000000000000000000000000000000000000
#0425b:6300630000630000
#04252:000000000000000000000000000000000013000000000000
#04256:000000000000000000000000000000000013000000000000
#04257:0053005300000000
#0435b:000000000000000000000000000000000000002300000000
#04357:000000000000000000000000000000000063000000330000
#04352:000000000000000000000000000000000063000000330000
#04356:000000000000000000000000000000000000002300000000
#04452:4c3c4c00
#04652:5300530000530000
#04656:0063006300000000
#0465b:000000000000000000000000000000000013000000000000
#04657:000000000000000000000000000000000013000000000000
#04752:000000000000000000000000000000000000002300000000
#04756:000000000000000000000000000000000053000000430000
#0475b:000000000000000000000000000000000053000000430000
#04757:000000000000000000000000000000000000002300000000
#04852:3c4c3c00
#04958:00000046
#04952:00000036
#0575a:00000054
#05752:00000054
#05758:00000000000000000000000000240000
#05754:00000000000000000000000000240000
#05858:00000000000000000000000000240000
#05854:00000000000000000000000000240000
#0585a:00000064
#05852:00000064
#0115b:00000013
#01152:00000013
#0013b0:13230000
#001370:0033000000000000
#002370:00132300
#0023b0:0000003300000000
#002390:00000000000000330000000000000000
#003380:0000001323000000
#0113b0:130053330053230000000000
#011380:005300330000005300330000000000000000000000000000
#011321:0013000000000000
#011351:000053230000000000000000
#011321:0000001300000000
#011351:000000000053230000000000
#017361:00001323
#017321:0000000000330000
#0173b0:00000013
#018370:23
#019320:000000130023000000000000000000000000000000000000
#0193b0:000000132300000000000000
#019320:000000000000000000130023000000000000000000000000
#019320:000000000000000000000000000014240000000000000000
#0193a0:000000000000000000000000000000000000000014240000
#021320:13
#021380:0033003300000000
#021350:00332300
#0213b1:13
#021351:0033003300000000
#021381:00332300
#021381:00000016
#0213c1:0000000000000022
#021320:0000000000001622
#023360:14
#023320:0024000000000000
#023381:000013230000000000000000000000000000000000000000
#023361:00140000
#0233a1:0000002400000000
#023350:000000000000000013230000000000000000000000000000
#023360:0014
#023320:0000000000240000
#023381:000000000000000000000000000013230000000000000000
#025381:0000000000001626
#026321:12220000
#026361:0032000000000000
#026381:00001222
#0263c1:0000000000320000
#0273c1:12220000
#027381:0032000000000000
#027361:00001222
#027321:0000000000320000
#028361:12220000
#028321:0032000000000000
#0283c1:00001222
#028381:0000000000320000
#034321:13332300
#034361:0053005300000000
#0343b1:000000000000000000000000000000130023000000000000
#034360:0000000000130000
#034320:000000000000000000000000000000000023000000000000
#0353b0:000000000000000000000000000000130033000000230000
#035370:000000000000000000000000000000000000005300000000
#035361:000000000000000000000000000000000013000000230000
#035321:000000000000000000000000000000000000005300000000
#036321:000000130023000000000000000000000000000000000000
#0363b1:000000000000000000130023000000000000000000000000
#037381:130000330033000033000023000000000000000000000000
#0373b1:000000530000000053000000005300000000005300000000000000000000000000000000000000000000000000000000
#037350:000000000013000023000000000000000000000000000000
#037320:000000000000000000000000005300000000000000000000000000000000000000000000000000000000000000000000
#037351:00000013
#037321:0000000000000023
#0383b1:13332300
#038371:0053005300000000
#038321:000000000000000000000000000000130023000000000000
#038370:0000000000130000
#0383b0:000000000000000000000000000000000023000000000000
#039320:000000000000000000000000000000130033000000230000
#039360:000000000000000000000000000000000000005300000000
#039371:000000000000000000000000000000000013000000230000
#0393b1:000000000000000000000000000000000000005300000000
#0403b1:000000130023000000000000000000000000000000000000
#040321:000000000000000000130023000000000000000000000000
#0423b1:13332300
#042371:0053005300000000
#042321:000000000000000000000000000000130023000000000000
#0423b0:0000000000130000
#042360:000000000000000000000000000000000023000000000000
#043320:000000000000000000000000000000130033000000230000
#043360:000000000000000000000000000000000000005300000000
#043371:000000000000000000000000000000000013000000230000
#0433b1:000000000000000000000000000000000000005300000000
#044351:000000160026000000000000000000000000000000000000
#044351:000000000000000000160026000000000000000000000000
#045351:130000330033000033000023000000000000000000000000
#045321:000000530000000053000000005300000000005300000000000000000000000000000000000000000000000000000000
#045380:000000000013000023000000000000000000000000000000
#0453b0:000000000000000000000000005300000000000000000000000000000000000000000000000000000000000000000000
#045381:00000013
#0453b1:0000000000000023
#046321:13332300
#046361:0053005300000000
#0463b1:000000000000000000000000000000130023000000000000
#046320:0000000000130000
#046370:000000000000000000000000000000000023000000000000
#0473b0:000000000000000000000000000000130033000000230000
#047370:000000000000000000000000000000000000005300000000
#047361:000000000000000000000000000000000013000000230000
#047321:000000000000000000000000000000000000005300000000
#048351:000000160026000000000000000000000000000000000000
#048351:000000000000000000160026000000000000000000000000
#051391:00000000000000001353535300000000
#0513b1:0000000000000000000000000000000000530053005300530000000000000000
#051381:00000000000000000000000033535353
#0513a1:0000000000000000000000000000000000000000000000000053005300530053
#052381:23
#051320:00000000000000000000000013535353
#051340:0000000000000000000000000000000000000000000000000053005300530053
#052320:23
#054340:00000012
#055370:22
#0563a0:00000012
#056370:0000000000000022
#057320:0000000000001424
#057340:00000000000000000000000000540000
#0573a1:0000000000001424
#057381:00000000000000000000000000540000
#0583a1:0000000000001424
#058381:00000000000000000000000000540000
#058320:0000000000001424
#058340:00000000000000000000000000540000
